VERSION	0.00.00	1.05.00
FES_MODE	0
BPM_DEF	115.000	115.000	115.000	115.000
MET_DEF	4	4
RESOLUTION	384
CLK_DEF	384
COMPATIBLE_CODE	MA2

BPM	0	0	115.000
MET	0	0	4	4

NMHLD	1	0	2	288
NMHLD	1	0	4	288
NMHLD	2	0	0	2496
NMHLD	2	0	2	96
NMHLD	2	192	1	96
NMHLD	3	0	1	96
NMHLD	3	192	2	96
NMHLD	4	0	3	96
NMHLD	4	192	4	96
NMHLD	5	0	5	192
NMTAP	5	288	4
NMTAP	6	0	3
NMTTP	6	96	2	A	0	M1
NMTTP	6	192	3	B	0	M1
NMTTP	6	288	4	D	0	M1
NMTTP	7	0	4	B	0	M1
NMTTP	7	96	0	C	0	M1
NMTTP	7	192	6	E	0	M1
NMTTP	7	288	6	A	0	M1
NMTTP	8	0	7	A	0	M1
NMTTP	8	288	0	C	0	M1
BRTAP	9	0	6
BRTAP	9	0	7
NMTAP	9	48	6
NMTAP	9	48	7
NMTAP	9	96	2
NMTAP	9	96	3
NMTAP	9	144	2
NMTAP	9	144	3
NMTAP	9	192	0
NMTAP	9	192	1
NMTAP	9	240	0
NMTAP	9	240	1
NMTAP	9	288	4
NMTAP	9	288	5
NMTAP	9	336	4
NMTAP	9	336	5
NMTAP	10	0	6
NMTAP	10	0	7
NMTAP	10	48	6
NMTAP	10	48	7
NMTAP	10	96	0
NMTAP	10	96	1
NMTAP	10	144	0
NMTAP	10	144	1
NMTAP	10	192	4
NMTAP	10	192	5
NMTAP	10	240	4
NMTAP	10	240	5
NMTAP	10	288	3
NMTAP	10	288	6
NMTAP	11	0	5
NMTAP	11	48	5
NMTAP	11	96	3
NMTAP	11	144	4
NMTAP	11	192	2
NMTAP	11	240	2
NMSTR	11	288	1
NMSI_	11	288	1	96	96	5
NMHLD	11	288	3	192
NMTAP	11	336	1
NMTAP	12	192	5
NMTAP	12	192	7
NMHLD	12	288	6	48
NMHLD	12	288	7	48
NMTAP	13	0	0
NMTAP	13	0	1
NMTAP	13	48	0
NMTAP	13	48	1
NMTAP	13	96	4
NMTAP	13	96	5
NMTAP	13	144	4
NMTAP	13	144	5
NMTAP	13	192	6
NMTAP	13	192	7
NMTAP	13	240	6
NMTAP	13	240	7
NMTAP	13	288	2
NMTAP	13	288	3
NMTAP	13	336	2
NMTAP	13	336	3
NMTAP	14	0	0
NMTAP	14	0	1
NMTAP	14	48	0
NMTAP	14	48	1
NMTAP	14	96	6
NMTAP	14	96	7
NMTAP	14	144	6
NMTAP	14	144	7
NMTAP	14	192	2
NMTAP	14	192	3
NMTAP	14	240	2
NMTAP	14	240	3
NMTAP	14	288	1
NMTAP	14	288	4
BRHLD	15	0	0	2784
NMTAP	15	0	1
NMTAP	15	48	1
NMTAP	15	96	2
NMTAP	15	144	2
NMSTR	15	192	3
NMSI_	15	192	3	96	96	7
NMTAP	15	240	3
NMHLD	16	144	7	24
NMHLD	16	240	7	96
NMHLD	17	0	7	96
NMHLD	17	144	7	24
NMHLD	17	240	7	96
NMHLD	18	0	6	96
NMHLD	18	144	6	24
NMHLD	18	240	6	96
NMHLD	19	0	6	96
NMHLD	19	144	6	24
NMHLD	19	240	6	96
NMHLD	20	0	5	96
NMHLD	20	192	5	96
NMTTP	21	0	5	E	0	M1
NMTTP	21	96	4	D	0	M1
NMTTP	21	192	0	C	0	M1
NMTTP	21	288	6	A	0	M1
BRHLD	22	0	5	672
NMHLD	22	192	0	96
NMTTP	23	0	1	E	0	M1
NMTTP	23	96	1	B	0	M1
NMTTP	23	192	2	E	0	M1
NMHLD	24	0	2	672
NMHLD	24	0	3	96
NMHLD	24	192	3	96
NMHLD	25	0	1	96
NMHLD	25	192	1	1056
NMHLD	26	0	0	96
NMHLD	26	192	0	96
NMHLD	27	0	7	48
NMHLD	27	96	7	48
BRTAP	27	192	7
BRTAP	27	240	7
BRTAP	27	288	7
NMHLD	28	0	6	864
NMHLD	28	192	1	96
NMHLD	29	0	2	96
NMHLD	29	192	2	96
NMHLD	30	0	3	288
NMHLD	30	192	5	96
BRTAP	31	0	3
BRTAP	31	0	5
NMTTP	31	192	0	C	0	M1
BRTAP	32	0	0
BRTAP	32	0	1
NMTAP	32	48	0
NMTAP	32	48	1
NMTAP	32	96	3
NMTAP	32	144	4
NMTAP	32	144	5
NMTAP	32	192	6
NMTAP	32	192	7
NMTAP	32	240	6
NMTAP	32	240	7
NMTAP	32	288	4
NMTAP	32	336	2
NMTAP	32	336	3
NMTAP	33	0	0
NMTAP	33	0	1
NMTAP	33	48	0
NMTAP	33	48	1
NMTAP	33	96	6
NMTAP	33	96	7
NMTAP	33	144	6
NMTAP	33	144	7
NMTAP	33	192	4
NMTAP	33	192	5
NMTAP	33	240	2
NMTAP	33	240	4
BRTAP	33	288	1
BRTAP	33	288	3
NMHLD	34	0	0	96
NMSTR	34	0	1
NMSI_	34	0	1	96	48	5
NMTAP	34	48	1
NMSTR	34	192	6
NMSI_	34	192	6	96	48	2
NMHLD	34	192	7	96
NMTAP	34	240	6
NMTAP	35	0	1
NMTAP	35	0	3
NMTAP	35	48	2
NMTAP	35	48	4
NMTAP	35	96	5
NMTAP	35	144	5
NMTAP	35	192	4
NMTAP	35	192	6
NMHLD	35	288	0	48
NMHLD	35	288	1	48
BRTAP	36	0	6
BRTAP	36	0	7
NMTAP	36	48	6
NMTAP	36	48	7
NMTAP	36	96	4
NMTAP	36	144	2
NMTAP	36	144	3
NMTAP	36	192	0
NMTAP	36	192	1
NMTAP	36	240	0
NMTAP	36	240	1
NMTAP	36	288	3
NMTAP	36	336	4
NMTAP	36	336	5
NMTAP	37	0	6
NMTAP	37	0	7
NMTAP	37	48	6
NMTAP	37	48	7
NMTAP	37	96	0
NMTAP	37	96	1
NMTAP	37	144	0
NMTAP	37	144	1
NMTAP	37	192	2
NMTAP	37	192	3
NMTAP	37	240	3
NMTAP	37	240	5
BRTAP	37	288	4
BRTAP	37	288	6
NMTAP	38	0	5
NMTAP	38	48	3
NMTAP	38	48	4
NMTAP	38	96	2
NMTAP	38	144	0
NMTAP	38	144	1
NMHLD	38	192	6	288
NMHLD	38	192	7	96
NMTHO	39	0	0	1152	C	0	M1
NMSTR	39	192	6
NMSCR	39	192	6	96	96	2
CNSUL	40	0	2	0	288	5
CNSLL	40	288	5	0	192	1
CNSI_	41	96	1	0	288	4
NMTTP	42	192	0	C	0	M1
NMHLD	42	288	0	48
NMHLD	42	288	1	48
BRTAP	43	0	6
BRTAP	43	0	7
NMTAP	43	48	6
NMTAP	43	48	7
NMTAP	43	96	3
NMTAP	43	144	2
NMTAP	43	144	4
NMTAP	43	192	0
NMTAP	43	192	1
NMTAP	43	240	0
NMTAP	43	240	1
NMTAP	43	288	4
NMTAP	43	336	3
NMTAP	43	336	5
NMTAP	44	0	6
NMTAP	44	0	7
NMTAP	44	48	6
NMTAP	44	48	7
NMTAP	44	96	3
NMTAP	44	144	2
NMTAP	44	144	4
NMTAP	44	192	0
NMTAP	44	192	1
NMTAP	44	240	6
NMTAP	44	240	7
NMTAP	44	288	4
NMTAP	44	288	5
NMSTR	45	0	1
NMSI_	45	0	1	96	48	4
NMHLD	45	0	3	96
NMTAP	45	48	1
NMTAP	45	192	3
NMTAP	45	192	5
NMTAP	45	240	2
NMTAP	45	240	4
NMSTR	45	288	1
NMSCR	45	288	1	96	96	4
NMSTR	45	288	5
NMSV_	45	288	5	96	96	0
NMTAP	45	336	1
NMTAP	45	336	5
NMTAP	46	192	0
NMTAP	46	192	4
NMHLD	46	288	1	48
NMHLD	46	288	4	48
NMTAP	47	0	2
NMTAP	47	0	3
NMTAP	47	48	2
NMTAP	47	48	3
NMTAP	47	96	6
NMTAP	47	96	7
NMTAP	47	144	6
NMTAP	47	144	7
NMTAP	47	192	4
NMTAP	47	192	5
NMTAP	47	240	4
NMTAP	47	240	5
NMTAP	47	288	0
NMTAP	47	288	1
NMTAP	47	336	0
NMTAP	47	336	1
NMTAP	48	0	2
NMTAP	48	0	3
NMTAP	48	48	2
NMTAP	48	48	3
NMTAP	48	96	4
NMTAP	48	96	6
NMTAP	48	144	4
NMTAP	48	144	6
NMTAP	48	192	5
NMTAP	48	192	7
NMTAP	48	240	0
NMTAP	48	240	6
BRTAP	48	288	1
BRTAP	48	288	7
NMHLD	49	0	2	48
NMHLD	49	48	1	48
NMHLD	49	96	0	48
NMHLD	49	144	7	144
NMSTR	49	192	6
NMSCR	49	192	6	96	48	1
NMHLD	50	0	3	48
NMHLD	50	48	2	48
NMHLD	50	96	1	48
NMHLD	50	144	0	144
NMSTR	50	192	7
NMSCR	50	192	7	96	48	2
NMHLD	51	0	4	48
NMHLD	51	48	3	48
NMHLD	51	96	2	192
NMHLD	51	144	1	144
NMHLD	52	0	5	720
NMHLD	52	144	3	24
NMHLD	52	240	3	96
NMHLD	53	0	7	96
NMHLD	53	144	7	24
NMHLD	53	240	7	864
NMHLD	54	0	2	96
NMHLD	54	144	2	24
NMHLD	54	240	2	96
NMHLD	55	0	1	96
NMHLD	55	144	1	24
NMHLD	55	240	0	96

T_REC_TAP	200
T_REC_BRK	19
T_REC_XTP	0
T_REC_BXX	0
T_REC_HLD	77
T_REC_XHO	0
T_REC_BHO	2
T_REC_BXH	0
T_REC_STR	10
T_REC_BST	0
T_REC_XST	0
T_REC_XBS	0
T_REC_TTP	18
T_REC_THO	1
T_REC_SLD	10
T_REC_BSL	0
T_REC_ALL	337
T_NUM_TAP	228
T_NUM_BRK	21
T_NUM_HLD	78
T_NUM_SLD	10
T_NUM_ALL	337
T_JUDGE_TAP	247
T_JUDGE_HLD	744
T_JUDGE_SLD	10
T_JUDGE_ALL	1001
TTM_EACHPAIRS	108
TTM_SCR_TAP	114000
TTM_SCR_BRK	54600
TTM_SCR_HLD	78000
TTM_SCR_SLD	15000
TTM_SCR_ALL	261600
TTM_SCR_S	251750
TTM_SCR_SS	259500
TTM_RAT_ACV	10080

