VERSION	0.00.00	1.05.00
FES_MODE	0
BPM_DEF	115.000	115.000	115.000	115.000
MET_DEF	4	4
RESOLUTION	384
CLK_DEF	384
COMPATIBLE_CODE	MA2

BPM	0	0	115.000
MET	0	0	4	4

NMTAP	2	0	5
NMTAP	2	96	5
NMTAP	2	192	5
NMTAP	3	0	6
NMTAP	3	96	6
NMTAP	3	192	6
NMTAP	4	0	7
NMTAP	4	96	7
NMTAP	4	192	7
NMTAP	5	0	0
NMTAP	5	96	0
NMTAP	5	192	0
NMTAP	6	0	1
NMTAP	6	96	1
NMTAP	6	192	1
NMTAP	7	0	2
NMTAP	7	96	2
NMTAP	7	192	2
NMHLD	8	0	3	192
NMHLD	8	0	4	192
NMTAP	9	0	2
NMTAP	9	48	2
NMTAP	9	96	2
NMTAP	9	192	2
NMTAP	9	192	3
NMTAP	10	0	1
NMTAP	10	48	1
NMTAP	10	96	1
NMTAP	10	192	0
NMTAP	10	192	1
NMTAP	11	0	7
NMTAP	11	48	7
NMTAP	11	96	7
NMTAP	11	192	6
NMTAP	11	192	7
NMTAP	12	0	4
NMTAP	12	0	5
NMTAP	12	96	4
NMTAP	12	96	5
NMTAP	12	192	4
NMTAP	12	192	5
NMTAP	13	0	6
NMTAP	13	48	6
NMTAP	13	96	6
NMTAP	13	192	6
NMTAP	13	192	7
NMTAP	14	0	1
NMTAP	14	48	1
NMTAP	14	96	1
NMTAP	14	192	0
NMTAP	14	192	1
NMTAP	15	0	7
NMTAP	15	48	7
NMTAP	15	96	7
NMTAP	15	192	0
NMTAP	15	192	7
NMSTR	16	0	1
NMSI_	16	0	1	96	192	4
NMSTR	17	0	6
NMSI_	17	0	6	96	192	3
NMSTR	18	0	2
NMSI_	18	0	2	96	192	5
NMSTR	19	0	6
NMSI_	19	0	6	96	192	2
NMSTR	20	0	1
NMSUR	20	0	1	96	480	4
NMSTR	22	0	6
NMSUL	22	0	6	96	480	3
NMTAP	24	0	1
NMTAP	24	96	1
NMTAP	24	192	0
NMTAP	24	192	1
NMTAP	25	0	2
NMTAP	25	96	2
NMTAP	25	192	2
NMTAP	25	192	3
NMTAP	26	0	4
NMTAP	26	96	4
NMTAP	26	192	4
NMTAP	26	192	5
NMTAP	27	0	6
NMTAP	27	0	7
NMTAP	27	96	6
NMTAP	27	96	7
NMTAP	27	192	6
NMTAP	27	192	7
NMTAP	28	0	6
NMTAP	28	96	6
NMTAP	28	192	6
NMTAP	28	192	7
NMTAP	29	0	5
NMTAP	29	96	5
NMTAP	29	192	4
NMTAP	29	192	5
NMTAP	30	0	3
NMTAP	30	96	3
NMTAP	30	192	2
NMTAP	30	192	3
NMTAP	31	0	0
NMTAP	31	0	1
NMTAP	31	96	0
NMTAP	31	96	1
NMTAP	31	192	0
NMTAP	31	192	1
NMTAP	32	0	2
NMTAP	32	48	2
NMTAP	32	96	2
NMTAP	32	192	1
NMTAP	32	240	1
NMTAP	32	288	1
NMTAP	33	0	0
NMTAP	33	48	0
NMTAP	33	96	0
NMTAP	33	192	6
NMTAP	33	192	7
NMTAP	34	0	5
NMTAP	34	48	5
NMTAP	34	96	5
NMTAP	34	192	6
NMTAP	34	240	6
NMTAP	34	288	6
NMTAP	35	0	7
NMTAP	35	48	7
NMTAP	35	96	7
NMTAP	35	192	0
NMTAP	35	192	1
NMTAP	36	0	1
NMTAP	36	48	1
NMTAP	36	96	1
NMTAP	36	192	0
NMTAP	36	240	0
NMTAP	36	288	0
NMTAP	37	0	7
NMTAP	37	48	7
NMTAP	37	96	7
NMTAP	37	192	6
NMTAP	37	240	6
NMTAP	37	288	6
NMTAP	38	0	0
NMTAP	38	0	7
NMTAP	38	96	0
NMTAP	38	96	7
BXTAP	38	192	0
BXTAP	38	192	7
NMHLD	39	0	6	192
NMHLD	39	192	5	192
NMHLD	40	0	4	192
NMTAP	40	192	3
NMHLD	41	0	2	192
NMHLD	41	192	3	192
NMTAP	42	0	4
NMTAP	43	0	4
NMTAP	43	0	5
NMTAP	43	48	4
NMTAP	43	48	5
NMTAP	43	96	4
NMTAP	43	96	5
NMTAP	43	192	6
NMTAP	43	288	6
NMTAP	44	0	0
NMTAP	44	0	7
NMTAP	44	48	0
NMTAP	44	48	7
NMTAP	44	96	0
NMTAP	44	96	7
NMTAP	44	192	1
NMTAP	45	0	2
NMTAP	45	0	3
NMTAP	45	48	2
NMTAP	45	48	3
NMTAP	45	96	2
NMTAP	45	96	3
NMTAP	45	192	1
NMTAP	45	288	1
NMTAP	46	0	0
NMTAP	46	0	7
NMTAP	46	48	0
NMTAP	46	48	7
NMTAP	46	96	0
NMTAP	46	96	7
BRTAP	46	192	6
NMTAP	47	0	4
NMTAP	47	0	5
NMTAP	47	48	4
NMTAP	47	48	5
NMTAP	47	96	4
NMTAP	47	96	5
NMTAP	47	192	6
NMTAP	47	288	6
NMTAP	48	0	0
NMTAP	48	0	7
NMTAP	48	48	0
NMTAP	48	48	7
NMTAP	48	96	0
NMTAP	48	96	7
NMTAP	48	192	1
NMTAP	48	288	1
NMTAP	49	0	2
NMTAP	49	0	3
NMTAP	49	48	2
NMTAP	49	48	3
NMTAP	49	96	2
NMTAP	49	96	3
NMTAP	49	192	1
NMTAP	49	288	1
NMTAP	50	0	0
NMTAP	50	0	7
NMTAP	50	48	0
NMTAP	50	48	7
NMTAP	50	96	0
NMTAP	50	96	7
NMTAP	50	192	6
NMTAP	50	288	6
NMTAP	51	0	4
NMTAP	51	0	5
NMTAP	51	48	4
NMTAP	51	48	5
NMTAP	51	96	4
NMTAP	51	96	5
NMTAP	51	192	3
NMTAP	51	192	6
NMTTP	52	0	6	B	0	L1
NMTTP	52	192	5	B	0	L1
NMTTP	53	0	4	B	0	L1
NMTTP	53	192	3	B	0	L1
NMTTP	54	0	2	B	0	L1
NMTTP	54	192	1	B	0	L1
NMTHO	55	0	0	288	C	0	L1

T_REC_TAP	199
T_REC_BRK	1
T_REC_XTP	0
T_REC_BXX	2
T_REC_HLD	7
T_REC_XHO	0
T_REC_BHO	0
T_REC_BXH	0
T_REC_STR	6
T_REC_BST	0
T_REC_XST	0
T_REC_XBS	0
T_REC_TTP	6
T_REC_THO	1
T_REC_SLD	6
T_REC_BSL	0
T_REC_ALL	228
T_NUM_TAP	211
T_NUM_BRK	3
T_NUM_HLD	8
T_NUM_SLD	6
T_NUM_ALL	228
T_JUDGE_TAP	214
T_JUDGE_HLD	68
T_JUDGE_SLD	6
T_JUDGE_ALL	288
TTM_EACHPAIRS	55
TTM_SCR_TAP	105500
TTM_SCR_BRK	7800
TTM_SCR_HLD	8000
TTM_SCR_SLD	9000
TTM_SCR_ALL	130300
TTM_SCR_S	126100
TTM_SCR_SS	130000
TTM_RAT_ACV	10023

