VERSION	0.00.00	1.05.00
FES_MODE	0
BPM_DEF	115.000	115.000	115.000	115.000
MET_DEF	4	4
RESOLUTION	384
CLK_DEF	384
COMPATIBLE_CODE	MA2

BPM	0	0	115.000
MET	0	0	4	4

NMTAP	2	0	7
NMTAP	2	192	7
NMTAP	3	0	6
NMTAP	3	192	6
NMTAP	4	0	5
NMTAP	4	192	5
NMTAP	5	0	3
NMTAP	5	0	4
NMTAP	6	0	2
NMTAP	6	192	2
NMTAP	7	0	1
NMTAP	7	192	1
NMHLD	8	0	0	168
NMHLD	8	0	7	168
BRTAP	9	0	0
NMTAP	9	96	0
NMTAP	9	192	0
NMTAP	10	0	1
NMTAP	10	192	1
NMTAP	11	0	2
NMTAP	11	96	2
NMTAP	11	192	2
NMTAP	12	0	3
NMTAP	12	0	4
NMTAP	13	0	5
NMTAP	13	96	5
NMTAP	13	192	5
NMTAP	14	0	6
NMTAP	14	192	6
NMTAP	15	0	7
NMTAP	15	96	7
NMTAP	15	192	0
NMTAP	15	192	7
NMSTR	16	0	7
NMSI_	16	0	7	96	288	3
NMSTR	18	0	0
NMSI_	18	0	0	96	288	4
NMSTR	20	0	6
NMSI_	20	0	6	96	288	2
NMSTR	22	0	1
NMSI_	22	0	1	96	288	5
NMTTP	24	0	7	B	0	L1
NMTTP	25	0	0	B	0	L1
NMTTP	26	0	6	B	0	L1
NMTTP	27	0	1	B	0	L1
NMTTP	28	0	5	B	0	L1
NMTTP	29	0	2	B	0	L1
NMTTP	30	0	4	B	0	L1
NMTTP	31	0	0	C	0	L1
BRTAP	32	0	0
NMTAP	32	96	0
NMTAP	32	192	0
NMTAP	33	0	1
NMTAP	33	96	1
NMTAP	33	192	1
NMTAP	34	0	2
NMTAP	34	96	2
NMTAP	34	192	2
NMTAP	35	0	3
NMTAP	35	0	4
NMTAP	35	192	3
NMTAP	35	192	4
NMTAP	36	0	5
NMTAP	36	96	5
NMTAP	36	192	5
NMTAP	37	0	6
NMTAP	37	96	6
NMTAP	37	192	6
NMTAP	38	0	0
NMTAP	38	0	7
NMTAP	38	192	0
NMTAP	38	192	7
NMHLD	39	0	6	384
NMHLD	39	0	7	384
NMHLD	41	0	0	384
NMHLD	41	0	1	384
BRTAP	43	0	7
NMTAP	43	96	7
NMTAP	43	192	7
NMTAP	43	288	7
NMTAP	44	0	6
NMTAP	44	96	6
NMTAP	44	192	6
NMTAP	44	192	7
NMTAP	45	0	5
NMTAP	45	96	5
NMTAP	45	192	5
NMTAP	45	288	5
NMTAP	46	0	4
NMTAP	46	96	4
NMTAP	46	192	3
NMTAP	46	192	4
NMTAP	47	0	2
NMTAP	47	96	2
NMTAP	47	192	2
NMTAP	47	288	2
NMTAP	48	0	1
NMTAP	48	96	1
NMTAP	48	192	0
NMTAP	48	192	1
NMTAP	49	0	7
NMTAP	49	96	7
NMTAP	49	192	6
NMTAP	49	192	7
NMTAP	50	0	0
NMTAP	50	96	0
NMTAP	50	192	0
NMTAP	50	192	1
NMTAP	51	0	7
NMTAP	51	96	7
BRTAP	51	192	0
BRTAP	51	192	7
NMSTR	52	0	0
NMSI_	52	0	0	96	288	3
NMTAP	53	192	4
NMSTR	54	0	4
NMSI_	54	0	4	96	288	7
NMHLD	55	192	0	144

T_REC_TAP	86
T_REC_BRK	5
T_REC_XTP	0
T_REC_BXX	0
T_REC_HLD	7
T_REC_XHO	0
T_REC_BHO	0
T_REC_BXH	0
T_REC_STR	6
T_REC_BST	0
T_REC_XST	0
T_REC_XBS	0
T_REC_TTP	8
T_REC_THO	0
T_REC_SLD	6
T_REC_BSL	0
T_REC_ALL	118
T_NUM_TAP	100
T_NUM_BRK	5
T_NUM_HLD	7
T_NUM_SLD	6
T_NUM_ALL	118
T_JUDGE_TAP	105
T_JUDGE_HLD	84
T_JUDGE_SLD	6
T_JUDGE_ALL	195
TTM_EACHPAIRS	16
TTM_SCR_TAP	50000
TTM_SCR_BRK	13000
TTM_SCR_HLD	7000
TTM_SCR_SLD	9000
TTM_SCR_ALL	79000
TTM_SCR_S	76150
TTM_SCR_SS	78500
TTM_RAT_ACV	10063

