VERSION	0.00.00	1.04.00
FES_MODE	0
BPM_DEF	130.000	130.000	130.000	130.000
MET_DEF	4	4
RESOLUTION	384
CLK_DEF	384
COMPATIBLE_CODE	MA2

BPM	0	0	130.000
MET	0	0	4	4
MET	14	0	4	3
MET	16	96	4	4
MET	47	96	4	3
MET	49	192	4	4

NMTTP	1	288	2	E	0	M1
NMTTP	1	304	2	B	0	M1
NMTTP	1	320	3	B	0	M1
NMTTP	1	336	4	B	0	M1
NMSTR	2	0	6
NMSI_	2	0	6	96	48	2
NMTAP	2	96	0
NMTAP	2	96	6
NMTAP	2	192	1
NMTAP	2	192	3
NMTAP	2	264	3
NMTAP	2	264	4
NMTAP	2	336	4
NMTAP	2	336	6
NMTAP	3	48	7
NMSTR	3	96	7
NMSI_	3	96	7	96	48	3
NMSTR	3	192	2
NMSCL	3	192	2	96	48	7
NMTAP	3	288	4
NMTAP	4	0	0
NMTAP	4	48	1
NMTAP	4	96	2
NMTAP	4	96	3
NMTAP	4	144	2
NMTAP	4	144	3
NMTAP	4	192	7
NMTAP	4	240	6
NMTAP	4	288	4
NMTAP	4	288	5
NMTAP	5	0	6
NMTAP	5	0	7
NMTAP	5	48	5
NMTAP	5	96	3
NMTAP	5	96	4
NMTAP	5	144	2
NMTAP	5	192	0
NMTAP	5	192	1
BRTAP	5	288	2
BRTAP	5	288	6
NMTAP	6	0	1
NMTAP	6	48	1
NMTAP	6	48	3
NMTAP	6	120	4
NMTAP	6	144	3
NMTAP	6	192	6
NMTAP	6	240	4
NMTAP	6	240	6
NMTAP	6	312	3
NMTAP	6	336	4
NMTAP	7	0	1
NMTAP	7	48	1
NMTAP	7	48	3
NMTAP	7	120	4
NMTAP	7	144	3
NMTAP	7	192	6
NMTAP	7	240	4
NMTAP	7	240	6
NMTAP	7	312	3
NMTAP	7	336	4
NMTAP	8	0	1
NMTAP	8	48	2
NMTAP	8	48	3
NMTAP	8	120	4
NMTAP	8	144	3
NMTAP	8	192	6
NMTAP	8	240	4
NMTAP	8	240	5
NMTAP	8	312	3
NMTAP	8	336	4
NMTAP	9	0	1
NMTAP	9	48	2
NMTAP	9	48	3
NMTAP	9	120	4
NMTAP	9	144	3
NMSTR	9	192	6
NMSCL	9	192	6	96	48	3
NMTAP	9	288	2
NMHLD	10	0	1	288
NMTAP	10	96	3
NMTAP	10	144	3
NMTAP	10	192	2
NMTAP	10	240	2
NMTAP	10	288	3
NMTAP	10	336	4
NMTAP	11	0	5
NMHLD	11	48	5	144
NMTAP	11	96	3
NMTAP	11	144	3
NMTAP	11	192	4
EXTAP	11	240	3
EXTAP	11	240	5
EXTAP	11	288	3
EXTAP	11	288	5
NMTAP	12	0	6
NMHLD	12	48	6	240
NMTAP	12	96	4
NMTAP	12	144	4
NMTAP	12	192	5
NMTAP	12	240	5
NMTAP	12	288	4
NMTAP	12	336	4
NMTAP	13	0	3
NMTAP	13	0	5
NMTAP	13	48	3
NMTAP	13	48	5
NMTAP	13	96	2
NMTAP	13	96	4
NMTAP	13	144	2
NMTAP	13	144	4
NMSTR	13	192	1
NMSCR	13	192	1	96	96	5
EXTAP	13	192	5
NMTAP	13	288	6
NMHLD	14	0	7	96
NMSTR	14	96	0
NMSI_	14	96	0	96	48	2
NMSTR	14	192	6
NMSI_	14	192	6	96	48	4
NMSTR	14	288	7
NMSI_	14	288	7	96	48	3
NMTAP	15	0	5
NMSTR	15	96	6
NMSCL	15	96	6	96	96	2
EXTAP	15	192	2
EXTAP	15	288	0
EXTAP	15	336	0
EXTAP	16	0	3
EXTAP	16	48	3
EXHLD	16	96	2	96
EXTAP	16	192	4
EXTAP	16	240	5
EXSTR	16	288	3
NMSCL	16	288	3	96	48	0
EXTAP	16	288	6
NMSTR	17	0	7
NMSCL	17	0	7	96	48	4
EXTAP	17	144	1
EXTAP	17	192	1
NMTAP	17	240	4
NMTAP	17	288	3
NMTAP	17	288	5
NMTAP	17	336	2
NMHLD	18	0	1	48
NMHLD	18	0	3	48
NMTAP	18	96	4
NMTAP	18	144	5
NMTAP	18	192	4
NMTAP	18	192	6
NMTAP	18	240	3
NMTAP	18	288	2
NMTAP	18	288	4
NMTAP	18	336	5
NMHLD	19	0	4	48
NMHLD	19	0	6	48
NMTAP	19	96	3
NMTAP	19	144	3
NMTAP	19	192	2
NMTAP	19	192	4
NMTAP	19	240	2
NMTAP	19	240	4
NMTAP	19	288	0
NMTAP	19	288	6
NMTAP	19	336	0
NMTAP	19	336	6
NMTAP	20	0	1
NMTAP	20	0	5
NMTAP	20	96	0
NMTAP	20	96	2
NMTAP	20	168	5
NMTAP	20	168	7
EXTAP	20	240	0
EXTAP	20	240	7
EXTAP	20	288	0
EXTAP	20	288	7
BRSTR	21	0	0
NMSCL	21	0	0	96	48	5
BRSTR	21	0	1
NMSCR	21	0	1	96	48	4
NMTAP	21	96	0
NMSTR	21	96	1
NMSI_	21	96	1	96	48	5
NMTAP	21	192	1
NMHLD	21	192	7	96
NMTAP	21	288	4
NMTAP	21	336	4
NMTAP	22	0	3
NMTAP	22	0	6
NMTAP	22	48	2
NMSTR	22	96	1
NMSCR	22	96	1	96	48	4
NMTAP	22	144	1
NMSTR	22	192	5
NMSCR	22	192	5	96	48	0
NMTAP	22	240	5
NMTAP	22	288	2
NMTAP	22	336	2
NMTAP	23	0	1
NMTAP	23	0	7
NMTAP	23	48	1
NMTAP	23	48	7
NMSTR	23	144	0
NMSI_	23	144	0	96	48	4
NMSTR	23	144	1
NMSI_	23	144	1	96	48	4
NMTAP	23	192	7
NMSTR	23	336	5
NMSCL	23	336	5	96	48	2
NMTAP	24	0	6
NMHLD	24	48	0	96
NMTAP	24	144	3
NMSTR	24	192	1
NMSCR	24	192	1	96	48	3
NMSTR	24	192	4
NMSCR	24	192	4	96	48	7
NMTAP	24	240	0
EXTAP	25	0	3
EXTAP	25	0	6
NMHLD	25	96	4	48
NMHLD	25	96	5	48
NMHLD	25	192	2	48
NMHLD	25	192	3	48
NMSTR	25	288	1
NMSUR	25	288	1	96	48	5
NMTAP	25	336	1
NMSTR	26	0	7
NMSXR	26	0	7	96	144	4
NMTAP	26	48	7
NMTAP	26	96	3
NMTAP	26	144	2
NMTAP	26	192	1
NMHLD	26	240	0	96
NMTAP	26	336	3
NMTAP	27	0	3
NMTAP	27	48	1
NMTAP	27	96	1
NMTAP	27	144	7
NMTAP	27	192	7
NMTAP	27	240	4
NMTAP	27	288	4
NMTAP	27	336	5
NMTAP	27	336	6
NMTAP	28	0	5
NMTAP	28	0	6
NMSTR	28	96	6
NMSCL	28	96	6	96	48	3
NMSTR	28	96	7
NMSUL	28	96	7	96	48	2
BRTAP	28	288	0
BRTAP	28	288	1
NMSTR	29	0	6
NMSCL	29	0	6	96	48	3
NMSTR	29	0	7
NMSCR	29	0	7	96	48	2
NMSTR	29	96	6
NMSI_	29	96	6	96	48	2
NMTAP	29	96	7
NMHLD	29	192	1	96
NMTAP	29	192	6
NMTAP	29	288	0
NMTAP	29	336	7
NMTAP	30	0	2
NMTAP	30	0	6
NMTAP	30	48	5
NMSTR	30	96	4
NMSCR	30	96	4	96	48	7
NMTAP	30	144	4
NMSTR	30	192	0
NMSCR	30	192	0	96	48	3
NMTAP	30	240	0
NMTAP	30	288	5
NMTAP	30	336	5
NMTAP	31	0	0
NMTAP	31	0	6
NMTAP	31	48	0
NMTAP	31	48	6
NMSTR	31	144	1
NMSV_	31	144	1	96	48	4
NMSTR	31	144	7
NMSV_	31	144	7	96	48	4
NMTAP	31	192	0
NMSTR	31	336	2
NMSCR	31	336	2	96	48	5
NMTAP	32	0	1
NMHLD	32	48	7	96
NMTAP	32	144	4
NMSTR	32	192	3
NMSCL	32	192	3	96	48	0
NMSTR	32	192	6
NMSCL	32	192	6	96	48	4
NMTAP	32	240	7
EXTAP	33	0	1
EXTAP	33	0	4
NMHLD	33	96	2	48
NMHLD	33	96	3	48
NMHLD	33	192	4	48
NMHLD	33	192	5	48
NMSTR	33	288	6
NMSUL	33	288	6	96	48	2
NMTAP	33	336	6
NMSTR	34	0	0
NMSXL	34	0	0	96	144	3
NMTAP	34	48	0
NMTAP	34	96	4
NMTAP	34	144	5
NMTAP	34	192	6
NMHLD	34	240	7	96
NMTAP	34	336	5
NMTAP	35	0	5
NMTAP	35	96	4
NMTAP	35	96	6
NMTAP	35	144	3
NMTAP	35	144	5
NMTAP	35	192	2
NMTAP	35	192	4
NMTAP	35	240	1
NMTAP	35	240	3
NMTAP	35	336	2
NMSTR	36	0	0
NMSI_	36	0	0	96	48	4
NMSTR	36	0	1
NMSCR	36	0	1	96	48	4
NMTAP	36	96	0
NMTAP	36	96	1
NMSTR	36	192	6
NMSCL	36	192	6	96	48	3
NMSTR	36	192	7
NMSI_	36	192	7	96	48	3
NMTAP	36	288	6
NMTAP	36	288	7
BRTAP	37	0	1
NMTAP	37	96	1
NMTAP	37	120	0
NMTAP	37	168	5
NMTAP	37	192	4
NMTAP	37	240	6
NMTAP	37	264	7
NMTAP	37	312	2
NMTAP	37	336	3
NMTAP	38	0	1
NMTAP	38	0	4
NMTAP	38	48	1
NMTAP	38	48	4
NMTAP	38	96	1
NMTAP	38	96	3
NMTAP	38	144	3
NMTAP	38	144	4
NMSTR	38	192	4
NMSI_	38	192	4	96	48	0
NMHLD	38	192	6	72
BRTAP	39	0	1
BRTAP	39	0	7
NMHLD	39	96	2	768
NMTTP	39	288	3	E	0	M1
NMTTP	40	0	2	E	0	M1
NMTTP	40	96	1	E	0	M1
NMTTP	40	192	7	E	0	M1
NMTTP	40	288	6	E	0	M1
NMTTP	41	0	5	E	0	M1
NMHLD	41	96	5	768
NMTTP	41	288	5	E	0	M1
NMTTP	42	0	6	E	0	M1
NMTTP	42	96	7	E	0	M1
NMTTP	42	192	1	E	0	M1
NMTTP	42	288	2	E	0	M1
NMTTP	43	0	3	E	0	M1
NMHLD	43	96	2	288
NMTAP	43	192	3
NMTAP	43	288	1
NMSTR	44	0	0
NMSI_	44	0	0	96	48	5
NMSTR	44	96	0
NMSCR	44	96	0	96	48	2
NMSTR	44	192	0
NMSI_	44	192	0	96	48	4
NMSTR	44	288	0
NMSI_	44	288	0	96	48	3
NMTAP	45	0	0
NMHLD	45	96	4	96
NMHLD	45	96	6	96
NMHLD	45	288	1	96
NMHLD	45	288	3	96
NMHLD	46	96	3	48
NMHLD	46	96	5	48
NMHLD	46	192	2	48
NMHLD	46	192	4	48
NMTAP	46	288	5
NMTAP	46	320	5
NMTAP	46	352	5
NMTAP	47	0	3
NMTAP	47	32	3
NMTAP	47	64	3
NMTAP	47	96	2
NMTAP	47	96	4
NMTAP	47	192	5
NMTAP	47	240	5
NMTAP	47	288	7
NMTAP	47	336	7
NMTAP	48	0	4
NMTAP	48	96	0
NMTAP	48	96	6
NMSTR	48	192	5
NMSCR	48	192	5	96	96	1
NMTAP	48	240	5
NMTAP	48	288	2
NMTAP	49	0	3
NMTAP	49	48	3
NMTAP	49	96	0
NMTAP	49	144	0
NMHLD	49	192	2	96
NMTAP	49	288	7
NMTAP	49	336	6
NMSTR	50	0	0
NMSCR	50	0	0	96	48	3
NMTAP	50	0	5
NMSTR	50	96	4
NMSCR	50	96	4	96	48	7
EXTAP	50	240	2
EXTAP	50	288	2
NMTAP	50	336	7
NMTAP	51	0	0
NMTAP	51	0	6
NMTAP	51	48	1
NMTAP	51	96	0
NMTAP	51	96	2
NMTAP	51	144	0
NMTAP	51	144	2
NMTAP	51	192	7
NMTAP	51	240	6
NMTAP	51	288	5
NMTAP	51	288	7
NMTAP	51	336	0
NMTAP	52	0	1
NMTAP	52	0	7
NMTAP	52	48	6
NMTAP	52	96	5
NMTAP	52	96	7
NMTAP	52	144	5
NMTAP	52	144	7
NMTAP	52	192	0
NMTAP	52	240	0
NMTAP	52	288	1
NMTAP	52	288	7
NMTAP	52	336	1
NMTAP	52	336	7
NMTAP	53	0	3
NMTAP	53	0	5
NMTAP	53	48	3
NMTAP	53	48	5
NMTAP	53	96	2
NMTAP	53	96	6
NMTAP	53	144	2
NMTAP	53	144	6
NMTAP	53	192	2
NMTAP	53	192	6
NMTAP	53	264	7
NMSTR	53	288	0
BRSXL	53	288	0	96	48	2
BRSXR	53	288	0	96	48	6
NMTAP	53	336	0
EXSTR	54	96	3
NMSCL	54	96	3	96	96	6
EXTAP	54	96	5
NMSTR	54	192	6
NMSCR	54	192	6	96	96	3
NMSTR	54	288	3
NMSCL	54	288	3	96	96	6
NMSTR	55	0	6
NMSCR	55	0	6	96	96	3
NMTAP	55	96	4
NMTAP	55	192	5
NMSTR	55	240	5
NMSLL	55	240	5	96	96	1
NMSTR	55	336	1
NMSLL	55	336	1	96	96	5
NMTAP	56	48	5
NMTAP	56	144	3
NMSTR	56	240	1
NMSI_	56	240	1	96	48	5
NMHLD	56	288	1	96
NMSTR	57	48	6
NMSI_	57	48	6	96	48	2
NMHLD	57	96	6	96
NMSTR	57	240	0
NMSCR	57	240	0	96	48	3
NMTAP	57	288	0
NMSTR	57	336	7
NMSCL	57	336	7	96	48	4
NMTAP	58	0	7
NMTAP	58	48	1
BRTAP	58	96	0
NMHLD	58	192	1	48
NMHLD	58	192	3	48
NMHLD	58	288	4	48
NMHLD	58	288	6	48
NMTAP	59	0	3
NMTAP	59	48	3
NMSTR	59	96	4
BRSSL	59	96	4	96	144	0
NMTAP	59	144	4
NMTAP	59	192	2
NMTAP	59	240	2
NMHLD	59	336	1	96
NMTAP	60	48	7
NMSTR	60	96	7
NMSCL	60	96	7	96	96	3
NMSTR	60	192	3
NMSCL	60	192	3	96	96	7
NMTAP	60	288	7
NMTAP	61	0	3
NMTAP	61	48	2
NMSTR	61	96	0
NMSUR	61	96	0	96	96	7
NMSTR	61	96	1
NMSCR	61	96	1	96	96	7
EXTAP	61	336	0
EXTAP	61	336	1
EXTAP	62	0	0
EXTAP	62	0	1
EXTAP	62	96	2
EXSTR	62	96	4
NMSCR	62	96	4	96	96	1
NMSTR	62	192	1
NMSCL	62	192	1	96	96	4
NMSTR	62	288	4
NMSCR	62	288	4	96	96	1
NMSTR	63	0	1
NMSCL	63	0	1	96	96	4
NMTAP	63	96	3
NMTAP	63	192	2
NMSTR	63	240	2
NMSLR	63	240	2	96	96	6
NMSTR	63	336	6
NMSLL	63	336	6	96	96	2
NMTAP	64	48	0
NMTAP	64	144	0
NMSTR	64	240	5
NMSCR	64	240	5	96	48	0
NMHLD	64	288	5	96
NMSTR	65	48	2
NMSCL	65	48	2	96	48	7
NMHLD	65	96	2	96
NMSTR	65	240	6
NMSCL	65	240	6	96	48	3
NMTAP	65	288	6
NMSTR	65	336	7
NMSCR	65	336	7	96	48	2
NMTAP	66	0	7
NMTAP	66	48	5
BRTAP	66	96	6
NMHLD	66	192	6	48
NMHLD	66	192	7	48
NMHLD	66	288	0	48
NMHLD	66	288	1	48
NMTAP	67	0	2
NMTAP	67	48	3
NMTAP	67	96	4
NMTAP	67	96	5
NMTAP	67	144	6
BRTAP	67	192	6
BRTAP	67	192	7
BRTAP	67	240	4
BRTAP	67	240	5
BRTAP	67	288	2
BRTAP	67	288	3
BRTAP	67	336	0
BRTAP	67	336	1
NMTAP	68	48	2
NMTAP	68	48	3
NMTAP	68	96	1
NMSTR	68	96	4
NMSI_	68	96	4	96	48	0
NMSTR	68	192	2
NMSI_	68	192	2	96	48	6
NMSTR	68	288	5
NMSI_	68	288	5	96	48	1
NMSTR	69	0	3
NMSI_	69	0	3	96	48	0
NMTAP	69	96	6
NMSTR	69	192	6
NMSCR	69	192	6	96	48	1
NMSTR	69	192	7
NMSCL	69	192	7	96	48	4
NMSTR	70	0	0
NMSCR	70	0	0	96	48	3
NMSTR	70	0	1
NMSCL	70	0	1	96	48	6
NMTAP	70	192	6
NMHLD	70	192	7	144
NMTAP	70	288	6
NMTAP	71	0	4
NMHLD	71	0	5	144
NMTAP	71	96	4
NMTAP	71	192	2
NMHLD	71	192	3	144
NMTAP	71	288	2
NMTAP	72	0	0
NMHLD	72	0	1	144
NMTAP	72	96	0
NMTAP	72	192	0
NMSTR	72	192	7
NMSI_	72	192	7	96	48	3
NMTAP	72	288	2
NMTAP	72	288	7
NMTAP	73	0	1
NMTAP	73	48	3
NMSTR	73	96	4
NMSCL	73	96	4	96	96	0
NMTAP	73	96	5
NMSTR	73	288	3
NMSCR	73	288	3	96	96	7
BRTAP	74	96	1
NMHLD	74	192	0	96
NMHLD	74	192	2	96
NMTAP	75	0	4
NMTAP	75	0	6
NMTAP	75	72	1
NMTAP	75	72	3
NMTAP	75	144	4
NMTAP	75	144	6
NMTAP	75	240	7
NMSTR	75	288	7
NMSCL	75	288	7	96	48	4
NMSTR	76	0	2
NMSCL	76	0	2	96	48	7
NMTAP	76	96	4
NMTAP	76	192	5
NMTAP	76	240	5
NMTAP	76	288	6
NMTAP	76	288	7
NMTAP	76	336	6
NMTAP	76	336	7
NMTAP	77	0	2
NMTAP	77	48	2
NMTAP	77	96	0
NMTAP	77	96	1
NMTAP	77	144	0
NMTAP	77	144	1
NMTAP	77	192	2
NMTAP	77	192	3
NMTAP	77	240	4
NMTAP	77	240	5
NMTAP	77	288	6
NMTAP	77	288	7
NMTAP	77	336	0
NMTAP	77	336	1
NMTAP	78	0	2
NMTAP	78	0	3
NMTAP	78	48	4
NMTAP	78	48	5
NMTAP	78	96	6
NMTAP	78	96	7
NMTAP	78	144	0
NMTAP	78	144	1
EXTAP	78	192	2
EXTAP	78	288	4
NMTAP	78	360	3
NMTAP	78	360	5
NMSTR	79	0	3
NMSCL	79	0	3	96	1248	4
NMTAP	79	0	5
NMTTP	79	96	6	E	1	M1
BRHLD	79	192	6	1488
NMTAP	83	144	3
NMTAP	83	160	5
NMTAP	83	176	2
NMTAP	83	192	4

T_REC_TAP	364
T_REC_BRK	18
T_REC_XTP	33
T_REC_BXX	0
T_REC_HLD	54
T_REC_XHO	1
T_REC_BHO	1
T_REC_BXH	0
T_REC_STR	84
T_REC_BST	2
T_REC_XST	3
T_REC_XBS	0
T_REC_TTP	17
T_REC_THO	0
T_REC_SLD	87
T_REC_BSL	3
T_REC_ALL	667
T_NUM_TAP	501
T_NUM_BRK	24
T_NUM_HLD	55
T_NUM_SLD	87
T_NUM_ALL	667
T_JUDGE_TAP	521
T_JUDGE_HLD	161
T_JUDGE_SLD	90
T_JUDGE_ALL	772
TTM_EACHPAIRS	144
TTM_SCR_TAP	250500
TTM_SCR_BRK	62400
TTM_SCR_HLD	55000
TTM_SCR_SLD	130500
TTM_SCR_ALL	498400
TTM_SCR_S	481150
TTM_SCR_SS	496000
TTM_RAT_ACV	10048

