VERSION	0.00.00	1.05.00
FES_MODE	0
BPM_DEF	130.000	130.000	130.000	130.000
MET_DEF	4	4
RESOLUTION	384
CLK_DEF	384
COMPATIBLE_CODE	MA2

BPM	0	0	130.000
MET	0	0	4	4
MET	14	0	4	3
MET	16	96	4	4
MET	47	96	4	3
MET	49	192	4	4

BXTAP	1	288	3
BXTAP	1	288	4
NMTAP	2	0	5
NMTAP	2	96	5
NMSTR	2	192	6
NMSCL	2	192	6	96	96	3
NMTAP	3	96	2
NMTAP	3	192	1
NMTAP	3	192	4
NMTAP	3	288	1
NMTAP	3	288	4
NMTAP	4	0	2
NMTAP	4	96	2
NMTAP	4	96	3
NMTAP	4	192	5
NMTAP	4	288	4
NMTAP	4	288	5
NMTAP	5	0	6
NMTAP	5	48	6
NMTAP	5	96	0
NMTAP	5	144	0
NMTAP	5	192	7
BXTAP	5	288	2
BXTAP	5	288	5
NMHLD	6	0	1	96
NMTAP	6	96	3
NMTAP	6	192	1
NMTAP	6	192	3
NMTAP	6	288	1
NMTAP	6	288	3
NMTAP	7	0	2
NMTAP	7	96	2
NMTAP	7	96	3
NMTAP	7	192	2
NMTAP	7	288	3
NMTAP	7	288	4
NMHLD	8	0	6	96
NMTAP	8	96	4
NMTAP	8	192	4
NMTAP	8	192	6
NMTAP	8	288	4
NMTAP	8	288	6
NMTAP	9	0	5
NMTAP	9	96	4
NMTAP	9	96	5
NMTAP	9	192	5
NMTAP	9	288	3
NMTAP	9	288	4
NMHLD	10	0	2	96
NMTAP	10	96	3
NMTAP	10	192	2
NMTAP	10	192	3
NMTAP	10	288	2
NMTAP	10	288	3
NMTAP	11	0	1
NMTAP	11	96	1
NMTAP	11	96	3
NMTAP	11	192	2
NMTAP	11	192	4
NMTAP	11	288	3
NMTAP	11	288	5
NMHLD	12	0	5	96
NMTAP	12	96	4
NMTAP	12	192	4
NMTAP	12	192	5
NMTAP	12	288	4
NMTAP	12	288	5
NMTAP	13	0	3
NMTAP	13	0	4
NMTAP	13	96	2
NMTAP	13	96	3
BRTAP	13	192	1
BRTAP	13	192	4
NMHLD	14	0	6	480
NMTTP	14	192	5	E	0	M1
NMTTP	14	288	4	E	0	M1
NMTAP	15	96	2
NMHLD	15	192	1	480
NMTTP	16	0	3	E	0	M1
NMTTP	16	96	4	E	0	M1
NMSTR	16	288	4
NMSCR	16	288	4	96	96	7
EXTAP	17	144	0
EXTAP	17	192	0
NMTAP	17	288	2
NMTAP	17	288	3
NMTAP	18	0	1
NMTAP	18	0	4
NMTAP	18	96	5
NMTAP	18	192	6
NMTAP	18	288	4
NMTAP	18	288	5
NMTAP	19	0	3
NMTAP	19	0	6
NMHLD	19	96	2	96
NMHLD	19	192	3	96
NMTAP	19	288	4
NMSTR	20	0	4
NMSXL	20	0	4	96	192	4
NMSXR	20	0	4	96	192	4
EXTAP	21	0	0
EXTAP	21	0	7
NMTAP	21	96	0
NMTAP	21	96	2
NMTAP	21	192	1
NMTAP	21	288	5
NMTAP	21	288	7
NMTAP	22	0	6
NMTAP	22	96	6
NMTAP	22	96	7
NMTAP	22	192	0
NMTAP	22	192	1
NMTAP	22	288	6
NMTAP	22	288	7
NMTAP	23	0	0
NMTAP	23	0	7
NMHLD	23	96	1	96
NMTAP	23	192	3
NMHLD	23	288	6	96
NMSTR	24	0	4
NMSI_	24	0	4	96	96	1
NMSI_	24	0	4	96	96	7
BXTAP	24	288	2
BXTAP	24	288	6
NMTAP	25	96	1
NMTAP	25	96	7
NMTAP	25	192	1
NMTAP	25	192	7
NMTAP	25	288	0
NMTAP	25	288	6
NMTAP	26	0	0
NMSTR	26	0	6
NMSSR	26	0	6	96	144	2
NMTAP	26	336	1
NMTAP	27	0	1
NMHLD	27	96	6	96
NMHLD	27	192	4	96
NMHLD	27	288	3	96
NMHLD	28	0	1	96
NMTAP	28	96	7
NMTAP	28	192	3
NMTAP	28	192	5
BRTAP	28	288	2
BRTAP	28	288	6
NMTAP	29	96	6
NMTAP	29	96	7
NMTAP	29	192	5
NMTAP	29	192	7
NMTAP	29	288	0
NMTAP	29	288	1
NMTAP	30	0	0
NMTAP	30	0	2
NMTAP	30	96	0
NMTAP	30	96	1
NMTAP	30	192	6
NMTAP	30	192	7
NMTAP	30	288	0
NMTAP	30	288	1
NMTAP	31	0	0
NMTAP	31	0	7
NMTAP	31	96	6
NMTAP	31	96	7
NMTAP	31	192	0
NMTAP	31	192	5
NMTAP	31	288	0
NMTAP	31	288	1
NMSTR	32	0	2
NMSI_	32	0	2	96	96	5
NMSTR	32	0	7
NMSI_	32	0	7	96	96	4
BRTAP	32	288	3
BRTAP	32	288	6
NMTAP	33	96	4
NMTAP	33	96	6
NMTAP	33	192	5
NMTAP	33	288	1
NMTAP	33	288	3
NMSTR	34	0	2
NMSXR	34	0	2	96	240	5
NMTAP	35	96	6
NMTAP	35	96	7
NMTAP	35	192	4
NMTAP	35	192	5
NMTAP	35	288	2
NMTAP	35	288	3
NMSTR	36	0	0
NMSCL	36	0	0	96	96	5
NMSTR	36	0	1
NMSCR	36	0	1	96	96	4
EXTAP	36	288	4
EXTAP	36	288	5
EXHLD	37	96	6	96
BRHLD	37	192	4	96
NMHLD	37	288	3	96
BXHLD	38	0	1	96
NMSTR	38	96	0
NMSLL	38	96	0	96	192	4
NMSLR	38	96	0	96	192	4
NMSTR	39	96	2
NMSCR	39	96	2	96	192	5
NMTAP	40	0	7
NMSTR	40	96	5
NMSCL	40	96	5	96	192	2
NMTAP	41	0	0
NMSTR	41	96	1
NMSCR	41	96	1	96	192	5
NMTAP	42	0	7
NMSTR	42	96	6
NMSCL	42	96	6	96	192	2
NMTAP	43	0	0
NMSTR	43	96	0
NMSLR	43	96	0	96	192	4
BXTAP	44	96	4
BXTAP	44	96	6
BRTAP	44	192	4
BRTAP	44	192	5
BXTAP	44	288	1
BXTAP	44	288	3
BRTAP	45	0	2
BRTAP	45	0	3
NMSTR	45	96	1
NMSI_	45	96	1	96	96	4
NMSTR	45	288	6
NMSI_	45	288	6	96	96	3
NMTAP	46	96	2
NMTAP	46	192	3
NMTAP	46	192	4
BRTAP	46	288	2
BRTAP	46	288	5
NMHLD	47	96	1	192
NMTTP	47	288	1	B	0	M1
NMTTP	47	288	1	E	0	M1
NMTTP	48	0	3	B	0	M1
NMTTP	48	0	3	E	0	M1
NMTAP	48	192	7
NMHLD	48	288	6	288
NMTTP	49	96	6	B	0	M1
NMTTP	49	96	7	E	0	M1
NMTTP	49	192	4	B	0	M1
NMTTP	49	192	5	E	0	M1
NMSTR	50	0	0
NMSCR	50	0	0	96	96	3
BXHLD	50	0	7	96
EXTAP	50	240	5
EXTAP	50	288	5
NMTAP	51	0	4
NMTAP	51	0	6
NMTAP	51	96	4
NMTAP	51	96	6
NMTAP	51	192	2
NMTAP	51	240	2
NMTAP	51	288	3
NMTAP	52	0	1
NMTAP	52	0	3
NMTAP	52	96	1
NMTAP	52	96	3
NMTAP	52	192	2
NMTAP	52	240	2
NMTAP	52	288	3
NMTAP	53	0	3
NMTAP	53	0	4
NMSTR	53	96	2
NMSXR	53	96	2	96	192	4
NMSTR	53	96	5
NMSXL	53	96	5	96	192	3
BXTAP	54	96	0
BXTAP	54	96	7
NMTAP	54	192	0
NMTAP	54	192	1
NMTAP	54	288	2
NMTAP	54	288	7
NMTAP	55	0	6
NMTAP	55	0	7
NMTAP	55	96	0
NMTAP	55	96	5
NMTAP	55	192	6
NMTAP	55	192	7
NMTAP	55	288	4
NMTAP	55	288	5
NMTAP	56	0	2
NMTAP	56	0	3
NMTAP	56	96	0
NMTAP	56	96	1
NMHLD	56	192	6	96
NMTAP	56	288	4
NMHLD	57	0	1	96
NMSTR	57	96	3
NMSF_	57	96	3	96	96	7
BRTAP	58	0	1
BRTAP	58	0	5
NMTAP	58	192	2
NMTAP	58	192	3
NMTAP	58	288	3
NMTAP	58	288	4
NMTAP	59	0	4
NMTAP	59	0	5
NMSTR	59	96	3
BRSSR	59	96	3	96	192	7
NMSTR	59	96	4
BRSSL	59	96	4	96	192	0
EXTAP	60	96	1
EXTAP	60	96	6
NMHLD	60	192	5	96
NMHLD	60	288	7	96
NMHLD	61	0	1	96
NMSTR	61	96	3
NMSI_	61	96	3	96	96	0
NMSI_	61	96	3	96	96	6
BRTAP	62	0	1
BRTAP	62	0	5
NMTAP	62	192	6
NMTAP	62	192	7
NMTAP	62	288	0
NMTAP	62	288	5
NMTAP	63	0	0
NMTAP	63	0	1
NMTAP	63	96	2
NMTAP	63	96	7
NMTAP	63	192	0
NMTAP	63	192	1
NMTAP	63	288	2
NMTAP	63	288	3
NMTAP	64	0	4
NMTAP	64	0	5
NMTAP	64	96	6
NMTAP	64	96	7
NMTAP	64	192	4
NMHLD	64	192	6	96
NMTAP	64	288	5
NMHLD	65	0	1	96
NMTAP	65	0	3
NMSTR	65	96	2
NMSUL	65	96	2	96	96	5
BRTAP	66	0	3
BRTAP	66	0	7
NMHLD	66	192	5	96
NMHLD	66	288	7	96
NMHLD	67	0	0	96
NMTAP	67	96	2
NMTAP	67	192	3
NMTAP	67	192	4
NMTAP	67	288	2
NMTAP	67	288	5
BRTAP	67	336	2
BRTAP	67	336	5
EXTAP	68	48	3
EXTAP	68	48	4
EXTAP	68	96	3
EXTAP	68	96	4
NMSTR	68	192	2
NMSCR	68	192	2	96	96	5
NMSTR	69	0	6
NMSCR	69	0	6	96	96	1
NMTAP	69	192	2
NMSTR	69	288	2
NMSI_	69	288	2	96	96	7
NMSTR	69	288	3
NMSI_	69	288	3	96	96	6
NMHLD	70	192	6	192
NMTAP	70	288	5
NMTAP	71	0	5
NMTAP	71	96	3
NMTAP	71	96	4
NMHLD	71	192	1	192
NMTAP	71	288	2
NMTAP	72	0	2
NMTAP	72	96	3
NMTAP	72	96	4
NMSTR	72	192	2
NMSCL	72	192	2	96	96	7
NMSTR	72	192	4
NMSCR	72	192	4	96	96	7
NMTAP	73	96	4
NMTAP	73	96	6
NMSTR	73	192	3
NMSCL	73	192	3	96	96	0
NMSTR	73	192	5
NMSCR	73	192	5	96	96	0
BXTAP	74	96	1
BXTAP	74	96	7
NMHLD	74	192	6	192
EXTAP	75	0	7
EXTAP	75	72	0
EXTAP	75	72	7
EXTAP	75	144	0
EXTAP	75	144	1
NMTAP	75	240	2
NMTAP	75	240	7
NMTAP	75	288	2
NMTAP	75	288	7
NMTAP	76	0	6
NMTAP	76	0	7
NMTAP	76	96	0
NMTAP	76	96	5
NMTAP	76	192	2
NMTAP	76	192	3
NMTAP	76	288	2
NMTAP	76	288	3
NMTAP	77	0	4
NMTAP	77	0	5
NMTAP	77	96	4
NMTAP	77	96	5
NMTAP	77	192	6
NMTAP	77	240	6
NMTAP	77	288	0
NMTAP	77	336	0
NMTAP	78	0	7
NMTAP	78	48	7
NMTAP	78	96	1
NMTAP	78	144	1
NMTAP	78	192	2
NMTAP	78	192	4
NMTAP	78	288	2
NMTAP	78	288	4
EXSTR	79	0	3
NMSCL	79	0	3	96	1440	4
EXHLD	79	0	5	1680
NMTTP	83	144	4	E	0	M1

T_REC_TAP	243
T_REC_BRK	20
T_REC_XTP	19
T_REC_BXX	14
T_REC_HLD	30
T_REC_XHO	2
T_REC_BHO	1
T_REC_BXH	2
T_REC_STR	34
T_REC_BST	0
T_REC_XST	1
T_REC_XBS	0
T_REC_TTP	13
T_REC_THO	0
T_REC_SLD	37
T_REC_BSL	2
T_REC_ALL	418
T_NUM_TAP	310
T_NUM_BRK	39
T_NUM_HLD	32
T_NUM_SLD	37
T_NUM_ALL	418
T_JUDGE_TAP	344
T_JUDGE_HLD	131
T_JUDGE_SLD	39
T_JUDGE_ALL	514
TTM_EACHPAIRS	127
TTM_SCR_TAP	155000
TTM_SCR_BRK	101400
TTM_SCR_HLD	32000
TTM_SCR_SLD	55500
TTM_SCR_ALL	343900
TTM_SCR_S	329800
TTM_SCR_SS	340000
TTM_RAT_ACV	10114

