VERSION	0.00.00	1.05.00
FES_MODE	0
BPM_DEF	130.000	130.000	130.000	130.000
MET_DEF	4	4
RESOLUTION	384
CLK_DEF	384
COMPATIBLE_CODE	MA2

BPM	0	0	130.000
MET	0	0	4	4
MET	14	0	4	3
MET	16	96	4	4
MET	47	96	4	3
MET	49	192	4	4

NMTAP	2	0	2
NMTAP	2	96	2
NMTAP	2	192	2
NMTAP	3	0	3
NMTAP	3	96	3
NMTAP	3	192	3
NMTAP	4	0	4
NMTAP	4	96	4
NMTAP	4	192	4
NMTAP	5	0	3
NMTAP	5	0	4
NMTAP	5	192	3
NMTAP	5	192	4
NMTAP	6	0	3
NMTAP	6	96	3
NMTAP	6	192	2
NMTAP	7	0	1
NMTAP	7	96	1
NMTAP	7	192	0
NMTAP	8	0	7
NMTAP	8	96	7
NMTAP	8	192	6
NMTAP	9	0	5
NMTAP	9	96	5
NMTAP	9	192	4
NMTAP	9	192	5
NMTAP	10	0	4
NMTAP	10	96	4
NMTAP	10	192	5
NMTAP	11	0	6
NMTAP	11	96	6
NMTAP	11	192	7
NMTAP	12	0	0
NMTAP	12	96	0
NMTAP	12	192	1
NMTAP	13	0	2
NMTAP	13	96	2
NMTAP	13	192	2
NMTAP	13	192	3
NMTAP	14	0	2
NMTAP	14	0	3
NMTAP	14	96	2
NMTAP	14	96	3
NMTAP	14	288	3
NMTAP	14	288	4
NMTAP	15	0	3
NMTAP	15	0	4
NMTAP	15	192	4
NMTAP	15	192	5
NMTAP	15	288	4
NMTAP	15	288	5
NMTAP	16	96	3
NMTAP	16	96	4
NMTAP	16	192	3
NMTAP	16	192	4
NMTTP	17	96	6	B	0	L1
NMTTP	17	192	5	B	0	L1
NMTTP	17	288	4	B	0	L1
NMTTP	18	96	1	B	0	L1
NMTTP	18	192	2	B	0	L1
NMTTP	18	288	3	B	0	L1
NMTTP	19	96	5	B	0	L1
NMTTP	19	192	4	B	0	L1
NMTTP	19	288	3	B	0	L1
NMTTP	20	0	2	B	0	L1
NMTTP	20	96	0	C	1	L1
NMTAP	21	96	6
NMTAP	21	192	6
NMTAP	21	288	7
NMTAP	22	0	7
NMTAP	22	96	0
NMTAP	22	192	0
NMTAP	22	288	0
NMTAP	22	288	1
NMTAP	23	96	2
NMTAP	23	192	2
NMTAP	23	288	1
NMTAP	24	0	1
NMTAP	24	96	0
NMTAP	24	192	0
NMTAP	24	288	6
NMTAP	24	288	7
NMTAP	25	96	6
NMTAP	25	192	6
NMTAP	25	288	5
NMTAP	26	0	5
NMTAP	26	96	4
NMTAP	26	192	4
NMTAP	26	288	2
NMTAP	26	288	3
NMTAP	27	96	1
NMTAP	27	192	1
NMTAP	27	288	2
NMTAP	28	0	2
NMTAP	28	96	3
NMTAP	28	192	3
BRTAP	28	288	4
BRTAP	28	288	5
NMTAP	29	96	5
NMTAP	29	192	5
NMTAP	29	288	6
NMTAP	30	0	6
NMTAP	30	96	7
NMTAP	30	192	7
NMTAP	30	288	0
NMTAP	30	288	1
NMTAP	31	96	2
NMTAP	31	192	2
NMTAP	31	288	1
NMTAP	32	0	1
NMTAP	32	96	0
NMTAP	32	192	0
NMTAP	32	288	6
NMTAP	32	288	7
NMTAP	33	96	6
NMTAP	33	192	6
NMTAP	33	288	5
NMTAP	34	0	5
NMTAP	34	96	4
NMTAP	34	192	4
NMTAP	34	288	2
NMTAP	34	288	3
NMTAP	35	96	1
NMTAP	35	192	1
NMTAP	35	288	2
NMTAP	36	0	2
NMTAP	36	96	3
NMTAP	36	192	3
NMTAP	36	288	4
NMTAP	36	288	5
NMHLD	37	96	5	192
NMTAP	37	288	4
NMHLD	38	96	2	192
NMTAP	38	288	3
NMHLD	39	96	2	192
NMHLD	39	288	3	192
NMHLD	40	96	4	192
NMTAP	40	288	5
NMHLD	41	96	5	192
NMHLD	41	288	4	192
NMHLD	42	96	3	192
NMTAP	42	288	2
NMHLD	43	96	1	192
NMHLD	43	288	2	192
NMHLD	44	96	3	192
NMTAP	44	288	4
NMHLD	45	96	6	192
NMHLD	45	288	5	192
NMHLD	46	96	4	192
NMTAP	46	288	3
NMTAP	47	96	2
NMTAP	47	96	3
NMTAP	47	192	2
NMTAP	47	192	3
NMTAP	48	0	3
NMTAP	48	0	4
NMTAP	48	96	3
NMTAP	48	96	4
NMTAP	48	288	4
NMTAP	48	288	5
NMTAP	49	0	4
NMTAP	49	0	5
NMTAP	49	192	3
NMTAP	49	192	4
NMTAP	49	288	3
NMTAP	49	288	4
NMSTR	50	192	2
NMSI_	50	192	2	96	192	5
NMSTR	51	192	6
NMSI_	51	192	6	96	192	3
NMSTR	52	192	1
NMSI_	52	192	1	96	192	5
NMSTR	53	192	7
NMSI_	53	192	7	96	192	3
EXTAP	54	192	2
EXTAP	54	288	2
NMTAP	55	0	0
NMTAP	55	0	1
NMTAP	55	96	0
NMTAP	55	96	1
NMTAP	55	192	7
NMTAP	55	288	7
NMTAP	56	0	6
NMTAP	56	0	7
NMTAP	56	192	5
NMTAP	56	288	5
NMTAP	57	0	6
NMTAP	57	0	7
NMTAP	57	96	6
NMTAP	57	96	7
NMTAP	57	192	0
NMTAP	57	288	0
NMTAP	58	0	0
NMTAP	58	0	1
NMTAP	58	192	1
NMTAP	58	288	1
NMTAP	59	0	2
NMTAP	59	0	3
NMTAP	59	96	2
NMTAP	59	96	3
NMTAP	59	192	4
NMTAP	59	288	4
NMTAP	60	0	4
NMTAP	60	0	5
NMTAP	60	192	6
NMTAP	60	288	6
NMTAP	61	0	4
NMTAP	61	0	5
NMTAP	61	96	4
NMTAP	61	96	5
NMTAP	61	192	3
NMTAP	61	288	3
BRTAP	62	0	2
BRTAP	62	0	3
NMTAP	62	192	1
NMTAP	62	288	1
NMTAP	63	0	1
NMTAP	63	96	0
NMTAP	63	96	1
NMTAP	63	192	2
NMTAP	63	288	2
NMTAP	64	0	2
NMTAP	64	96	2
NMTAP	64	96	3
NMTAP	64	192	4
NMTAP	64	288	4
NMTAP	65	0	4
NMTAP	65	96	4
NMTAP	65	96	5
NMTAP	65	192	6
NMTAP	65	192	7
NMTAP	65	288	6
NMTAP	65	288	7
NMTAP	66	0	6
NMTAP	66	0	7
NMTAP	66	192	6
NMTAP	66	288	6
NMTAP	67	0	6
NMTAP	67	96	6
NMTAP	67	96	7
NMTAP	67	192	5
NMTAP	67	288	5
NMTAP	68	0	5
NMTAP	68	96	4
NMTAP	68	96	5
NMTAP	68	192	3
NMTAP	68	288	3
NMTAP	69	0	3
NMTAP	69	96	2
NMTAP	69	96	3
NMTAP	69	192	0
NMTAP	69	192	1
NMTAP	69	288	0
NMTAP	69	288	1
NMTAP	70	0	0
NMTAP	70	0	1
NMTAP	70	192	0
NMTAP	70	288	1
NMTAP	71	0	2
NMTAP	71	96	3
NMTAP	71	192	4
NMTAP	71	288	5
NMTAP	72	0	6
NMTAP	72	0	7
NMTAP	72	192	7
NMTAP	72	288	6
NMTAP	73	0	5
NMTAP	73	96	4
NMTAP	73	192	3
NMTAP	73	288	2
NMTAP	74	0	0
NMTAP	74	0	1
NMTAP	74	192	0
NMTAP	74	192	1
NMTAP	74	288	0
NMTAP	74	288	1
NMTAP	75	0	2
NMTAP	75	0	7
NMTAP	75	192	2
NMTAP	75	192	3
NMTAP	75	288	2
NMTAP	75	288	3
NMTAP	76	0	1
NMTAP	76	0	4
NMTAP	76	192	4
NMTAP	76	192	5
NMTAP	76	288	4
NMTAP	76	288	5
NMTAP	77	0	3
NMTAP	77	0	6
NMTAP	77	192	6
NMTAP	77	192	7
NMTAP	77	288	6
NMTAP	77	288	7
NMTAP	78	0	0
NMTAP	78	0	5
NMTAP	78	192	0
NMTAP	78	192	7
NMTAP	78	288	0
NMTAP	78	288	7
NMHLD	79	0	1	1728
NMHLD	79	0	6	1728

T_REC_TAP	261
T_REC_BRK	4
T_REC_XTP	2
T_REC_BXX	0
T_REC_HLD	16
T_REC_XHO	0
T_REC_BHO	0
T_REC_BXH	0
T_REC_STR	4
T_REC_BST	0
T_REC_XST	0
T_REC_XBS	0
T_REC_TTP	11
T_REC_THO	0
T_REC_SLD	4
T_REC_BSL	0
T_REC_ALL	302
T_NUM_TAP	278
T_NUM_BRK	4
T_NUM_HLD	16
T_NUM_SLD	4
T_NUM_ALL	302
T_JUDGE_TAP	282
T_JUDGE_HLD	128
T_JUDGE_SLD	4
T_JUDGE_ALL	414
TTM_EACHPAIRS	69
TTM_SCR_TAP	139000
TTM_SCR_BRK	10400
TTM_SCR_HLD	16000
TTM_SCR_SLD	6000
TTM_SCR_ALL	171400
TTM_SCR_S	165900
TTM_SCR_SS	171000
TTM_RAT_ACV	10023

