VERSION	0.00.00	1.05.00
FES_MODE	0
BPM_DEF	130.000	130.000	130.000	130.000
MET_DEF	4	4
RESOLUTION	384
CLK_DEF	384
COMPATIBLE_CODE	MA2

BPM	0	0	130.000
MET	0	0	4	4
MET	14	0	4	3
MET	16	96	4	4
MET	47	96	4	3
MET	49	192	4	4

NMTAP	2	0	7
NMTAP	2	192	7
EXTAP	3	0	0
EXTAP	3	0	7
NMTAP	4	0	0
NMTAP	4	192	0
NMTAP	5	0	0
NMTAP	5	0	7
NMTAP	6	0	0
NMTAP	6	192	0
NMTAP	7	0	1
NMTAP	7	192	1
NMTAP	8	0	2
NMTAP	8	192	2
NMTAP	9	0	2
NMTAP	9	0	3
NMTAP	10	0	4
NMTAP	10	192	4
NMTAP	11	0	5
NMTAP	11	192	5
NMTAP	12	0	6
NMTAP	12	192	6
NMTAP	13	0	6
NMTAP	13	0	7
NMHLD	14	0	4	288
NMHLD	14	0	5	288
NMHLD	15	192	2	288
NMHLD	15	192	3	288
EXSTR	17	96	2
NMSI_	17	96	2	96	288	5
NMSTR	19	96	6
NMSI_	19	96	6	96	288	2
BRTAP	21	96	0
NMTAP	21	192	0
NMTAP	21	288	0
NMTAP	22	96	1
NMTAP	22	288	1
NMTAP	23	96	2
NMTAP	23	192	2
NMTAP	23	288	2
EXTAP	24	96	2
EXTAP	24	96	3
NMTAP	25	96	4
NMTAP	25	192	4
NMTAP	25	288	4
NMTAP	26	96	5
NMTAP	26	288	5
NMTAP	27	96	6
NMTAP	27	192	6
NMTAP	27	288	6
NMTAP	28	96	6
NMTAP	28	96	7
NMTAP	29	96	7
NMTAP	29	192	7
NMTAP	29	288	7
NMTAP	30	96	6
NMTAP	30	288	6
NMTAP	31	96	5
NMTAP	31	192	5
NMTAP	31	288	5
EXTAP	32	96	3
EXTAP	32	96	4
NMTAP	33	96	3
NMTAP	33	192	3
NMTAP	33	288	3
NMTAP	34	96	2
NMTAP	34	288	2
NMTAP	35	96	1
NMTAP	35	192	1
NMTAP	35	288	1
NMTAP	36	96	0
NMTAP	36	96	7
NMTAP	37	96	6
NMTAP	37	192	6
NMTAP	37	288	0
NMTAP	37	288	7
NMTAP	38	96	1
NMTAP	38	192	1
BXTAP	38	288	0
BXTAP	38	288	7
NMTAP	39	96	0
NMTAP	39	288	0
NMTAP	40	96	0
NMTAP	40	96	1
NMTAP	41	96	2
NMTAP	41	288	2
NMTAP	42	96	3
NMTAP	42	96	4
NMTAP	43	96	4
NMTAP	43	288	4
NMTAP	44	96	4
NMTAP	44	96	5
NMTAP	45	96	6
NMTAP	45	288	6
NMTAP	46	96	0
NMTAP	46	96	7
NMHLD	47	96	0	288
NMHLD	47	96	1	288
NMHLD	48	288	6	288
NMHLD	48	288	7	288
EXSTR	50	192	6
NMSI_	50	192	6	96	288	2
NMSTR	52	192	1
NMSI_	52	192	1	96	288	5
BRTAP	54	192	7
NMTAP	54	288	7
NMTAP	55	0	7
NMTAP	55	192	6
NMTAP	55	288	6
NMTAP	56	0	6
NMTAP	56	192	5
NMTAP	56	288	5
NMTAP	57	0	5
EXTAP	57	192	4
EXTAP	57	192	5
NMTAP	58	0	4
NMTAP	58	0	5
NMTAP	58	192	3
NMTAP	58	288	3
NMTAP	59	0	3
NMTAP	59	192	2
NMTAP	59	288	2
NMTAP	60	0	2
NMTAP	60	192	1
NMTAP	60	288	1
NMTAP	61	0	1
NMTAP	61	192	0
NMTAP	61	192	1
NMTAP	62	0	0
NMTAP	62	0	1
NMTAP	62	192	0
NMTAP	62	288	0
NMTAP	63	0	0
NMTAP	63	192	1
NMTAP	63	288	1
NMTAP	64	0	1
NMTAP	64	192	2
NMTAP	64	288	2
NMTAP	65	0	2
NMTAP	65	192	3
NMTAP	65	288	3
EXTAP	66	0	3
EXTAP	66	0	4
NMTAP	66	192	4
NMTAP	66	288	4
NMTAP	67	0	4
NMTAP	67	192	5
NMTAP	67	288	5
NMTAP	68	0	5
NMTAP	68	192	6
NMTAP	68	288	6
NMTAP	69	0	6
NMTAP	69	192	7
NMTAP	69	288	7
NMTAP	70	0	0
NMTAP	70	0	7
NMTAP	70	192	1
NMTAP	70	288	1
NMTAP	71	0	0
NMTAP	71	0	1
NMTAP	71	192	6
NMTAP	71	288	6
NMTAP	72	0	6
NMTAP	72	0	7
NMTAP	72	192	0
NMTAP	72	288	0
NMTAP	73	0	0
NMTAP	73	0	7
BRTAP	73	192	0
BRTAP	73	192	7
NMTTP	74	192	0	E	0	L1
NMTTP	75	192	0	B	0	L1
NMTTP	75	192	7	B	0	L1
NMTTP	76	192	1	B	0	L1
NMTTP	76	192	6	B	0	L1
NMTTP	77	192	2	B	0	L1
NMTTP	77	192	5	B	0	L1
NMTHO	78	192	0	384	C	1	L1
NMTTP	78	192	3	B	0	L1
NMTTP	78	192	4	B	0	L1

T_REC_TAP	138
T_REC_BRK	4
T_REC_XTP	10
T_REC_BXX	2
T_REC_HLD	8
T_REC_XHO	0
T_REC_BHO	0
T_REC_BXH	0
T_REC_STR	2
T_REC_BST	0
T_REC_XST	2
T_REC_XBS	0
T_REC_TTP	9
T_REC_THO	1
T_REC_SLD	4
T_REC_BSL	0
T_REC_ALL	180
T_NUM_TAP	161
T_NUM_BRK	6
T_NUM_HLD	9
T_NUM_SLD	4
T_NUM_ALL	180
T_JUDGE_TAP	167
T_JUDGE_HLD	56
T_JUDGE_SLD	4
T_JUDGE_ALL	227
TTM_EACHPAIRS	28
TTM_SCR_TAP	80500
TTM_SCR_BRK	15600
TTM_SCR_HLD	9000
TTM_SCR_SLD	6000
TTM_SCR_ALL	111100
TTM_SCR_S	107200
TTM_SCR_SS	110500
TTM_RAT_ACV	10054

