VERSION	0.00.00	1.05.00
FES_MODE	0
BPM_DEF	148.000	148.000	183.000	111.000
MET_DEF	4	4
RESOLUTION	384
CLK_DEF	384
COMPATIBLE_CODE	MA2

BPM	0	0	148.000
BPM	1	192	111.000
BPM	1	288	183.000
BPM	4	0	148.000
MET	0	0	4	4

NMTTP	1	0	5	E	0	M1
NMTTP	1	96	4	E	0	M1
NMTTP	1	192	3	E	0	M1
NMTAP	1	288	4
NMHLD	1	336	3	528
NMHLD	2	0	4	480
NMSTR	4	0	2
NMSI_	4	0	2	96	96	4
NMTAP	4	0	5
NMTAP	4	96	4
NMTAP	4	160	6
NMTAP	4	192	6
NMTAP	4	256	5
NMTAP	4	288	5
NMTAP	4	352	4
NMHLD	4	352	6	96
NMTAP	5	64	3
NMTAP	5	96	5
NMTAP	5	160	5
NMTAP	5	192	2
NMTAP	5	256	2
NMHLD	5	288	3	96
NMHLD	6	0	0	96
NMTAP	6	96	2
NMTAP	6	160	1
NMTAP	6	192	1
NMTAP	6	256	2
NMTAP	6	256	3
NMTAP	6	288	2
NMSTR	6	288	3
NMSUR	6	288	3	96	96	0
NMTAP	6	352	0
NMSTR	7	0	0
NMSCL	7	0	0	96	96	5
NMSCR	7	0	0	96	96	2
NMTAP	7	288	3
NMTAP	7	288	6
NMTAP	8	0	2
NMSTR	8	0	5
NMSI_	8	0	5	96	96	3
NMTAP	8	96	3
NMTAP	8	160	1
NMTAP	8	192	1
NMTAP	8	256	2
NMTAP	8	288	2
NMHLD	8	352	1	96
NMTAP	8	352	3
NMTAP	9	64	4
NMTAP	9	96	2
NMTAP	9	160	2
NMTAP	9	192	5
NMTAP	9	256	5
NMHLD	9	288	4	96
NMHLD	10	0	7	96
NMTAP	10	96	5
NMTAP	10	160	6
NMSTR	10	192	6
NMSCL	10	192	6	96	96	3
NMTAP	10	256	3
NMSTR	10	288	3
NMSCL	10	288	3	96	96	0
NMSUL	10	288	3	96	96	7
NMTAP	11	192	1
NMTAP	11	192	6
NMTAP	11	256	3
NMTAP	11	256	4
NMTAP	11	288	3
NMTAP	11	288	4
NMSTR	12	0	4
NMSCL	12	0	4	96	96	1
NMHLD	12	0	5	96
NMSTR	12	192	6
NMSCL	12	192	6	96	96	3
NMSTR	13	0	1
NMSCL	13	0	1	96	96	6
NMTAP	13	192	4
NMTAP	13	288	3
NMTAP	13	288	5
EXTAP	14	0	5
NMTAP	14	64	5
NMSTR	14	96	4
NMSI_	14	96	4	96	48	1
NMSTR	14	192	7
NMSI_	14	192	7	96	48	3
NMTAP	14	288	0
NMTAP	15	0	1
NMTAP	15	64	1
NMSTR	15	96	3
NMSI_	15	96	3	96	48	5
NMSI_	15	96	3	96	64	1
CNSI_	15	240	5	0	80	0
NMSTR	16	0	0
NMSCL	16	0	0	96	96	5
NMHLD	16	0	1	96
NMSTR	16	192	2
NMSCL	16	192	2	96	96	7
NMSTR	17	0	5
NMSCL	17	0	5	96	96	2
NMTAP	17	192	0
NMTAP	17	288	1
NMTAP	17	288	7
EXTAP	18	0	1
NMTAP	18	64	1
NMSTR	18	96	0
NMSI_	18	96	0	96	48	5
NMSTR	18	192	3
NMSI_	18	192	3	96	48	7
NMTAP	18	288	4
NMSTR	19	0	6
BRSI_	19	0	6	96	48	2
BRSI_	19	0	6	96	48	2
CNSCL	19	144	2	0	80	7
CNSCR	19	144	2	0	80	5
EXTAP	19	288	5
EXTAP	19	288	7
BRTAP	20	0	0
BRTAP	20	0	4
NMTAP	20	96	2
NMTAP	20	128	3
NMTAP	20	160	1
NMTAP	20	192	4
NMTAP	20	224	4
NMTAP	20	256	3
NMSTR	20	288	5
NMSI_	20	288	5	96	32	7
NMTAP	21	0	4
NMTAP	21	96	1
NMTAP	21	128	0
NMTAP	21	160	2
NMTAP	21	192	7
NMTAP	21	224	7
NMTAP	21	256	0
NMSTR	21	288	6
NMSI_	21	288	6	96	32	4
NMTAP	22	0	3
NMTAP	22	96	1
NMTAP	22	128	3
NMTAP	22	160	2
NMTAP	22	192	4
NMTAP	22	224	4
NMTAP	22	256	3
NMHLD	22	288	5	96
NMTAP	23	0	3
NMSTR	23	64	2
NMSUL	23	64	2	96	128	5
NMSTR	23	64	6
NMSCR	23	64	6	96	128	1
BRTAP	24	0	2
BRSTR	24	0	4
BRSCR	24	0	4	96	96	0
CNSXR	24	192	0	0	192	3
NMTTP	24	192	4	B	0	M1
NMTTP	24	192	4	E	0	M1
NMTTP	24	192	5	E	0	M1
NMHLD	24	352	1	192
NMTAP	25	160	3
NMTAP	25	192	3
NMTAP	25	256	0
NMTAP	25	288	1
NMTAP	25	288	7
BRSTR	26	0	3
BRSCL	26	0	3	96	96	7
BRTAP	26	0	6
NMTTP	26	192	0	B	0	M1
NMTTP	26	192	1	B	0	M1
NMTTP	26	192	1	E	0	M1
CNSXL	26	192	7	0	192	4
NMHLD	26	352	5	192
NMTAP	27	160	4
NMTAP	27	192	4
NMTAP	27	256	7
NMSTR	27	288	0
NMSI_	27	288	0	96	48	4
NMTAP	27	288	6
BRTAP	28	0	3
NMTAP	28	160	6
NMTAP	28	192	6
NMTAP	28	256	1
NMSTR	28	288	0
NMSI_	28	288	0	96	48	4
NMTAP	28	288	2
BRTAP	29	0	3
NMTAP	29	160	1
NMTAP	29	192	1
NMTAP	29	256	6
NMTAP	29	288	5
NMSTR	29	288	7
BRSXL	29	288	7	96	192	2
NMTTP	30	0	3	B	0	M1
NMTTP	30	0	4	B	0	M1
NMTTP	30	0	4	E	1	M1
CNSXL	30	192	2	0	192	5
NMTAP	30	192	6
NMHLD	30	352	7	128
BRTAP	31	96	5
NMTAP	31	160	3
NMTAP	31	160	4
NMTAP	31	192	3
NMTAP	31	192	4
NMTAP	31	256	0
NMTAP	31	256	2
NMTAP	31	288	0
NMTAP	31	288	2
BRTAP	32	0	1
BRSTR	32	0	7
BRSCL	32	0	7	96	96	3
CNSXL	32	192	3	0	192	0
NMTTP	32	192	4	B	0	M1
NMTTP	32	192	5	B	0	M1
NMTTP	32	192	5	E	0	M1
NMHLD	32	352	1	192
NMTAP	33	160	7
NMTAP	33	192	7
NMTAP	33	256	2
NMTAP	33	288	1
NMTAP	33	288	3
BRSTR	34	0	0
BRSCR	34	0	0	96	96	4
BRTAP	34	0	5
NMTTP	34	192	2	B	0	M1
NMTTP	34	192	3	B	0	M1
NMTTP	34	192	3	E	0	M1
CNSXR	34	192	4	0	192	7
NMHLD	34	352	6	192
NMTAP	35	160	0
NMTAP	35	192	0
NMTAP	35	256	5
NMSTR	35	288	4
NMSCL	35	288	4	96	48	1
NMTAP	35	288	6
BRTAP	36	0	7
NMTAP	36	160	6
NMTAP	36	192	6
NMTAP	36	256	2
NMTAP	36	288	1
NMSTR	36	288	3
NMSCR	36	288	3	96	48	6
BRTAP	37	0	0
NMTAP	37	160	1
NMTAP	37	192	1
NMTAP	37	256	6
NMTAP	37	288	5
NMSTR	37	288	7
BRSXL	37	288	7	96	192	2
NMTTP	38	0	3	B	0	M1
NMTTP	38	0	4	B	0	M1
NMTTP	38	0	4	E	1	M1
CNSXL	38	192	2	0	192	5
NMTAP	38	192	5
NMHLD	38	352	6	128
BRTAP	39	96	5
NMTAP	39	160	4
NMTAP	39	160	6
NMTAP	39	192	4
NMTAP	39	192	6
NMTAP	39	256	3
NMTAP	39	256	7
NMTAP	39	288	3
NMSTR	39	288	7
BRSI_	39	288	7	96	48	2
BXHLD	40	0	0	1440
BRTAP	40	0	7
NMTTP	40	192	2	B	0	M1
NMTTP	40	204	3	E	0	M1
NMTTP	41	0	0	E	0	M1
NMTTP	41	12	7	B	0	M1
NMTTP	41	192	3	E	0	M1
NMTTP	41	204	3	A	0	M1
NMTTP	42	0	4	B	0	M1
NMTTP	42	12	4	A	0	M1
NMTTP	42	192	1	B	0	M1
NMTTP	42	204	2	E	0	M1
NMTTP	43	0	7	A	0	M1
NMTTP	43	12	0	E	0	M1
NMTTP	43	192	3	B	0	M1
NMTTP	43	204	4	E	0	M1
NMTAP	44	0	2
NMTTP	44	0	5	B	0	M1
NMTTP	44	12	5	E	0	M1
NMSTR	44	96	2
NMSCR	44	96	2	96	96	5
NMTTP	44	192	0	E	0	M1
NMTTP	44	204	0	B	0	M1
NMTAP	45	0	2
NMTTP	45	0	5	E	0	M1
NMTTP	45	12	4	A	0	M1
NMSTR	45	96	2
NMSCR	45	96	2	96	96	5
NMTTP	45	192	3	B	0	M1
NMTTP	45	204	3	A	0	M1
NMTAP	46	0	2
NMTTP	46	0	6	B	0	M1
NMTTP	46	12	6	E	0	M1
NMSTR	46	96	2
NMSCL	46	96	2	96	96	7
NMTTP	46	192	3	E	0	M1
NMTTP	46	204	3	A	0	M1
NMTAP	47	0	2
NMTTP	47	0	7	E	0	M1
NMTTP	47	12	6	B	0	M1
NMSTR	47	96	2
NMSCL	47	96	2	96	96	7
NMTTP	47	192	4	B	0	M1
NMTTP	47	204	4	E	0	M1
NMSTR	48	0	0
BRSI_	48	0	0	96	96	4
NMHLD	48	0	5	96
CNSI_	48	192	4	0	192	7
NMHLD	48	192	5	96
NMHLD	49	0	6	96
CNSI_	49	0	7	0	96	3
CNSI_	49	96	3	0	96	5
NMHLD	49	192	6	96
NMHLD	50	0	3	96
NMSTR	50	0	5
NMSI_	50	0	5	96	96	1
CNSI_	50	192	1	0	192	4
NMHLD	50	192	2	96
NMHLD	51	0	3	96
CNSI_	51	0	4	0	96	0
CNSI_	51	96	0	0	96	2
EXTAP	51	192	4
EXTAP	51	288	4
NMTAP	52	0	3
NMSTR	52	0	7
NMSCL	52	0	7	96	96	5
NMTAP	52	96	2
NMSTR	52	192	1
NMSCR	52	192	1	96	96	3
CNSI_	52	192	5	0	96	1
NMTAP	52	288	0
NMSTR	53	0	7
NMSCR	53	0	7	96	96	1
NMTAP	53	96	4
CNSI_	53	192	1	0	96	5
NMSTR	53	192	5
NMSCL	53	192	5	96	96	3
NMTAP	53	288	6
NMHLD	54	0	7	96
NMHLD	54	96	3	96
NMHLD	54	192	0	96
NMHLD	54	288	4	96
NMHLD	55	0	1	96
NMSTR	55	96	5
NMSLL	55	96	5	96	192	7
NMTAP	55	192	7
NMTAP	55	288	5
BRTAP	56	0	6
NMTAP	56	96	6
NMTAP	56	128	7
NMTAP	56	160	5
NMTAP	56	192	0
NMTAP	56	224	0
NMTAP	56	256	7
NMSTR	56	288	1
NMSI_	56	288	1	96	32	3
NMTAP	57	0	4
NMTAP	57	96	5
NMTAP	57	128	4
NMTAP	57	160	6
NMTAP	57	192	3
NMTAP	57	224	3
NMTAP	57	256	4
NMSTR	57	288	2
NMSI_	57	288	2	96	32	0
NMTAP	58	0	7
NMTAP	58	96	6
NMTAP	58	128	7
NMTAP	58	160	5
NMTAP	58	192	0
NMTAP	58	224	0
NMTAP	58	256	7
NMHLD	58	288	1	96
NMTAP	59	0	0
NMTAP	59	64	2
NMTAP	59	64	7
NMTAP	59	160	4
NMTAP	59	160	5
NMHLD	59	192	4	96
NMHLD	59	192	5	96
BRSTR	60	0	3
BRSCL	60	0	3	96	96	7
BRTAP	60	0	6
NMTTP	60	96	0	B	0	M1
NMTTP	60	96	1	B	0	M1
NMTTP	60	96	1	E	0	M1
NMTTP	60	192	3	B	0	M1
NMTTP	60	192	3	E	0	M1
NMTTP	60	192	4	E	0	M1
CNSXL	60	192	7	0	192	4
NMTAP	60	288	5
NMHLD	60	352	5	128
NMTAP	61	96	4
NMTAP	61	160	4
NMTAP	61	192	6
NMTAP	61	256	6
NMTAP	61	288	0
NMTAP	61	352	0
BRTAP	62	0	1
BRSTR	62	0	4
BRSCR	62	0	4	96	96	0
NMTTP	62	96	6	B	0	M1
NMTTP	62	96	7	B	0	M1
NMTTP	62	96	7	E	0	M1
CNSXR	62	192	0	0	192	3
NMTTP	62	192	4	B	0	M1
NMTTP	62	192	4	E	0	M1
NMTTP	62	192	5	E	0	M1
NMTAP	62	288	2
NMHLD	62	352	2	128
NMTAP	63	96	3
NMTAP	63	160	3
NMTAP	63	192	1
NMTAP	63	256	1
NMSTR	63	288	7
NMSCR	63	288	7	96	48	2
BRTAP	64	0	4
NMTAP	64	96	3
NMTAP	64	160	3
NMTAP	64	192	5
NMTAP	64	256	5
NMSTR	64	288	0
NMSCL	64	288	0	96	48	5
BRTAP	65	0	3
NMTAP	65	96	4
NMTAP	65	160	4
NMTAP	65	192	2
NMTAP	65	256	2
NMSTR	65	288	7
BRSXR	65	288	7	96	192	4
NMTTP	66	0	5	B	0	M1
NMTTP	66	0	6	B	0	M1
NMTTP	66	0	6	E	1	M1
NMTTP	66	96	2	B	0	M1
NMTTP	66	96	3	B	0	M1
NMTTP	66	96	3	E	0	M1
NMTAP	66	192	1
CNSXR	66	192	4	0	192	1
NMTAP	66	288	7
NMHLD	66	352	7	128
BRTAP	67	96	6
NMTAP	67	160	3
NMTAP	67	160	4
NMTAP	67	192	3
NMTAP	67	192	4
NMTAP	67	256	1
NMTAP	67	256	5
NMTAP	67	288	1
NMTAP	67	288	5
BRSTR	68	0	0
BRSCR	68	0	0	96	96	4
BRTAP	68	0	6
NMTTP	68	96	2	B	0	M1
NMTTP	68	96	3	B	0	M1
NMTTP	68	96	3	E	0	M1
NMTTP	68	192	0	B	0	M1
NMTTP	68	192	0	E	0	M1
NMTTP	68	192	1	E	0	M1
CNSXR	68	192	4	0	192	7
NMTAP	68	288	6
NMHLD	68	352	6	128
NMTAP	69	96	7
NMTAP	69	160	1
NMTAP	69	192	1
NMTAP	69	256	5
NMTAP	69	288	4
NMTAP	69	288	6
BRTAP	70	0	2
BRSTR	70	0	7
BRSCL	70	0	7	96	96	3
NMTTP	70	96	4	B	0	M1
NMTTP	70	96	5	B	0	M1
NMTTP	70	96	5	E	0	M1
NMTTP	70	192	0	E	0	M1
CNSXL	70	192	3	0	192	0
NMTTP	70	192	7	B	0	M1
NMTTP	70	192	7	E	0	M1
NMTAP	70	288	1
NMHLD	70	352	1	128
NMTAP	71	96	0
NMTAP	71	160	0
NMTAP	71	192	2
NMTAP	71	256	2
NMSTR	71	288	3
NMSCR	71	288	3	96	48	6
BRTAP	72	0	1
NMTAP	72	96	0
NMTAP	72	160	0
NMTAP	72	192	6
NMTAP	72	256	6
NMSTR	72	288	4
NMSCL	72	288	4	96	48	1
BRTAP	73	0	7
NMTAP	73	96	6
NMTAP	73	160	6
NMTAP	73	192	0
NMTAP	73	256	0
NMSTR	73	288	5
BRSXL	73	288	5	96	192	0
NMTTP	74	0	6	B	0	M1
NMTTP	74	0	7	B	0	M1
NMTTP	74	0	7	E	1	M1
NMTTP	74	96	1	B	0	M1
NMTTP	74	96	2	B	0	M1
NMTTP	74	96	2	E	0	M1
CNSXL	74	192	0	0	192	3
NMTAP	74	192	5
NMTAP	74	288	4
NMHLD	74	352	4	128
BRTAP	75	96	5
NMTAP	75	160	4
NMTAP	75	160	6
NMTAP	75	192	4
NMTAP	75	192	6
NMTAP	75	256	0
NMTAP	75	256	2
NMSTR	75	288	0
BRSI_	75	288	0	96	48	4
NMSTR	75	288	2
BRSI_	75	288	2	96	48	7
BRSTR	76	0	0
NMSUL	76	0	0	96	288	7
BRTAP	76	0	2
CNSCL	77	0	7	0	288	2
NMTAP	78	0	2
NMTAP	78	32	3
NMTAP	78	64	4
NMSTR	78	96	2
NMSCL	78	96	2	96	96	6
NMTAP	78	128	3
NMTAP	78	160	4
CNSCR	78	288	6	0	96	2
NMTAP	79	0	5
NMTAP	79	32	4
NMTAP	79	64	3
NMTAP	79	96	5
NMTAP	79	128	4
NMHLD	79	160	3	224
NMTAP	80	0	5
NMTAP	80	32	4
NMTAP	80	64	3
NMSTR	80	96	5
NMSCR	80	96	5	96	96	1
NMTAP	80	128	4
NMTAP	80	160	3
CNSCL	80	288	1	0	96	5
NMTAP	81	0	2
NMTAP	81	32	3
NMTAP	81	64	4
NMTAP	81	96	2
NMTAP	81	128	3
NMHLD	81	160	4	224
NMTAP	82	0	2
NMTAP	82	32	3
NMTAP	82	64	4
NMSTR	82	96	1
NMSCL	82	96	1	96	96	5
NMTAP	82	128	2
NMTAP	82	160	3
CNSCR	82	288	5	0	96	1
NMTAP	83	0	4
NMTAP	83	32	3
NMTAP	83	64	2
NMSTR	83	96	4
NMSF_	83	96	4	96	168	0
NMTAP	83	128	3
NMTAP	83	160	2

T_REC_TAP	251
T_REC_BRK	25
T_REC_XTP	6
T_REC_BXX	0
T_REC_HLD	40
T_REC_XHO	0
T_REC_BHO	0
T_REC_BXH	1
T_REC_STR	54
T_REC_BST	9
T_REC_XST	0
T_REC_XBS	0
T_REC_TTP	87
T_REC_THO	0
T_REC_SLD	49
T_REC_BSL	18
T_REC_ALL	540
T_NUM_TAP	398
T_NUM_BRK	53
T_NUM_HLD	40
T_NUM_SLD	49
T_NUM_ALL	540
T_JUDGE_TAP	432
T_JUDGE_HLD	149
T_JUDGE_SLD	67
T_JUDGE_ALL	648
TTM_EACHPAIRS	58
TTM_SCR_TAP	199000
TTM_SCR_BRK	137800
TTM_SCR_HLD	40000
TTM_SCR_SLD	73500
TTM_SCR_ALL	450300
TTM_SCR_S	431650
TTM_SCR_SS	445000
TTM_RAT_ACV	10119

