VERSION	0.00.00	1.04.00
FES_MODE	0
BPM_DEF	148.000	148.000	183.000	111.000
MET_DEF	4	4
RESOLUTION	384
CLK_DEF	384
COMPATIBLE_CODE	MA2

BPM	0	0	148.000
BPM	1	192	111.000
BPM	1	288	183.000
BPM	4	0	148.000
MET	0	0	4	4

NMHLD	1	0	1	864
NMSTR	1	192	3
NMSCL	1	192	3	96	576	4
NMHLD	4	0	6	576
NMTAP	4	96	3
NMTAP	4	192	4
NMTAP	4	288	4
NMTAP	5	0	3
NMTAP	5	96	4
NMTTP	5	192	4	E	0	M1
NMHLD	6	0	1	576
NMTAP	6	96	4
NMTAP	6	192	3
NMTAP	6	288	3
NMTAP	7	0	4
NMTAP	7	96	3
NMTTP	7	192	4	E	0	M1
NMHLD	8	0	7	576
NMTAP	8	96	4
NMTAP	8	192	5
NMTAP	8	288	3
NMTAP	9	0	2
NMTAP	9	96	4
NMTTP	9	192	4	E	0	M1
NMHLD	10	0	0	576
NMTAP	10	96	3
NMTAP	10	192	2
NMTAP	10	288	4
NMTAP	11	0	5
NMTAP	11	96	3
NMTTP	11	192	4	E	0	M1
NMTAP	12	0	5
NMTAP	12	96	5
NMTAP	12	192	4
NMTAP	12	192	6
NMTAP	12	288	4
NMTAP	12	288	6
NMTAP	13	0	3
NMTAP	13	96	3
NMTAP	13	192	2
NMTAP	13	192	4
NMTAP	13	288	2
NMTAP	13	288	4
NMTAP	14	0	1
NMTAP	14	96	2
NMTAP	14	96	3
NMTAP	14	192	6
NMTAP	14	288	4
NMTAP	14	288	5
NMTAP	15	0	1
NMTAP	15	96	2
NMTAP	15	96	3
NMTAP	15	192	6
NMTAP	15	288	4
NMTAP	15	288	5
NMTAP	16	0	2
NMTAP	16	96	2
NMTAP	16	192	1
NMTAP	16	192	3
NMTAP	16	288	1
NMTAP	16	288	3
NMTAP	17	0	4
NMTAP	17	96	4
NMTAP	17	192	3
NMTAP	17	192	5
NMTAP	17	288	3
NMTAP	17	288	5
NMTAP	18	0	7
NMTAP	18	96	4
NMTAP	18	96	6
NMTAP	18	192	0
NMTAP	18	288	1
NMTAP	18	288	3
NMTAP	19	0	7
NMTAP	19	96	4
NMTAP	19	96	6
NMTAP	19	192	0
NMTAP	19	288	1
NMTAP	19	288	3
NMTAP	20	0	5
NMHLD	20	96	6	96
NMHLD	20	192	4	96
NMHLD	20	288	3	96
NMTAP	21	0	1
NMHLD	21	96	1	96
NMHLD	21	192	3	96
NMHLD	21	288	4	96
NMTAP	22	0	6
NMHLD	22	96	5	96
NMHLD	22	192	7	96
NMHLD	22	288	0	96
NMTAP	23	0	2
NMTAP	23	192	1
NMTAP	23	192	7
NMSTR	23	288	1
NMSI_	23	288	1	96	144	5
NMHLD	23	288	7	576
CNSI_	24	144	5	0	96	3
CNSI_	24	240	3	0	144	6
NMTAP	25	192	0
NMTAP	25	192	6
NMHLD	25	288	0	576
NMSTR	25	288	6
NMSI_	25	288	6	96	144	2
CNSI_	26	144	2	0	96	4
CNSI_	26	240	4	0	144	1
NMTAP	27	192	1
NMTAP	27	192	7
NMSTR	27	288	2
NMSCR	27	288	2	96	96	5
NMSTR	27	288	6
NMSCR	27	288	6	96	96	1
NMTAP	28	192	3
NMTAP	28	192	7
NMSTR	28	288	3
NMSCL	28	288	3	96	96	0
NMSTR	28	288	7
NMSCL	28	288	7	96	96	4
NMTAP	29	192	0
NMTAP	29	192	4
NMTAP	29	288	1
NMSTR	29	288	5
NMSI_	29	288	5	96	96	0
NMSTR	30	96	2
NMSI_	30	96	2	96	96	5
NMSTR	30	288	7
NMSI_	30	288	7	96	96	3
NMTAP	31	96	2
NMTAP	31	192	0
NMTAP	31	192	6
NMHLD	31	288	0	576
NMSTR	31	288	6
NMSI_	31	288	6	96	144	2
CNSI_	32	144	2	0	96	4
CNSI_	32	240	4	0	144	1
NMTAP	33	192	1
NMTAP	33	192	7
NMSTR	33	288	1
NMSI_	33	288	1	96	144	5
NMHLD	33	288	7	576
CNSI_	34	144	5	0	96	3
CNSI_	34	240	3	0	144	6
NMTAP	35	192	0
NMTAP	35	192	6
NMSTR	35	288	1
NMSCL	35	288	1	96	96	6
NMSTR	35	288	5
NMSCL	35	288	5	96	96	2
NMTAP	36	192	0
NMTAP	36	192	4
NMSTR	36	288	0
NMSCR	36	288	0	96	96	3
NMSTR	36	288	4
NMSCR	36	288	4	96	96	7
NMTAP	37	192	3
NMTAP	37	192	7
NMSTR	37	288	2
NMSI_	37	288	2	96	96	7
NMTAP	37	288	6
NMSTR	38	96	5
NMSI_	38	96	5	96	96	2
NMSTR	38	288	0
NMSI_	38	288	0	96	96	4
NMTAP	39	96	5
NMTAP	39	192	6
NMTAP	39	192	7
NMTAP	39	288	0
NMTAP	39	288	1
BRTAP	40	0	2
BRTAP	40	0	3
NMHLD	40	192	1	384
NMTAP	40	192	4
NMTAP	41	0	3
NMTAP	41	96	3
NMTTP	41	192	4	E	0	M1
NMTAP	42	0	4
NMTAP	42	0	5
NMTAP	42	96	4
NMTAP	42	96	5
NMTAP	42	192	3
NMHLD	42	192	6	384
NMTAP	43	0	4
NMTAP	43	96	4
NMTTP	43	192	4	E	0	M1
NMTAP	44	0	1
NMTAP	44	0	3
NMTAP	44	96	1
NMTAP	44	96	3
NMHLD	44	192	0	384
NMTAP	44	192	4
NMTAP	45	0	3
NMTAP	45	96	3
NMTTP	45	192	4	E	0	M1
NMTAP	46	0	4
NMTAP	46	0	6
NMTAP	46	96	4
NMTAP	46	96	6
NMTAP	46	192	3
NMHLD	46	192	7	384
NMTAP	47	0	4
NMTAP	47	96	4
NMTTP	47	192	4	E	0	M1
NMHLD	48	0	1	192
NMTAP	48	96	3
NMHLD	48	192	5	192
NMTAP	48	288	7
NMHLD	49	0	1	192
NMTAP	49	96	3
NMHLD	49	192	5	192
NMTAP	49	288	7
NMHLD	50	0	2	192
NMTAP	50	96	4
NMHLD	50	192	6	192
NMTAP	50	288	4
NMHLD	51	0	2	192
NMTAP	51	96	0
NMTAP	51	192	6
NMTAP	51	288	3
NMTAP	51	288	5
NMHLD	52	0	6	192
NMTAP	52	96	4
NMHLD	52	192	2	192
NMTAP	52	288	0
NMHLD	53	0	6	192
NMTAP	53	96	4
NMHLD	53	192	2	192
NMTAP	53	288	0
NMHLD	54	0	5	192
NMTAP	54	96	3
NMHLD	54	192	1	192
NMTAP	54	288	3
NMHLD	55	0	5	192
NMTAP	55	96	7
NMTAP	55	192	1
NMTAP	55	288	2
NMTAP	55	288	4
BRTAP	56	0	1
BRTAP	56	0	5
EXTAP	56	96	2
NMTAP	56	128	3
NMTAP	56	160	2
EXTAP	56	192	3
NMTAP	56	224	2
NMTAP	56	256	3
EXTAP	56	288	1
NMTAP	57	0	0
NMTAP	57	0	7
EXTAP	57	96	5
NMTAP	57	128	4
NMTAP	57	160	5
EXTAP	57	192	4
NMTAP	57	224	5
NMTAP	57	256	4
EXTAP	57	288	6
NMTAP	58	0	0
NMTAP	58	0	7
EXTAP	58	96	2
NMTAP	58	128	3
NMTAP	58	160	2
EXTAP	58	192	3
NMTAP	58	224	2
NMTAP	58	256	3
EXTAP	58	288	1
BRTAP	59	0	0
BRTAP	59	0	7
NMTAP	59	192	3
NMTAP	59	192	5
NMHLD	59	288	3	576
NMSTR	59	288	5
NMSI_	59	288	5	96	144	1
CNSI_	60	144	1	0	96	7
CNSI_	60	240	7	0	144	2
NMTAP	61	192	2
NMTAP	61	192	4
NMSTR	61	288	2
NMSI_	61	288	2	96	144	6
NMHLD	61	288	4	576
CNSI_	62	144	6	0	96	0
CNSI_	62	240	0	0	144	5
NMTAP	63	192	3
NMTAP	63	192	5
NMSTR	63	288	2
NMSCR	63	288	2	96	96	5
NMSTR	63	288	6
NMSCR	63	288	6	96	96	1
NMTAP	64	192	3
NMTAP	64	192	7
NMSTR	64	288	3
NMSCL	64	288	3	96	96	0
NMSTR	64	288	7
NMSCL	64	288	7	96	96	4
NMTAP	65	192	0
NMTAP	65	192	4
NMSTR	65	288	1
NMSI_	65	288	1	96	96	4
NMTAP	65	288	5
NMSTR	66	96	6
NMSI_	66	96	6	96	96	2
NMSTR	66	288	4
NMSI_	66	288	4	96	96	0
NMTAP	67	96	6
NMTAP	67	192	2
NMTAP	67	192	4
NMSTR	67	288	2
NMSI_	67	288	2	96	144	6
NMHLD	67	288	4	576
CNSI_	68	144	6	0	96	0
CNSI_	68	240	0	0	144	5
NMTAP	69	192	3
NMTAP	69	192	5
NMHLD	69	288	3	576
NMSTR	69	288	5
NMSI_	69	288	5	96	144	1
CNSI_	70	144	1	0	96	7
CNSI_	70	240	7	0	144	2
NMTAP	71	192	2
NMTAP	71	192	4
NMSTR	71	288	1
NMSCL	71	288	1	96	96	6
NMSTR	71	288	5
NMSCL	71	288	5	96	96	2
NMTAP	72	192	0
NMTAP	72	192	4
NMSTR	72	288	0
NMSCR	72	288	0	96	96	3
NMSTR	72	288	4
NMSCR	72	288	4	96	96	7
NMTAP	73	192	3
NMTAP	73	192	7
NMTAP	73	288	2
NMSTR	73	288	6
NMSI_	73	288	6	96	96	3
NMSTR	74	96	1
NMSI_	74	96	1	96	96	6
NMSTR	74	288	4
NMSI_	74	288	4	96	96	0
NMTAP	75	96	1
NMTAP	75	192	2
NMTAP	75	192	3
NMTAP	75	288	4
NMTAP	75	288	5
BRHLD	76	0	6	544
BRHLD	76	0	7	2848
NMHLD	78	0	4	544
NMHLD	80	0	2	544
NMHLD	82	0	0	544
NMSTR	83	288	0
NMSCR	83	288	0	96	96	3
NMSTR	83	288	7
NMSCL	83	288	7	96	96	4

T_REC_TAP	188
T_REC_BRK	6
T_REC_XTP	9
T_REC_BXX	0
T_REC_HLD	43
T_REC_XHO	0
T_REC_BHO	2
T_REC_BXH	0
T_REC_STR	39
T_REC_BST	0
T_REC_XST	0
T_REC_XBS	0
T_REC_TTP	8
T_REC_THO	0
T_REC_SLD	39
T_REC_BSL	0
T_REC_ALL	334
T_NUM_TAP	244
T_NUM_BRK	8
T_NUM_HLD	43
T_NUM_SLD	39
T_NUM_ALL	334
T_JUDGE_TAP	250
T_JUDGE_HLD	378
T_JUDGE_SLD	39
T_JUDGE_ALL	667
TTM_EACHPAIRS	79
TTM_SCR_TAP	122000
TTM_SCR_BRK	20800
TTM_SCR_HLD	43000
TTM_SCR_SLD	58500
TTM_SCR_ALL	244300
TTM_SCR_S	236200
TTM_SCR_SS	243500
TTM_RAT_ACV	10032

