VERSION	0.00.00	1.05.00
FES_MODE	0
BPM_DEF	148.000	148.000	183.000	111.000
MET_DEF	4	4
RESOLUTION	384
CLK_DEF	384
COMPATIBLE_CODE	MA2

BPM	0	0	148.000
BPM	1	192	111.000
BPM	1	288	183.000
BPM	4	0	148.000
MET	0	0	4	4

NMTAP	4	0	6
NMTAP	4	96	6
NMTAP	4	192	6
NMTAP	5	0	5
NMTAP	5	96	5
NMTAP	5	192	5
NMTAP	6	0	4
NMTAP	6	96	4
NMTAP	6	192	4
NMTAP	7	0	2
NMTAP	7	0	3
NMTAP	7	192	2
NMTAP	7	192	3
NMTAP	8	0	1
NMTAP	8	96	1
NMTAP	8	192	1
NMTAP	9	0	2
NMTAP	9	96	2
NMTAP	9	192	2
NMTAP	10	0	3
NMTAP	10	96	3
NMTAP	10	192	3
NMTAP	11	0	4
NMTAP	11	0	5
NMTAP	11	192	4
NMTAP	11	192	5
NMTAP	12	0	3
NMTAP	12	96	3
NMTAP	12	192	2
NMTAP	13	0	1
NMTAP	13	96	1
NMTAP	13	192	0
NMTAP	14	0	7
NMTAP	14	96	7
NMTAP	14	192	6
NMTAP	15	0	5
NMTAP	15	96	5
NMTAP	15	192	4
NMTAP	15	192	5
NMTAP	16	0	4
NMTAP	16	96	4
NMTAP	16	192	5
NMTAP	17	0	6
NMTAP	17	96	6
NMTAP	17	192	7
NMTAP	18	0	0
NMTAP	18	96	0
NMTAP	18	192	1
NMTAP	19	0	2
NMTAP	19	96	2
NMTAP	19	192	2
NMTAP	19	192	3
NMTTP	20	0	1	B	0	L1
NMTTP	20	96	2	B	0	L1
NMTTP	20	192	3	B	0	L1
NMTTP	21	0	6	B	0	L1
NMTTP	21	96	5	B	0	L1
NMTTP	21	192	4	B	0	L1
NMTTP	22	0	1	B	0	L1
NMTTP	22	96	2	B	0	L1
NMTTP	22	192	3	B	0	L1
NMTTP	22	288	4	B	0	L1
NMTTP	23	0	0	C	1	L1
NMTAP	24	0	6
NMTAP	24	96	6
NMTAP	24	192	7
NMTAP	24	288	7
NMTAP	25	0	0
NMTAP	25	96	0
NMTAP	25	192	0
NMTAP	25	192	1
NMTAP	26	0	2
NMTAP	26	96	2
NMTAP	26	192	1
NMTAP	26	288	1
NMTAP	27	0	0
NMTAP	27	96	0
NMTAP	27	192	6
NMTAP	27	192	7
NMTAP	28	0	6
NMTAP	28	96	6
NMTAP	28	192	5
NMTAP	28	288	5
NMTAP	29	0	4
NMTAP	29	96	4
NMTAP	29	192	2
NMTAP	29	192	3
NMTAP	30	0	1
NMTAP	30	96	1
NMTAP	30	192	2
NMTAP	30	288	2
NMTAP	31	0	3
NMTAP	31	96	3
NMTAP	31	192	4
NMTAP	31	192	5
BRTAP	32	0	5
NMTAP	32	96	5
NMTAP	32	192	6
NMTAP	32	288	6
NMTAP	33	0	7
NMTAP	33	96	7
NMTAP	33	192	0
NMTAP	33	192	1
NMTAP	34	0	2
NMTAP	34	96	2
NMTAP	34	192	1
NMTAP	34	288	1
NMTAP	35	0	0
NMTAP	35	96	0
NMTAP	35	192	6
NMTAP	35	192	7
NMTAP	36	0	6
NMTAP	36	96	6
NMTAP	36	192	5
NMTAP	36	288	5
NMTAP	37	0	4
NMTAP	37	96	4
NMTAP	37	192	2
NMTAP	37	192	3
NMTAP	38	0	1
NMTAP	38	96	1
NMTAP	38	192	2
NMTAP	38	288	2
NMTAP	39	0	3
NMTAP	39	96	3
NMTAP	39	192	4
NMTAP	39	192	5
NMHLD	40	0	5	192
NMHLD	40	192	4	192
NMHLD	41	0	3	192
NMTAP	41	192	2
NMHLD	42	0	2	192
NMHLD	42	192	3	192
NMHLD	43	0	4	192
NMTAP	43	192	5
NMHLD	44	0	6	192
NMHLD	44	192	5	192
NMHLD	45	0	4	192
NMTAP	45	192	3
NMHLD	46	0	1	192
NMHLD	46	192	2	192
NMHLD	47	0	3	192
NMTAP	47	192	4
NMTAP	48	0	2
NMTAP	48	96	2
NMTAP	48	192	2
NMTAP	48	192	3
NMTAP	49	0	1
NMTAP	49	96	1
NMTAP	49	192	0
NMTAP	49	192	1
NMTAP	50	0	7
NMTAP	50	96	7
NMTAP	50	192	6
NMTAP	50	192	7
NMTAP	51	0	4
NMTAP	51	0	5
NMTAP	51	96	4
NMTAP	51	96	5
NMTAP	51	192	4
NMTAP	51	192	5
NMTAP	52	0	5
NMTAP	52	96	5
NMTAP	52	192	4
NMTAP	52	192	5
NMTAP	53	0	6
NMTAP	53	96	6
NMTAP	53	192	6
NMTAP	53	192	7
NMTAP	54	0	0
NMTAP	54	96	0
NMTAP	54	192	0
NMTAP	54	192	1
NMTAP	55	0	2
NMTAP	55	0	3
NMTAP	55	96	2
NMTAP	55	96	3
NMTAP	55	192	2
NMTAP	55	192	3
NMSTR	56	0	1
NMSI_	56	0	1	96	192	4
NMSTR	57	0	6
NMSI_	57	0	6	96	192	2
NMSTR	58	0	0
NMSI_	58	0	0	96	192	4
NMTAP	59	0	5
NMTAP	59	192	4
NMTAP	59	192	5
NMTAP	60	0	5
NMTAP	60	96	5
NMTAP	60	192	6
NMTAP	60	192	7
NMTAP	60	288	6
NMTAP	60	288	7
NMTAP	61	0	0
NMTAP	61	96	0
NMTAP	61	192	0
NMTAP	61	192	1
NMTAP	62	0	2
NMTAP	62	96	2
NMTAP	62	192	0
NMTAP	62	192	1
NMTAP	62	288	0
NMTAP	62	288	1
NMTAP	63	0	7
NMTAP	63	96	7
NMTAP	63	192	6
NMTAP	63	192	7
NMTAP	64	0	6
NMTAP	64	96	6
NMTAP	64	192	4
NMTAP	64	192	5
NMTAP	64	288	4
NMTAP	64	288	5
NMTAP	65	0	3
NMTAP	65	96	3
NMTAP	65	192	2
NMTAP	65	192	3
NMTAP	66	0	1
NMTAP	66	96	1
NMTAP	66	192	2
NMTAP	66	192	3
NMTAP	66	288	2
NMTAP	66	288	3
NMTAP	67	0	4
NMTAP	67	96	4
NMTAP	67	192	4
NMTAP	67	192	5
NMTAP	68	0	5
NMTAP	68	96	5
NMTAP	68	192	6
NMTAP	68	192	7
NMTAP	68	288	6
NMTAP	68	288	7
NMTAP	69	0	0
NMTAP	69	96	0
NMTAP	69	192	0
NMTAP	69	192	1
NMTAP	69	288	0
NMTAP	69	288	1
NMTAP	70	0	2
NMTAP	70	96	2
NMTAP	70	192	0
NMTAP	70	192	1
NMTAP	70	288	0
NMTAP	70	288	1
NMTAP	71	0	7
NMTAP	71	96	7
NMTAP	71	192	6
NMTAP	71	192	7
NMTAP	72	0	6
NMTAP	72	96	6
NMTAP	72	192	4
NMTAP	72	192	5
NMTAP	72	288	4
NMTAP	72	288	5
NMTAP	73	0	3
NMTAP	73	96	3
NMTAP	73	192	2
NMTAP	73	192	3
NMTAP	73	288	2
NMTAP	73	288	3
NMTAP	74	0	1
NMTAP	74	96	1
NMTAP	74	192	2
NMTAP	74	192	3
NMTAP	74	288	2
NMTAP	74	288	3
NMTAP	75	0	4
NMTAP	75	96	4
BRTAP	75	192	4
BRTAP	75	192	5
NMSTR	76	0	6
NMSUL	76	0	6	96	480	3
NMSTR	78	0	1
NMSUR	78	0	1	96	480	4
NMSTR	80	0	6
NMSXL	80	0	6	96	480	3
NMSTR	82	0	3
NMSXR	82	0	3	96	672	0
NMSTR	82	0	4
NMSXL	82	0	4	96	672	7

T_REC_TAP	240
T_REC_BRK	3
T_REC_XTP	0
T_REC_BXX	0
T_REC_HLD	12
T_REC_XHO	0
T_REC_BHO	0
T_REC_BXH	0
T_REC_STR	8
T_REC_BST	0
T_REC_XST	0
T_REC_XBS	0
T_REC_TTP	11
T_REC_THO	0
T_REC_SLD	8
T_REC_BSL	0
T_REC_ALL	282
T_NUM_TAP	259
T_NUM_BRK	3
T_NUM_HLD	12
T_NUM_SLD	8
T_NUM_ALL	282
T_JUDGE_TAP	262
T_JUDGE_HLD	48
T_JUDGE_SLD	8
T_JUDGE_ALL	318
TTM_EACHPAIRS	54
TTM_SCR_TAP	129500
TTM_SCR_BRK	7800
TTM_SCR_HLD	12000
TTM_SCR_SLD	12000
TTM_SCR_ALL	161300
TTM_SCR_S	156200
TTM_SCR_SS	161000
TTM_RAT_ACV	10018

