VERSION	0.00.00	1.05.00
FES_MODE	0
BPM_DEF	148.000	148.000	183.000	111.000
MET_DEF	4	4
RESOLUTION	384
CLK_DEF	384
COMPATIBLE_CODE	MA2

BPM	0	0	148.000
BPM	1	192	111.000
BPM	1	288	183.000
BPM	4	0	148.000
MET	0	0	4	4

NMTAP	4	0	4
NMTAP	5	0	4
NMTAP	6	0	4
NMTAP	8	0	3
NMTAP	9	0	3
NMTAP	10	0	3
NMTAP	11	0	3
NMTAP	11	0	4
NMTAP	12	0	3
NMTAP	12	192	3
NMTAP	13	0	2
NMTAP	13	192	2
NMTAP	14	0	1
NMTAP	14	192	1
NMTAP	15	0	0
NMTAP	15	0	7
NMTAP	16	0	7
NMTAP	16	192	7
NMTAP	17	0	6
NMTAP	17	192	6
NMTAP	18	0	5
NMTAP	18	192	5
NMTAP	19	0	3
NMTAP	19	0	4
NMTTP	20	0	3	B	0	L1
NMTTP	20	0	4	B	0	L1
NMTTP	21	0	2	B	0	L1
NMTTP	21	0	5	B	0	L1
NMTHO	22	0	0	384	C	0	L1
BRTAP	24	0	7
NMTAP	24	192	7
EXTAP	25	0	6
NMTAP	25	192	6
NMTAP	26	0	5
NMTAP	26	192	5
EXTAP	27	0	4
NMTAP	27	192	4
NMTAP	28	0	3
NMTAP	28	192	3
NMTAP	29	0	2
NMTAP	29	192	2
NMTAP	30	0	1
NMTAP	30	192	1
EXTAP	31	0	0
EXTAP	31	0	1
NMTAP	32	0	0
NMTAP	32	192	0
EXTAP	33	0	1
NMTAP	33	192	1
NMTAP	34	0	2
NMTAP	34	192	2
EXTAP	35	0	3
NMTAP	35	192	3
NMTAP	36	0	4
NMTAP	36	192	4
NMTAP	37	0	5
NMTAP	37	192	5
NMTAP	38	0	6
NMTAP	38	192	6
EXTAP	39	0	6
EXTAP	39	0	7
NMHLD	40	0	6	384
NMHLD	40	0	7	384
NMHLD	42	0	4	384
NMHLD	42	0	5	384
NMHLD	44	0	2	384
NMHLD	44	0	3	384
NMHLD	46	0	0	384
NMHLD	46	0	1	384
NMSTR	48	0	2
NMSI_	48	0	2	96	288	5
NMSTR	50	0	6
NMSI_	50	0	6	96	288	3
NMSTR	52	0	1
NMSI_	52	0	1	96	288	5
NMSTR	54	0	6
NMSI_	54	0	6	96	288	2
NMTAP	56	0	1
NMTAP	56	192	1
NMTAP	57	0	0
NMTAP	57	0	7
NMTAP	58	0	6
NMTAP	58	192	6
NMTAP	59	0	0
NMTAP	59	0	7
BRTAP	60	0	7
NMTAP	60	96	7
NMTAP	60	192	7
EXTAP	61	0	6
EXTAP	61	0	7
NMTAP	61	192	6
NMTAP	61	192	7
NMTAP	62	0	5
NMTAP	62	96	5
NMTAP	62	192	5
EXTAP	63	0	4
EXTAP	63	0	5
NMTAP	63	192	4
NMTAP	63	192	5
NMTAP	64	0	3
NMTAP	64	96	3
NMTAP	64	192	3
NMTAP	65	0	2
NMTAP	65	0	3
NMTAP	65	192	2
NMTAP	65	192	3
NMTAP	66	0	1
NMTAP	66	96	1
NMTAP	66	192	1
EXTAP	67	0	0
EXTAP	67	0	1
NMTAP	68	0	0
NMTAP	68	96	0
NMTAP	68	192	0
EXTAP	69	0	0
EXTAP	69	0	1
NMTAP	69	192	0
NMTAP	69	192	1
NMTAP	70	0	2
NMTAP	70	96	2
NMTAP	70	192	2
EXTAP	71	0	3
EXTAP	71	0	4
NMTAP	71	192	3
NMTAP	71	192	4
NMTAP	72	0	4
NMTAP	72	96	4
NMTAP	72	192	4
NMTAP	73	0	4
NMTAP	73	0	5
NMTAP	73	192	4
NMTAP	73	192	5
NMTAP	74	0	6
NMTAP	74	96	6
NMTAP	74	192	6
EXTAP	75	0	0
EXTAP	75	0	7
NMTTP	76	0	0	B	0	L1
NMTTP	76	0	7	B	0	L1
NMTTP	77	0	1	B	0	L1
NMTTP	77	0	6	B	0	L1
NMTTP	78	0	2	B	0	L1
NMTTP	78	0	5	B	0	L1
NMTTP	79	0	3	B	0	L1
NMTTP	79	0	4	B	0	L1
NMTTP	80	0	2	B	0	L1
NMTTP	80	0	5	B	0	L1
NMTTP	81	0	1	B	0	L1
NMTTP	81	0	6	B	0	L1
NMTTP	82	0	0	B	0	L1
NMTTP	82	0	7	B	0	L1
NMTHO	83	0	0	384	C	0	L1

T_REC_TAP	94
T_REC_BRK	2
T_REC_XTP	20
T_REC_BXX	0
T_REC_HLD	8
T_REC_XHO	0
T_REC_BHO	0
T_REC_BXH	0
T_REC_STR	4
T_REC_BST	0
T_REC_XST	0
T_REC_XBS	0
T_REC_TTP	18
T_REC_THO	2
T_REC_SLD	4
T_REC_BSL	0
T_REC_ALL	152
T_NUM_TAP	136
T_NUM_BRK	2
T_NUM_HLD	10
T_NUM_SLD	4
T_NUM_ALL	152
T_JUDGE_TAP	138
T_JUDGE_HLD	80
T_JUDGE_SLD	4
T_JUDGE_ALL	222
TTM_EACHPAIRS	25
TTM_SCR_TAP	68000
TTM_SCR_BRK	5200
TTM_SCR_HLD	10000
TTM_SCR_SLD	6000
TTM_SCR_ALL	89200
TTM_SCR_S	86350
TTM_SCR_SS	89000
TTM_RAT_ACV	10022

