VERSION	0.00.00	1.05.00
FES_MODE	0
BPM_DEF	186.000	186.000	186.000	186.000
MET_DEF	4	4
RESOLUTION	384
CLK_DEF	384
COMPATIBLE_CODE	MA2

BPM	0	0	186.000
MET	0	0	4	4

NMSTR	5	0	1
NMSCR	5	0	1	96	672	1
NMTAP	5	192	4
NMTAP	6	192	4
NMSTR	7	0	5
NMSI_	7	0	5	96	144	1
NMTAP	7	192	3
CNSI_	7	240	1	0	144	4
CNSI_	8	0	4	0	384	0
NMTAP	8	192	3
NMSTR	9	0	2
NMSV_	9	0	2	96	96	0
CNSCR	9	192	0	0	576	0
NMTAP	9	192	5
NMTAP	10	192	3
NMSTR	11	0	6
BRSXL	11	0	6	96	192	1
NMTAP	11	192	2
CNSCL	11	288	1	0	288	6
NMTAP	12	192	4
BRTAP	13	0	2
NMTAP	13	0	3
NMTAP	13	96	3
NMTAP	13	96	4
NMTAP	13	192	5
NMTAP	13	240	4
NMTAP	13	288	3
NMTAP	13	336	4
NMTAP	14	48	4
NMTAP	14	96	3
NMTAP	14	144	2
NMTAP	14	240	3
NMTAP	14	336	3
NMTAP	15	0	4
BRTAP	15	0	5
NMTAP	15	96	3
NMTAP	15	96	4
NMTAP	15	192	2
NMTAP	15	240	2
NMTAP	15	288	3
NMTAP	15	336	4
NMTAP	16	48	5
NMTAP	16	96	4
NMTAP	16	144	3
NMTAP	16	240	2
NMTAP	16	336	2
BRTAP	17	0	1
NMTAP	17	0	3
NMTAP	17	96	3
NMTAP	17	96	4
NMTAP	17	192	5
NMTAP	17	240	5
NMTAP	17	288	4
NMTAP	17	336	5
NMTAP	18	0	3
BRTAP	18	0	6
NMTAP	18	48	5
NMTAP	18	96	4
NMTAP	18	144	3
NMTAP	18	240	1
NMTAP	18	336	1
BRTAP	19	0	0
NMTAP	19	0	2
NMTAP	19	96	3
NMTAP	19	96	4
NMTAP	19	192	5
BRTAP	19	192	7
NMTAP	19	288	3
NMTAP	19	288	4
BRTAP	20	0	0
BRTAP	20	0	1
BRTAP	20	96	6
BRTAP	20	96	7
BRSTR	20	192	0
NMSI_	20	192	0	96	24	5
BRSTR	20	192	7
NMSI_	20	192	7	96	24	2
BRTAP	20	288	0
BRTAP	20	288	7
NMTTP	20	300	0	E	1	M1
NMTAP	21	0	3
NMTAP	21	0	4
NMTAP	21	48	2
NMTAP	21	96	2
NMTAP	21	144	3
NMTAP	21	192	1
NMTAP	21	216	0
NMTAP	21	240	1
NMTAP	21	264	0
NMTAP	21	288	1
NMTAP	21	336	2
NMTAP	21	336	7
NMTAP	22	0	3
NMTAP	22	48	5
NMTAP	22	96	5
NMTAP	22	144	4
NMTAP	22	192	6
NMTAP	22	216	7
NMTAP	22	240	6
NMTAP	22	264	7
NMTAP	22	288	6
NMTAP	22	336	0
NMTAP	22	336	5
NMTAP	23	0	4
NMTAP	23	48	2
NMTAP	23	96	2
NMTAP	23	144	3
NMTAP	23	192	1
NMTAP	23	216	0
NMTAP	23	240	1
NMTAP	23	264	0
NMTAP	23	288	1
NMTAP	23	336	2
NMTAP	23	336	7
NMTAP	24	0	1
NMHLD	24	48	1	48
NMHLD	24	96	3	48
NMHLD	24	144	4	48
NMTAP	24	192	6
NMTAP	24	240	0
NMHLD	24	264	0	48
NMTAP	24	312	6
NMTAP	24	336	5
NMTAP	24	360	4
NMTAP	25	0	2
NMTAP	25	0	3
NMTAP	25	48	1
NMTAP	25	96	0
NMTAP	25	96	1
NMTAP	25	144	7
NMTAP	25	192	6
NMTAP	25	216	4
NMTAP	25	240	6
NMTAP	25	264	4
NMTAP	25	288	6
NMTAP	25	336	3
NMTAP	25	336	7
NMTAP	26	0	6
NMTAP	26	48	7
NMTAP	26	96	6
NMTAP	26	96	7
NMTAP	26	144	0
NMTAP	26	192	1
NMTAP	26	216	3
NMTAP	26	240	1
NMTAP	26	264	3
NMTAP	26	288	1
NMTAP	26	336	0
NMTAP	26	336	4
NMTAP	27	0	1
NMTAP	27	48	0
NMTAP	27	96	0
NMTAP	27	96	1
NMTAP	27	144	7
NMTAP	27	192	6
NMTAP	27	216	4
NMTAP	27	240	6
NMTAP	27	264	4
NMTAP	27	288	6
NMTAP	27	336	3
NMTAP	27	336	7
NMTAP	28	0	0
NMTAP	28	0	1
NMTAP	28	48	2
NMTAP	28	96	6
NMTAP	28	96	7
NMTAP	28	144	5
NMTAP	28	192	1
NMTAP	28	192	6
NMTAP	28	240	3
NMTAP	28	264	4
BRTAP	28	288	2
BRTAP	28	288	5
NMTAP	29	0	3
NMSTR	29	0	4
NMSI_	29	0	4	96	48	6
NMTAP	29	48	3
NMTAP	29	96	2
NMTAP	29	144	1
NMTAP	29	192	7
NMTAP	29	216	2
NMTAP	29	240	0
NMTAP	29	264	1
NMTAP	29	288	7
NMTAP	29	336	4
NMTAP	29	336	5
NMSTR	30	0	3
NMSI_	30	0	3	96	48	1
NMTAP	30	48	4
NMTAP	30	96	5
NMTAP	30	144	6
NMTAP	30	192	0
NMTAP	30	216	5
NMTAP	30	240	7
NMTAP	30	264	6
NMTAP	30	288	0
NMTAP	30	336	2
NMTAP	30	336	3
NMSTR	31	0	4
NMSI_	31	0	4	96	48	6
NMTAP	31	48	3
NMTAP	31	96	2
NMTAP	31	144	1
NMTAP	31	192	7
NMTAP	31	216	2
NMTAP	31	240	0
NMTAP	31	264	1
NMTAP	31	288	7
NMTAP	31	336	4
NMTAP	31	336	5
NMTAP	32	0	6
NMHLD	32	48	6	48
NMHLD	32	96	4	48
NMHLD	32	144	3	48
NMTAP	32	192	1
NMTAP	32	240	7
NMHLD	32	264	7	48
NMTAP	32	312	1
NMTAP	32	336	2
NMTAP	32	360	3
BRTAP	33	0	4
BRSTR	33	0	5
NMSI_	33	0	5	96	48	7
NMTAP	33	48	3
NMTAP	33	96	1
NMTAP	33	144	2
NMSTR	33	192	0
NMSI_	33	192	0	96	48	4
NMTAP	33	216	3
NMTAP	33	240	0
NMTAP	33	264	3
NMTAP	33	288	0
NMTAP	33	336	1
BRSTR	34	0	2
NMSI_	34	0	2	96	48	0
BRTAP	34	0	3
NMTAP	34	48	4
NMTAP	34	96	6
NMTAP	34	144	5
NMSTR	34	192	7
NMSI_	34	192	7	96	48	3
NMTAP	34	216	4
NMTAP	34	240	7
NMTAP	34	264	4
NMTAP	34	288	7
NMTAP	34	336	6
BRTAP	35	0	4
BRSTR	35	0	5
NMSI_	35	0	5	96	48	7
NMTAP	35	48	3
NMTAP	35	96	1
NMTAP	35	144	2
BRSTR	35	192	0
NMSI_	35	192	0	96	48	4
NMTAP	35	216	3
NMTAP	35	240	0
NMTAP	35	264	3
NMTAP	35	288	0
NMTAP	35	336	1
BRTAP	36	0	2
BRTAP	36	0	3
NMTAP	36	48	1
BRTAP	36	96	4
BRTAP	36	96	5
NMTAP	36	144	6
BRTAP	36	192	2
BRTAP	36	192	5
NMTAP	36	240	0
NMTAP	36	264	7
BRTAP	36	288	1
BRTAP	36	288	6
NMSTR	37	0	1
NMSUR	37	0	1	96	96	5
NMTAP	37	96	0
NMTAP	37	144	0
NMSTR	37	192	7
NMSCL	37	192	7	96	72	4
NMTAP	37	288	2
NMHLD	37	336	2	96
NMTAP	38	48	3
NMTAP	38	96	4
NMHLD	38	144	5	96
NMTAP	38	240	1
NMSTR	38	288	1
NMSCR	38	288	1	96	96	5
NMSTR	39	0	5
NMSCR	39	0	5	96	96	1
NMTAP	39	96	1
NMTAP	39	192	5
NMTAP	39	240	4
NMTAP	39	288	3
NMHLD	39	336	2	96
NMSTR	40	48	3
NMSXR	40	48	3	96	144	4
NMTAP	40	96	4
NMTAP	40	144	3
NMTAP	40	144	5
NMHLD	40	288	7	96
NMSTR	41	0	1
NMSLR	41	0	1	96	96	5
NMTAP	41	96	7
NMTAP	41	144	7
NMSTR	41	192	0
NMSUL	41	192	0	96	72	4
NMTAP	41	288	2
NMHLD	41	336	2	96
NMTAP	42	48	3
NMTAP	42	96	4
NMHLD	42	144	5	96
NMTAP	42	240	7
NMSTR	42	288	7
NMSCR	42	288	7	96	96	2
NMSTR	43	0	2
NMSUL	43	0	2	96	96	6
NMSTR	43	96	6
NMSCL	43	96	6	96	96	3
NMTAP	43	192	3
NMTAP	43	288	7
NMHLD	43	336	7	96
NMTAP	44	48	3
NMHLD	44	96	3	96
NMTAP	44	192	1
NMTAP	44	216	0
NMTAP	44	240	7
NMTAP	44	264	6
BRTAP	44	288	1
BRTAP	44	288	5
NMTAP	45	0	4
NMSTR	45	0	6
NMSUL	45	0	6	96	96	2
NMTAP	45	96	7
NMTAP	45	144	7
NMSTR	45	192	0
NMSCR	45	192	0	96	72	3
NMTAP	45	288	5
NMHLD	45	336	5	96
NMTAP	46	48	4
NMTAP	46	96	3
NMHLD	46	144	2	96
NMTAP	46	240	6
NMSTR	46	288	6
NMSLL	46	288	6	96	96	2
NMSTR	47	0	2
NMSLL	47	0	2	96	96	6
NMTAP	47	96	6
NMTAP	47	192	2
NMTAP	47	240	3
NMTAP	47	288	4
NMHLD	47	336	5	96
NMSTR	48	48	4
NMSXL	48	48	4	96	144	3
NMTAP	48	96	3
NMTAP	48	144	2
NMTAP	48	144	4
NMHLD	48	288	0	96
NMSTR	49	0	6
NMSCL	49	0	6	96	96	2
NMTAP	49	96	0
NMTAP	49	144	0
NMSTR	49	192	7
NMSUR	49	192	7	96	72	3
NMTAP	49	288	5
NMHLD	49	336	5	96
NMTAP	50	48	4
NMTAP	50	96	3
NMHLD	50	144	2	96
NMTAP	50	240	0
NMSTR	50	288	0
NMSI_	50	288	0	96	48	4
NMTAP	50	336	7
NMTAP	51	0	0
NMSTR	51	0	6
NMSI_	51	0	6	96	48	1
NMSTR	51	96	3
NMSI_	51	96	3	96	48	7
NMTAP	51	96	6
NMTAP	51	192	0
NMTAP	51	192	3
NMTAP	51	288	1
NMTAP	51	288	6
NMTAP	51	336	2
NMTAP	51	336	5
NMTAP	52	0	1
NMTAP	52	24	3
NMTAP	52	48	2
NMTAP	52	72	4
NMHLD	52	96	3	48
NMTAP	52	144	6
NMTAP	52	168	4
NMTAP	52	192	5
NMTAP	52	216	3
NMHLD	52	240	4	48
BRTAP	52	288	0
NMTAP	53	0	1
NMSTR	53	0	6
NMSCR	53	0	6	96	288	6
EXHLD	53	144	0	0
CNSLR	54	0	6	0	288	2
EXHLD	54	132	1	0
CNSLR	54	288	2	0	672	6
EXHLD	55	96	2	0
EXHLD	56	72	3	0
BRSTR	56	288	1
NMSV_	56	288	1	96	96	7
BRTAP	56	288	6
EXHLD	57	48	4	0
CNSCR	57	96	7	0	480	7
EXHLD	58	0	5	0
BRTAP	58	288	1
BRTAP	58	288	6
NMHLD	59	0	3	72
NMHLD	59	72	4	72
NMTAP	59	144	5
NMHLD	59	192	5	72
NMHLD	59	264	6	72
NMTAP	59	336	7
BRTAP	60	0	0
BRHLD	60	0	5	288
NMTTP	60	96	0	C	0	M1
NMTTP	60	192	0	C	0	M1
NMTTP	60	288	0	C	0	M1
NMTTP	61	0	1	B	0	M1
NMTTP	61	0	1	A	0	M1
BRHLD	61	0	6	288
NMTTP	61	72	3	E	0	M1
NMTTP	61	144	4	A	0	M1
NMTTP	61	192	5	B	0	M1
NMTTP	61	192	5	A	0	M1
NMTTP	61	264	7	E	0	M1
NMTTP	61	336	0	A	0	M1
BXTAP	62	0	1
BXHLD	62	0	7	288
EXHLD	62	96	0	0
EXHLD	62	128	1	0
EXHLD	62	160	2	0
EXHLD	62	192	3	0
EXHLD	62	224	4	0
EXHLD	62	256	5	0
EXHLD	62	288	6	0
EXHLD	62	320	7	0
EXHLD	62	352	0	0
NMTAP	63	0	1
NMTAP	63	12	2
NMTAP	63	24	3
NMTAP	63	36	4
NMTAP	63	48	5
NMTAP	63	60	6
NMTAP	63	72	7
NMTAP	63	84	0
NMTAP	63	96	1
NMTAP	63	108	2
NMTAP	63	120	3
NMTAP	63	132	4
NMTAP	63	144	5
NMTAP	63	156	6
NMTAP	63	168	7
NMTAP	63	180	0
BXTAP	63	192	1
BXTAP	63	192	5
NMSTR	64	0	2
NMSI_	64	0	2	96	48	0
NMTAP	64	0	3
NMTAP	64	48	4
NMTAP	64	96	2
NMSTR	64	96	5
NMSLL	64	96	5	96	96	7
NMTAP	64	192	5
NMTAP	64	192	7
NMTAP	64	240	0
NMSTR	64	288	1
NMSI_	64	288	1	96	48	5
NMTAP	64	336	1
NMTAP	65	0	0
NMTAP	65	48	7
EXSTR	65	96	3
NMSI_	65	96	3	96	48	7
EXSTR	65	96	6
NMSI_	65	96	6	96	48	4
EXTAP	65	192	3
EXTAP	65	192	6
NMTAP	65	288	0
NMTAP	65	336	1
NMTAP	66	0	2
NMSTR	66	0	7
NMSI_	66	0	7	96	48	5
NMTAP	66	48	3
NMSTR	66	96	2
NMSLL	66	96	2	96	96	4
NMTAP	66	96	7
NMTAP	66	192	2
NMTAP	66	192	4
NMTAP	66	240	5
NMSTR	66	288	6
NMSI_	66	288	6	96	48	2
NMTAP	66	336	7
NMSTR	67	0	4
NMSI_	67	0	4	96	48	0
NMTAP	67	48	3
NMSTR	67	96	7
NMSI_	67	96	7	96	48	2
NMSI_	67	96	7	96	48	4
NMTAP	67	144	6
BRTAP	67	192	7
EXTAP	67	288	1
EXTAP	67	288	5
NMSTR	68	0	0
NMSI_	68	0	0	96	48	2
NMTAP	68	0	7
NMTAP	68	48	6
NMTAP	68	96	0
NMSTR	68	96	5
NMSLR	68	96	5	96	96	3
NMTAP	68	192	3
NMTAP	68	192	5
NMTAP	68	240	2
NMSTR	68	288	1
NMSI_	68	288	1	96	48	5
NMTAP	68	336	0
NMSTR	69	0	3
NMSI_	69	0	3	96	48	7
NMTAP	69	48	4
NMSTR	69	96	0
NMSI_	69	96	0	96	48	3
NMSI_	69	96	0	96	48	5
NMTAP	69	144	1
BRTAP	69	192	0
NMTAP	69	288	1
NMTAP	69	336	2
NMSTR	70	0	3
NMSI_	70	0	3	96	48	0
NMTAP	70	0	6
NMTAP	70	48	5
NMTAP	70	96	3
NMTAP	70	96	4
NMTAP	70	192	1
NMTAP	70	192	5
NMSTR	70	240	1
BRSI_	70	240	1	96	48	4
NMSTR	70	240	5
NMSI_	70	240	5	96	48	0
NMTAP	70	288	0
NMTAP	70	288	4
NMTAP	70	336	1
NMTAP	70	336	5
CNSI_	71	0	0	0	48	6
CNSI_	71	0	4	0	48	2
CNSI_	71	48	2	0	48	7
CNSI_	71	48	6	0	48	3
EXSTR	71	192	0
BRSI_	71	192	0	96	48	4
EXSTR	71	192	4
NMSI_	71	192	4	96	48	0
EXTAP	71	216	1
EXTAP	71	216	5
EXTAP	71	240	2
EXTAP	71	240	6
EXTAP	71	264	3
EXTAP	71	264	7
BXTAP	71	288	0
BXTAP	71	288	4
EXSTR	72	0	2
NMSI_	72	0	2	96	36	4
EXSTR	72	0	6
NMSI_	72	0	6	96	36	4
NMTAP	72	48	1
NMTAP	72	48	7
NMSTR	72	96	2
NMSI_	72	96	2	96	48	6
NMTAP	72	96	6
NMTAP	72	192	6
NMTAP	72	240	5
CNSI_	72	240	6	0	48	0
NMSTR	72	288	4
NMSI_	72	288	4	96	48	0
NMTAP	72	336	4
NMSTR	73	0	7
BRSI_	73	0	7	96	48	4
BRSI_	73	0	7	96	48	5
BRSTR	73	96	7
BRSI_	73	96	7	96	48	1
BRSI_	73	96	7	96	48	2
BRTAP	73	192	7
NMTAP	73	288	3
NMTAP	73	336	2
NMTAP	73	336	4
NMSTR	74	0	1
NMSI_	74	0	1	96	36	3
NMSTR	74	0	5
NMSI_	74	0	5	96	36	3
NMTAP	74	48	0
NMTAP	74	48	6
NMTAP	74	96	1
NMSTR	74	96	5
NMSI_	74	96	5	96	48	1
NMTAP	74	192	1
CNSI_	74	240	1	0	48	7
NMTAP	74	240	2
NMSTR	74	288	3
NMSI_	74	288	3	96	36	7
NMSTR	74	336	4
NMSI_	74	336	4	96	36	6
EXSTR	75	0	3
NMSI_	75	0	3	96	36	1
EXSTR	75	48	4
NMSI_	75	48	4	96	36	0
EXTAP	75	96	3
EXTAP	75	144	4
EXTAP	75	192	1
NMTAP	75	204	2
NMTAP	75	216	3
NMTAP	75	228	4
NMTAP	75	240	5
NMTAP	75	252	6
NMTAP	75	264	7
NMTAP	75	276	0
BXTAP	75	288	1
BXTAP	75	288	5
NMSTR	76	0	2
NMSI_	76	0	2	96	36	4
NMSTR	76	0	6
NMSI_	76	0	6	96	36	4
NMTAP	76	48	1
NMTAP	76	48	7
NMSTR	76	96	2
NMSI_	76	96	2	96	48	6
NMTAP	76	96	6
NMTAP	76	192	6
NMTAP	76	240	5
CNSI_	76	240	6	0	48	0
NMSTR	76	288	4
NMSI_	76	288	4	96	36	0
NMSTR	76	336	3
NMSI_	76	336	3	96	36	1
EXSTR	77	0	4
NMSI_	77	0	4	96	36	6
EXSTR	77	48	3
NMSI_	77	48	3	96	36	7
EXSTR	77	96	4
BRSSL	77	96	4	96	60	0
EXTAP	77	144	3
BXTAP	77	192	4
NMTAP	77	288	1
NMTAP	77	336	2
NMSTR	78	0	3
NMSI_	78	0	3	96	48	7
NMSTR	78	0	6
NMSI_	78	0	6	96	48	4
NMTAP	78	48	7
EXTAP	78	96	3
EXTAP	78	96	6
NMSTR	78	192	1
NMSI_	78	192	1	96	36	7
NMSTR	78	240	6
NMSI_	78	240	6	96	36	2
EXTAP	78	288	1
EXTAP	78	336	6
BXTAP	79	0	7
NMTAP	79	24	3
NMTAP	79	48	7
NMTAP	79	72	3
BXTAP	79	96	0
NMTAP	79	120	4
NMTAP	79	144	0
NMTAP	79	168	4
BRSTR	79	192	1
NMSI_	79	192	1	96	36	4
BRSTR	79	192	5
NMSV_	79	192	5	96	36	0
BRSTR	79	288	1
NMSCL	79	288	1	96	192	4
BRTAP	79	288	5
BRTAP	80	0	1
NMHLD	80	0	3	144
NMTAP	80	240	2
NMTAP	80	336	1
NMHLD	81	0	1	96
NMHLD	81	96	3	96
NMHLD	81	192	4	96
NMTAP	81	288	6
NMSTR	81	336	6
NMSCR	81	336	6	96	336	2
NMHLD	82	48	4	480
CNSUL	83	0	2	0	144	5
NMTAP	83	240	4
NMTAP	83	240	5
NMTAP	83	312	3
NMTAP	83	312	4
BRHLD	84	0	2	144
BRHLD	84	0	3	144
NMTAP	84	240	1
NMTAP	84	240	3
NMTAP	84	312	2
NMTAP	84	312	5
BRHLD	85	0	4	96
BRHLD	85	0	6	96
BRHLD	85	192	1	96
BRHLD	85	192	3	96
BRSTR	86	0	6
NMSI_	86	0	6	96	48	3
BRTAP	86	0	7
NMTAP	86	48	0
NMTAP	86	96	1
NMTAP	86	96	6
NMTAP	86	144	2
NMTAP	86	192	1
NMTAP	86	216	4
NMTAP	86	240	0
NMTAP	86	264	5
NMTAP	86	288	7
NMTAP	86	336	0
NMTAP	86	336	6
BRSTR	87	0	1
NMSCR	87	0	1	96	48	4
BRTAP	87	0	7
NMTAP	87	48	6
NMTAP	87	96	1
NMTAP	87	96	5
NMTAP	87	144	5
NMTAP	87	192	6
NMTAP	87	216	3
NMTAP	87	240	7
NMTAP	87	264	2
NMTAP	87	288	0
NMTAP	87	336	1
NMTAP	87	336	7
BRTAP	88	0	0
BRSTR	88	0	6
NMSV_	88	0	6	96	48	3
NMTAP	88	48	1
NMTAP	88	96	2
NMTAP	88	96	6
NMTAP	88	144	2
NMTAP	88	192	1
NMTAP	88	216	4
NMTAP	88	240	0
NMTAP	88	264	5
NMTAP	88	288	7
NMTAP	88	336	0
NMTAP	88	336	6
NMTAP	89	0	1
NMTAP	89	48	0
NMTAP	89	48	1
NMTAP	89	96	0
NMTAP	89	96	1
NMTAP	89	144	6
NMTAP	89	144	7
NMTAP	89	192	6
NMTAP	89	192	7
NMTAP	89	240	0
NMHLD	89	264	0	48
NMTAP	89	312	6
NMTAP	89	336	5
NMTAP	89	360	4
BRSTR	90	0	2
NMSI_	90	0	2	96	48	7
BRTAP	90	0	3
NMTAP	90	48	4
NMTAP	90	96	2
NMTAP	90	96	5
NMTAP	90	144	6
NMTAP	90	192	6
NMTAP	90	216	7
NMTAP	90	240	5
NMTAP	90	264	0
NMTAP	90	288	4
NMTAP	90	336	1
NMTAP	90	336	3
BRTAP	91	0	4
BRSTR	91	0	5
NMSCR	91	0	5	96	48	0
NMTAP	91	48	3
NMTAP	91	96	2
NMTAP	91	96	5
NMTAP	91	144	1
NMTAP	91	192	1
NMTAP	91	216	0
NMTAP	91	240	2
NMTAP	91	264	7
NMTAP	91	288	3
NMTAP	91	336	4
NMTAP	91	336	6
BRSTR	92	0	2
NMSV_	92	0	2	96	48	7
BRTAP	92	0	3
NMTAP	92	48	4
NMTAP	92	96	2
NMTAP	92	96	5
NMTAP	92	144	6
NMTAP	92	192	6
NMTAP	92	216	7
NMTAP	92	240	5
NMTAP	92	264	0
NMTAP	92	288	4
NMTAP	92	336	1
NMTAP	92	336	3
NMTAP	93	0	2
NMTAP	93	48	2
NMTAP	93	48	3
NMTAP	93	96	5
NMTAP	93	144	4
NMTAP	93	144	5
NMTAP	93	192	1
NMTAP	93	192	6
NMTAP	93	240	0
NMTAP	93	264	0
BXTAP	93	288	1
BXSTR	93	288	7
NMSI_	93	288	7	96	48	5
NMHLD	94	0	2	48
NMSTR	94	0	7
NMSI_	94	0	7	96	48	3
NMHLD	94	96	2	48
NMSTR	94	96	7
NMSI_	94	96	7	96	48	4
NMHLD	94	192	2	48
NMSTR	94	192	7
NMSI_	94	192	7	96	48	1
NMHLD	94	288	2	48
NMSTR	94	288	7
NMSCL	94	288	7	96	48	5
NMHLD	95	0	2	48
NMSTR	95	0	7
NMSUR	95	0	7	96	48	3
NMHLD	95	96	2	48
NMSTR	95	96	7
NMSV_	95	96	7	96	48	4
NMHLD	95	192	2	48
NMSTR	95	192	7
NMSCR	95	192	7	96	48	1
NMHLD	95	288	2	48
NMTAP	95	288	7
NMHLD	96	0	2	48
EXTAP	96	0	7
NMTTP	96	6	7	D	0	M1
NMTTP	96	12	6	A	0	M1
NMTTP	96	18	6	D	0	M1
NMTTP	96	24	5	A	0	M1
NMHLD	96	96	2	48
EXTAP	96	96	7
NMTTP	96	102	0	D	0	M1
NMTTP	96	108	0	A	0	M1
NMTTP	96	114	1	D	0	M1
NMTTP	96	120	1	A	0	M1
NMHLD	96	192	2	48
EXTAP	96	192	7
NMTTP	96	198	7	E	0	M1
NMTTP	96	204	6	B	0	M1
NMTTP	96	210	5	B	0	M1
NMTTP	96	216	5	E	0	M1
EXSTR	96	288	2
NMSCL	96	288	2	96	48	7
EXSTR	96	288	7
NMSCL	96	288	7	96	48	4
NMTTP	96	294	0	E	0	M1
NMTTP	96	300	0	B	0	M1
NMTTP	96	306	1	B	0	M1
NMTTP	96	312	2	E	0	M1
BXTAP	97	0	2
BXSTR	97	0	7
NMSI_	97	0	7	96	48	3
BXSTR	97	96	4
BRSXL	97	96	4	96	96	3
BXTAP	97	96	7
BXTAP	97	192	1
BXTAP	97	192	4
BXSTR	97	288	0
NMSI_	97	288	0	96	48	2
NMSTR	98	0	0
NMSI_	98	0	0	96	48	4
NMHLD	98	0	5	48
NMSTR	98	96	0
BRSI_	98	96	0	96	48	3
NMHLD	98	96	5	48
NMSTR	98	192	0
BRSI_	98	192	0	96	48	6
NMHLD	98	192	5	48
NMSTR	98	288	0
NMSCR	98	288	0	96	48	2
NMHLD	98	288	5	48
NMSTR	99	0	0
NMSUL	99	0	0	96	48	4
NMHLD	99	0	5	48
NMSTR	99	96	0
BRSV_	99	96	0	96	48	3
NMHLD	99	96	5	48
NMSTR	99	192	0
BRSCL	99	192	0	96	48	6
NMHLD	99	192	5	48
NMTAP	99	288	0
NMHLD	99	288	5	48
EXTAP	100	0	0
NMHLD	100	0	5	48
NMTTP	100	6	1	D	0	M1
NMTTP	100	12	1	A	0	M1
NMTTP	100	18	2	D	0	M1
NMTTP	100	24	2	A	0	M1
EXTAP	100	96	0
NMHLD	100	96	5	48
NMTTP	100	102	0	D	0	M1
NMTTP	100	108	7	A	0	M1
NMTTP	100	114	7	D	0	M1
NMTTP	100	120	6	A	0	M1
EXTAP	100	192	0
NMHLD	100	192	5	48
NMTTP	100	198	0	B	0	M1
NMTTP	100	204	0	C	0	M1
NMTTP	100	210	4	B	0	M1
NMTTP	100	216	4	A	0	M1
EXTAP	100	288	0
EXTAP	100	288	5
BRTAP	101	0	2
BRTAP	101	0	7
NMTAP	101	48	1
NMTAP	101	72	1
NMTAP	101	96	0
NMTAP	101	144	2
NMTAP	101	144	7
BRTAP	101	192	0
BRTAP	101	192	5
NMTAP	101	240	6
NMTAP	101	264	6
NMTAP	101	288	7
NMTAP	101	336	1
NMTAP	101	336	6
BXTAP	102	0	0
BXTAP	102	0	7
EXTAP	102	12	1
EXTAP	102	12	6
EXTAP	102	24	2
EXTAP	102	24	5
EXTAP	102	36	3
EXTAP	102	36	4
NMTAP	102	192	4
NMTAP	102	192	6
NMTAP	102	240	5
NMTAP	102	264	5
NMTAP	102	288	0
NMTAP	102	312	1
NMTAP	102	336	2
NMTAP	102	360	3
NMTAP	103	0	4
NMTAP	103	24	6
NMTAP	103	48	4
NMTAP	103	72	6
NMTAP	103	96	3
NMTAP	103	120	6
NMTAP	103	144	2
NMTAP	103	168	6
NMTAP	103	192	1
NMTAP	103	216	6
NMTAP	103	240	0
NMTAP	103	264	6
NMTAP	103	288	7
NMTAP	103	312	6
NMTAP	103	336	7
NMTAP	103	360	6
NMHLD	104	0	7	48
NMTAP	104	48	5
NMTAP	104	72	5
NMTAP	104	96	0
NMTAP	104	120	1
NMTAP	104	144	2
NMTAP	104	168	3
NMTAP	104	192	0
NMTAP	104	216	7
NMTAP	104	240	6
NMTAP	104	264	5
NMSTR	104	288	3
NMSI_	104	288	3	96	48	7
NMTAP	104	288	4
NMTAP	104	336	5
NMSTR	105	0	6
NMSI_	105	0	6	96	48	4
NMTAP	105	48	6
NMSTR	105	96	1
NMSI_	105	96	1	96	48	3
NMTAP	105	144	1
NMSTR	105	192	0
NMSI_	105	192	0	96	48	4
NMTAP	105	240	0
NMSTR	105	288	2
BRSCL	105	288	2	96	96	4
NMTAP	105	336	2
BXTAP	106	0	2
NMHLD	106	0	7	96
NMTAP	106	144	6
NMTAP	106	168	5
NMHLD	106	192	4	48
NMTAP	106	240	0
NMTAP	106	264	7
NMHLD	106	288	6	48
NMTAP	106	336	2
NMTAP	106	360	1
NMHLD	107	0	0	48
NMHLD	107	48	3	48
NMHLD	107	96	6	48
NMHLD	107	144	1	48
NMHLD	107	192	4	48
NMHLD	107	240	7	48
NMSTR	107	288	3
NMSI_	107	288	3	96	48	6
NMTAP	107	336	3
NMTAP	108	0	1
NMTAP	108	48	0
CNSI_	108	48	6	0	48	4
NMSTR	108	96	7
NMSI_	108	96	7	96	48	2
NMTAP	108	144	7
NMTAP	108	192	5
CNSI_	108	240	2	0	48	0
NMTAP	108	240	4
NMSTR	108	288	3
BRSI_	108	288	3	96	48	7
NMTAP	108	336	3
BRSTR	109	0	1
NMSI_	109	0	1	96	48	4
BRTAP	109	0	3
NMTAP	109	48	0
BRTAP	109	96	1
BRSTR	109	96	6
BRSI_	109	96	6	96	48	2
NMTAP	109	144	5
BRSTR	109	192	0
NMSI_	109	192	0	96	48	4
BRTAP	109	192	6
NMTAP	109	240	7
BRSTR	109	288	0
BRSCL	109	288	0	96	42	5
BRSCR	109	288	0	96	42	3
BRTAP	110	0	0
NMTTP	110	9	1	A	0	M1
NMTTP	110	9	7	A	0	M1
NMTTP	110	15	2	D	0	M1
NMTTP	110	15	7	D	0	M1
NMTTP	110	21	2	A	0	M1
NMTTP	110	21	6	A	0	M1
NMTTP	110	27	3	D	0	M1
NMTTP	110	27	6	D	0	M1
NMTTP	110	33	3	A	0	M1
NMTTP	110	33	5	A	0	M1

T_REC_TAP	529
T_REC_BRK	51
T_REC_XTP	32
T_REC_BXX	18
T_REC_HLD	66
T_REC_XHO	15
T_REC_BHO	8
T_REC_BXH	1
T_REC_STR	86
T_REC_BST	21
T_REC_XST	13
T_REC_XBS	4
T_REC_TTP	50
T_REC_THO	0
T_REC_SLD	111
T_REC_BSL	18
T_REC_ALL	1023
T_NUM_TAP	710
T_NUM_BRK	121
T_NUM_HLD	81
T_NUM_SLD	111
T_NUM_ALL	1023
T_JUDGE_TAP	804
T_JUDGE_HLD	146
T_JUDGE_SLD	129
T_JUDGE_ALL	1079
TTM_EACHPAIRS	169
TTM_SCR_TAP	355000
TTM_SCR_BRK	314600
TTM_SCR_HLD	81000
TTM_SCR_SLD	166500
TTM_SCR_ALL	917100
TTM_SCR_S	877850
TTM_SCR_SS	905000
TTM_RAT_ACV	10133

