VERSION	0.00.00	1.04.00
FES_MODE	0
BPM_DEF	186.000	186.000	186.000	186.000
MET_DEF	4	4
RESOLUTION	384
CLK_DEF	384
COMPATIBLE_CODE	MA2

BPM	0	0	186.000
MET	0	0	4	4

NMTAP	5	0	2
NMHLD	5	0	3	384
NMHLD	6	0	4	192
NMTAP	6	192	5
NMTAP	6	288	4
NMTAP	6	288	5
NMHLD	7	0	4	384
NMTAP	7	0	5
NMHLD	8	0	3	192
NMTAP	8	192	2
NMTAP	8	288	2
NMTAP	8	288	3
NMHLD	9	0	2	576
NMTAP	9	0	3
NMTTP	10	0	2	B	0	M1
NMTTP	10	0	3	B	0	M1
NMTAP	10	192	4
NMTAP	10	288	2
NMTAP	10	288	4
NMTAP	11	0	3
NMHLD	11	0	5	384
NMHLD	12	0	4	192
NMTAP	12	192	5
NMTAP	12	288	4
NMTAP	12	288	6
NMTAP	13	0	4
NMSTR	13	0	7
NMSCL	13	0	7	96	288	4
NMSTR	14	0	3
NMSCL	14	0	3	96	288	0
NMSTR	15	0	6
NMSCL	15	0	6	96	288	3
NMSTR	16	0	2
NMSCL	16	0	2	96	288	7
NMHLD	17	0	6	192
NMHLD	17	192	5	192
NMHLD	18	0	4	192
NMHLD	18	192	3	192
NMHLD	19	0	2	192
NMHLD	19	192	1	192
NMTAP	20	0	0
NMTAP	20	96	0
NMTAP	20	96	1
NMTAP	20	192	0
NMTAP	20	192	7
NMTAP	20	288	1
NMTAP	20	288	6
NMTAP	21	0	2
NMTAP	21	48	2
NMTAP	21	96	3
NMTAP	21	192	0
NMTAP	21	192	1
NMTAP	21	288	6
NMTAP	21	288	7
NMTAP	22	0	5
NMTAP	22	48	5
NMTAP	22	96	4
NMTAP	22	192	6
NMTAP	22	192	7
NMTAP	22	288	0
NMTAP	22	288	1
NMTAP	23	0	2
NMTAP	23	48	2
NMTAP	23	96	3
NMTAP	23	192	4
NMTAP	23	192	5
NMTAP	23	288	3
NMTAP	23	288	6
NMHLD	24	0	1	96
NMHLD	24	96	3	96
NMHLD	24	192	4	96
NMTAP	24	288	6
NMTAP	25	0	5
NMTAP	25	48	5
NMTAP	25	96	4
NMTAP	25	192	2
NMTAP	25	192	3
NMTAP	25	288	0
NMTAP	25	288	1
NMTAP	26	0	2
NMTAP	26	48	2
NMTAP	26	96	3
NMTAP	26	192	4
NMTAP	26	192	5
NMTAP	26	288	6
NMTAP	26	288	7
NMTAP	27	0	5
NMTAP	27	48	5
NMTAP	27	96	4
NMTAP	27	192	3
NMTAP	27	192	6
NMTAP	27	288	1
NMTAP	27	288	4
NMTAP	28	0	2
NMTAP	28	0	3
NMSTR	28	96	0
NMSI_	28	96	0	96	96	4
NMSTR	28	96	1
NMSI_	28	96	1	96	96	5
BXTAP	29	0	7
NMTAP	29	48	7
NMTAP	29	96	7
NMTAP	29	192	3
NMTAP	29	192	5
NMTAP	29	288	2
NMTAP	29	288	3
NMTAP	30	0	1
NMTAP	30	48	1
NMTAP	30	96	1
NMTAP	30	192	3
NMTAP	30	192	5
NMTAP	30	288	5
NMTAP	30	288	6
NMTAP	31	0	7
NMTAP	31	48	7
NMTAP	31	96	7
NMTAP	31	192	0
NMTAP	31	192	1
NMTAP	31	288	1
NMTAP	31	288	3
NMTAP	32	0	3
NMHLD	32	0	5	96
NMHLD	32	96	7	96
NMHLD	32	192	1	96
NMTAP	32	288	3
NMTAP	33	0	2
NMTAP	33	48	2
NMTAP	33	96	3
NMTAP	33	192	0
NMTAP	33	192	5
NMTAP	33	288	2
NMTAP	33	288	7
NMTAP	34	0	1
NMTAP	34	48	1
NMTAP	34	96	0
NMTAP	34	192	3
NMTAP	34	192	6
NMTAP	34	288	1
NMTAP	34	288	4
NMHLD	35	0	2	96
NMTAP	35	96	3
NMHLD	35	192	5	96
NMTAP	35	288	4
NMTAP	36	0	0
NMTAP	36	0	7
NMSTR	36	96	1
NMSI_	36	96	1	96	48	4
NMSTR	36	96	6
NMSI_	36	96	6	96	48	3
NMHLD	37	0	4	96
NMHLD	37	0	5	96
NMTAP	37	192	3
NMTAP	37	240	3
NMTAP	37	336	2
NMTAP	37	336	4
NMTAP	38	48	1
NMTAP	38	96	0
NMTAP	38	144	1
NMTAP	38	240	2
NMTAP	38	240	7
NMTAP	38	288	2
NMTAP	38	288	7
NMHLD	39	0	6	96
NMHLD	39	96	4	96
NMTAP	39	192	5
NMTAP	39	240	5
NMTAP	39	336	4
NMTAP	39	336	6
NMTAP	40	48	2
NMTAP	40	96	3
NMTAP	40	144	2
NMTAP	40	240	1
NMTAP	40	240	4
NMTAP	40	288	1
NMTAP	40	288	4
NMHLD	41	0	3	96
NMHLD	41	0	6	96
NMTAP	41	192	4
NMTAP	41	240	4
NMTAP	41	336	3
NMTAP	41	336	5
NMTAP	42	48	6
NMTAP	42	96	7
NMTAP	42	144	6
NMTAP	42	240	0
NMTAP	42	240	5
NMTAP	42	288	0
NMTAP	42	288	5
NMHLD	43	0	1	96
NMHLD	43	96	2	96
NMTAP	43	192	3
NMTAP	43	288	2
NMTAP	43	288	4
NMTAP	43	336	2
NMTAP	43	336	4
NMTAP	44	48	3
NMTAP	44	48	5
NMSTR	44	96	3
NMSUL	44	96	3	96	96	7
NMTAP	44	96	5
NMTAP	45	0	6
NMTAP	45	96	6
NMTAP	45	96	7
NMTAP	45	192	5
NMTAP	45	240	5
NMTAP	45	288	4
NMHLD	45	336	6	96
NMTAP	46	48	7
NMHLD	46	144	1	96
NMTAP	46	240	3
NMTAP	46	288	3
NMTAP	47	0	2
NMTAP	47	0	3
NMTAP	47	96	2
NMTAP	47	96	3
NMTAP	47	192	1
NMTAP	47	240	1
NMTAP	47	288	0
NMHLD	47	336	2	96
NMSTR	48	48	3
NMSUR	48	48	3	96	96	0
NMTAP	49	0	1
NMTAP	49	96	0
NMTAP	49	96	1
NMTAP	49	192	2
NMTAP	49	240	2
NMTAP	49	288	3
NMHLD	49	336	1	96
NMTAP	50	48	0
NMTAP	50	96	7
NMHLD	50	144	6	96
NMTAP	50	240	4
NMTAP	50	288	4
NMTAP	51	0	4
NMTAP	51	0	5
NMTAP	51	96	6
NMTAP	51	96	7
NMTAP	51	192	0
NMTAP	51	192	1
NMTAP	51	288	3
NMTAP	51	336	3
NMTAP	52	48	2
NMTAP	52	48	4
BRTAP	52	144	0
BRTAP	52	144	6
NMTAP	52	288	0
NMTAP	52	288	7
NMSTR	53	0	6
NMSV_	53	0	6	96	96	3
NMHLD	54	0	2	192
NMTTP	54	96	3	E	0	M1
NMTTP	54	192	0	C	0	M1
NMTTP	54	288	0	E	0	M1
NMSTR	55	0	1
NMSV_	55	0	1	96	96	4
NMHLD	56	0	5	192
NMTTP	56	96	5	E	0	M1
NMTTP	56	192	0	C	0	M1
NMTTP	56	288	0	E	0	M1
EXSTR	57	0	6
NMSCL	57	0	6	96	96	3
NMSTR	57	192	2
NMSCL	57	192	2	96	96	7
NMTTP	58	0	7	E	0	M1
NMTTP	58	96	0	C	0	M1
NMTTP	58	192	3	E	0	M1
NMTTP	58	288	2	E	0	M1
NMTTP	58	288	4	E	0	M1
NMTTP	59	0	1	E	0	M1
NMTTP	59	96	0	C	0	M1
NMTTP	59	192	5	E	0	M1
EXTAP	59	288	6
EXTAP	59	336	6
EXSTR	60	0	6
NMSI_	60	0	6	96	96	3
NMSTR	60	192	1
NMSI_	60	192	1	96	96	4
NMSTR	61	0	7
NMSI_	61	0	7	96	96	3
NMSTR	61	192	0
NMSI_	61	192	0	96	96	4
NMSTR	62	0	7
NMSCL	62	0	7	96	288	0
NMTHO	63	0	0	192	C	1	M1
NMTAP	64	0	0
NMTAP	64	0	7
NMTAP	64	48	0
NMTAP	64	48	7
NMTAP	64	96	1
NMTAP	64	96	6
NMTAP	64	192	4
NMTAP	64	192	5
NMTAP	64	288	2
NMTAP	64	288	3
NMTAP	64	336	2
NMTAP	64	336	3
NMTAP	65	0	1
NMTAP	65	0	4
NMSTR	65	96	0
NMSUR	65	96	0	96	96	5
NMSTR	65	96	1
NMSCR	65	96	1	96	96	4
NMTAP	66	0	6
NMTAP	66	0	7
NMTAP	66	48	6
NMTAP	66	48	7
NMTAP	66	96	0
NMTAP	66	96	5
NMTAP	66	192	2
NMTAP	66	192	3
NMTAP	66	288	0
NMTAP	66	288	1
NMTAP	66	336	0
NMTAP	66	336	1
NMTAP	67	0	2
NMTAP	67	0	7
NMTAP	67	48	2
NMTAP	67	48	7
NMTAP	67	96	3
NMTAP	67	96	6
NMTAP	67	144	3
NMTAP	67	144	6
BRTAP	67	192	4
BRTAP	67	192	5
NMTAP	67	288	3
NMTAP	67	288	6
NMTAP	68	0	2
NMTAP	68	0	3
NMTAP	68	48	2
NMTAP	68	48	3
NMTAP	68	96	1
NMTAP	68	96	4
NMTAP	68	192	6
NMTAP	68	192	7
NMTAP	68	288	0
NMTAP	68	288	1
NMTAP	68	336	0
NMTAP	68	336	1
NMTAP	69	0	0
NMTAP	69	0	1
NMSTR	69	96	2
NMSCL	69	96	2	96	96	7
NMSTR	69	96	3
NMSCR	69	96	3	96	96	6
NMTAP	70	0	0
NMTAP	70	0	5
NMTAP	70	96	2
NMTAP	70	96	3
NMTAP	70	192	4
NMTAP	70	192	5
NMTAP	70	288	0
NMTAP	70	288	7
BRTAP	71	0	1
BRTAP	71	0	2
BRTAP	71	96	5
BRTAP	71	96	6
BRTAP	71	192	3
BRTAP	71	192	4
BRTAP	71	288	0
BRTAP	71	288	7
NMSTR	72	0	0
NMSI_	72	0	0	96	48	5
NMSTR	72	0	1
NMSI_	72	0	1	96	48	4
NMTAP	72	192	3
NMTAP	72	192	6
NMTAP	72	288	6
NMTAP	72	288	7
NMTAP	72	336	6
NMTAP	72	336	7
NMTAP	73	0	0
NMTAP	73	0	5
NMSTR	73	96	2
NMSI_	73	96	2	96	48	7
NMSTR	73	96	3
NMSI_	73	96	3	96	48	6
NMSTR	74	0	0
NMSCL	74	0	0	96	48	5
NMSTR	74	0	1
NMSCR	74	0	1	96	48	4
EXTAP	74	192	3
EXTAP	74	192	6
NMTAP	74	288	6
NMTAP	74	288	7
NMTAP	74	336	6
NMTAP	74	336	7
BRTAP	75	0	0
BRTAP	75	0	5
NMTAP	75	48	0
NMTAP	75	48	5
NMTAP	75	96	1
NMTAP	75	96	4
NMTAP	75	144	1
NMTAP	75	144	4
BRTAP	75	192	2
BRTAP	75	192	3
NMTAP	75	288	3
NMTAP	75	288	4
NMSTR	76	0	6
NMSI_	76	0	6	96	48	3
NMSTR	76	0	7
NMSI_	76	0	7	96	48	2
NMTAP	76	192	0
NMTAP	76	192	4
EXTAP	76	288	2
EXTAP	76	288	3
EXTAP	76	336	2
EXTAP	76	336	3
BRTAP	77	0	1
BRTAP	77	0	4
NMSTR	77	96	2
NMSCL	77	96	2	96	96	7
NMSTR	77	96	6
NMSCL	77	96	6	96	96	3
EXTAP	78	0	3
EXTAP	78	0	7
NMTAP	78	96	5
NMTAP	78	144	5
NMTAP	78	192	4
NMTAP	78	192	6
NMTAP	78	288	1
BRTAP	78	336	0
BRTAP	78	336	1
NMTAP	79	48	6
NMTAP	79	96	6
NMTAP	79	96	7
NMTAP	79	192	3
NMTAP	79	192	4
NMSTR	79	288	2
NMSCL	79	288	2	96	384	5
NMTAP	79	288	5
NMTTP	80	0	0	C	1	M1
NMTAP	81	192	3
NMSTR	81	192	4
NMSCR	81	192	4	96	384	3
NMTHO	83	0	0	192	C	0	M1
EXSTR	84	0	0
NMSCR	84	0	0	96	96	3
EXTAP	84	0	7
NMSTR	84	192	5
NMSCR	84	192	5	96	96	0
NMHLD	85	0	2	192
NMTAP	85	192	3
NMTAP	85	288	3
NMTAP	85	288	4
BRTAP	86	0	2
BRTAP	86	0	7
NMTAP	86	96	0
NMTAP	86	96	5
NMTAP	86	192	6
NMTAP	86	240	6
NMTAP	86	288	7
NMTAP	87	0	4
NMTAP	87	0	5
NMTAP	87	96	2
NMTAP	87	96	3
NMTAP	87	192	1
NMTAP	87	240	1
NMTAP	87	288	0
NMTAP	88	0	2
NMTAP	88	0	7
NMTAP	88	96	0
NMTAP	88	96	5
NMTAP	88	192	6
NMTAP	88	240	6
NMTAP	88	288	7
NMTAP	89	0	0
NMSTR	89	0	5
NMSCL	89	0	5	96	96	2
NMSTR	89	192	1
NMSCL	89	192	1	96	96	6
BRTAP	90	0	4
NMTAP	90	96	3
NMTAP	90	96	5
NMTAP	90	192	1
NMTAP	90	240	1
NMTAP	90	288	3
NMTAP	91	0	7
NMTAP	91	96	0
NMTAP	91	96	5
NMTAP	91	192	6
NMTAP	91	240	6
NMTAP	91	288	4
BRTAP	92	0	3
BRTAP	92	0	4
NMTAP	92	96	1
NMTAP	92	96	3
BRTAP	92	192	0
BRTAP	92	192	7
NMTAP	92	288	1
NMTAP	92	288	6
NMTAP	93	0	0
NMTAP	93	48	0
NMTAP	93	96	7
NMTAP	93	144	7
NMSTR	93	192	0
BRSI_	93	192	0	96	48	4
BRTAP	94	0	3
BRTAP	94	0	5
NMTAP	94	96	6
NMTAP	94	144	7
NMTAP	94	192	0
NMTAP	94	288	0
NMTAP	94	288	1
NMSTR	95	0	0
NMSI_	95	0	0	96	48	4
NMSTR	95	0	1
NMSI_	95	0	1	96	48	4
NMSTR	95	192	6
NMSI_	95	192	6	96	48	3
NMSTR	95	192	7
NMSI_	95	192	7	96	48	3
NMTAP	96	0	2
NMTAP	96	0	4
NMTAP	96	96	0
NMTAP	96	144	1
NMTAP	96	192	2
NMTAP	96	288	4
NMHLD	96	288	6	96
NMSTR	97	0	7
NMSI_	97	0	7	96	48	2
NMSI_	97	0	7	96	48	4
EXTAP	97	192	1
EXTAP	97	192	5
EXTAP	97	288	2
EXTAP	97	288	4
BRTAP	98	0	0
BRTAP	98	0	6
NMTAP	98	96	2
NMTAP	98	144	3
NMTAP	98	192	4
NMTAP	98	288	6
NMTAP	98	288	7
NMSTR	99	0	6
NMSI_	99	0	6	96	48	3
NMSTR	99	0	7
NMSI_	99	0	7	96	48	3
NMSTR	99	192	0
NMSI_	99	192	0	96	48	4
NMSTR	99	192	1
NMSI_	99	192	1	96	48	4
NMTAP	100	0	3
NMTAP	100	0	5
NMTAP	100	96	6
NMTAP	100	144	5
NMTAP	100	192	4
NMHLD	100	288	1	96
NMTAP	100	288	2
NMSTR	101	0	0
NMSI_	101	0	0	96	48	3
NMSI_	101	0	0	96	48	5
BRTAP	101	192	2
BRTAP	101	192	6
NMTAP	102	0	1
NMTAP	102	48	1
NMTAP	102	96	3
NMTAP	102	144	2
NMTAP	102	192	6
NMTAP	102	240	6
NMTAP	102	288	4
NMTAP	102	336	5
NMTAP	103	0	1
NMTAP	103	48	1
NMTAP	103	96	7
NMTAP	103	144	7
NMTAP	103	192	0
NMTAP	103	240	0
NMTAP	103	288	6
NMTAP	103	336	6
NMTAP	104	0	2
NMTAP	104	48	2
NMTAP	104	96	3
NMTAP	104	144	1
NMTAP	104	192	5
NMTAP	104	240	5
NMTAP	104	288	4
NMTAP	104	336	6
NMTAP	105	0	0
NMTAP	105	48	1
NMTAP	105	96	2
NMTAP	105	144	3
NMTAP	105	192	4
NMTAP	105	240	5
NMTAP	105	288	6
NMTAP	105	336	7
NMTAP	106	0	1
NMTAP	106	48	1
NMTAP	106	96	0
NMTAP	106	144	2
NMTAP	106	192	6
NMTAP	106	240	6
NMTAP	106	288	7
NMTAP	106	336	5
NMTAP	107	0	3
NMTAP	107	48	2
NMTAP	107	96	4
NMTAP	107	144	5
NMTAP	107	192	0
NMTAP	107	240	1
NMTAP	107	288	7
NMTAP	107	336	6
NMTAP	108	0	3
NMTAP	108	48	3
NMTAP	108	96	4
NMTAP	108	144	2
NMTAP	108	192	5
NMTAP	108	240	5
NMTAP	108	288	4
NMTAP	108	336	6
BRTAP	109	0	1
BRTAP	109	0	7
NMTAP	109	48	1
NMTAP	109	48	7
NMTAP	109	96	1
NMTAP	109	96	7
BRTAP	109	192	0
BRTAP	109	192	6
NMTAP	109	240	0
NMTAP	109	240	6
NMTAP	109	288	0
NMSTR	109	288	6
BRSF_	109	288	6	96	48	2

T_REC_TAP	407
T_REC_BRK	37
T_REC_XTP	15
T_REC_BXX	1
T_REC_HLD	39
T_REC_XHO	0
T_REC_BHO	0
T_REC_BXH	0
T_REC_STR	48
T_REC_BST	0
T_REC_XST	3
T_REC_XBS	0
T_REC_TTP	17
T_REC_THO	2
T_REC_SLD	51
T_REC_BSL	2
T_REC_ALL	622
T_NUM_TAP	490
T_NUM_BRK	40
T_NUM_HLD	41
T_NUM_SLD	51
T_NUM_ALL	622
T_JUDGE_TAP	528
T_JUDGE_HLD	138
T_JUDGE_SLD	53
T_JUDGE_ALL	719
TTM_EACHPAIRS	165
TTM_SCR_TAP	245000
TTM_SCR_BRK	104000
TTM_SCR_HLD	41000
TTM_SCR_SLD	76500
TTM_SCR_ALL	466500
TTM_SCR_S	448650
TTM_SCR_SS	462500
TTM_RAT_ACV	10086

