VERSION	0.00.00	1.04.00
FES_MODE	0
BPM_DEF	186.000	186.000	186.000	186.000
MET_DEF	4	4
RESOLUTION	384
CLK_DEF	384
COMPATIBLE_CODE	MA2

BPM	0	0	186.000
MET	0	0	4	4

NMHLD	5	0	5	192
NMTAP	5	192	4
NMTAP	6	0	4
NMTAP	6	0	5
NMTAP	6	192	4
NMTAP	6	192	5
NMHLD	7	0	6	192
NMTAP	7	192	7
NMTAP	8	0	6
NMTAP	8	0	7
NMTAP	8	192	6
NMTAP	8	192	7
NMHLD	9	0	1	192
NMTAP	9	192	0
NMTAP	10	0	0
NMTAP	10	0	1
NMTAP	10	192	0
NMTAP	10	192	1
NMHLD	11	0	2	192
NMTAP	11	192	3
NMTAP	12	0	2
NMTAP	12	0	3
NMTAP	12	192	2
NMTAP	12	192	3
NMTAP	13	0	1
NMTAP	13	96	1
NMTAP	13	192	1
NMTAP	14	0	2
NMTAP	14	96	2
NMTAP	14	192	2
NMTAP	15	0	3
NMTAP	15	96	3
NMTAP	15	192	3
NMTAP	16	0	4
NMTAP	16	0	5
NMTAP	16	192	4
NMTAP	16	192	5
NMTAP	17	0	6
NMTAP	17	96	6
NMTAP	17	192	6
NMTAP	18	0	5
NMTAP	18	96	5
NMTAP	18	192	5
NMTAP	19	0	4
NMTAP	19	96	4
NMTAP	19	192	4
BXTAP	20	0	2
BXTAP	20	0	3
NMTAP	21	0	2
NMTAP	21	96	2
NMTAP	21	192	1
NMTAP	21	288	1
NMTAP	22	0	0
NMTAP	22	96	0
NMTAP	22	192	6
NMTAP	22	192	7
NMTAP	23	0	5
NMTAP	23	96	5
NMTAP	23	192	6
NMTAP	23	288	6
NMTAP	24	0	7
NMTAP	24	96	7
NMTAP	24	192	0
NMTAP	24	192	1
NMTAP	25	0	1
NMTAP	25	96	1
NMTAP	25	192	2
NMTAP	25	288	2
NMTAP	26	0	3
NMTAP	26	96	3
NMTAP	26	192	4
NMTAP	26	192	5
NMTAP	27	0	6
NMTAP	27	96	6
NMTAP	27	192	5
NMTAP	27	288	5
NMTAP	28	0	4
NMTAP	28	96	4
NMTAP	28	192	2
NMTAP	28	192	3
NMTAP	29	0	3
NMTAP	29	96	3
NMTAP	29	192	2
NMTAP	29	288	2
NMTAP	30	0	1
NMTAP	30	96	1
NMTAP	30	192	0
NMTAP	30	288	0
NMTAP	31	0	7
NMTAP	31	96	7
NMTAP	31	192	6
NMTAP	31	288	6
NMTAP	32	0	5
NMTAP	32	96	5
NMTAP	32	192	3
NMTAP	32	192	4
NMTAP	33	0	4
NMTAP	33	96	4
NMTAP	33	192	5
NMTAP	33	288	5
NMTAP	34	0	6
NMTAP	34	96	6
NMTAP	34	192	7
NMTAP	34	288	7
NMTAP	35	0	0
NMTAP	35	96	0
NMTAP	35	192	1
NMTAP	35	288	1
NMTAP	36	0	2
NMTAP	36	96	2
NMTAP	36	192	3
NMTAP	36	192	4
NMTTP	37	0	6	B	0	L1
NMTTP	37	96	5	B	0	L1
NMTTP	37	192	4	B	0	L1
NMTTP	38	0	1	B	0	L1
NMTTP	38	96	2	B	0	L1
NMTTP	38	192	3	B	0	L1
NMTTP	39	0	7	B	0	L1
NMTTP	39	96	6	B	0	L1
NMTTP	39	192	5	B	0	L1
NMTTP	39	288	4	B	0	L1
NMTTP	40	0	3	B	0	L1
NMTTP	40	96	2	B	0	L1
NMTTP	40	192	0	C	0	L1
NMTTP	41	0	0	B	0	L1
NMTTP	41	96	1	B	0	L1
NMTTP	41	192	2	B	0	L1
NMTTP	41	192	3	B	0	L1
NMTTP	42	0	7	B	0	L1
NMTTP	42	96	6	B	0	L1
NMTTP	42	192	4	B	0	L1
NMTTP	42	192	5	B	0	L1
NMTTP	43	0	0	B	0	L1
NMTTP	43	96	1	B	0	L1
NMTTP	43	192	2	B	0	L1
NMTTP	43	288	3	B	0	L1
NMTTP	44	0	4	B	0	L1
NMTTP	44	96	5	B	0	L1
NMTTP	44	192	0	C	0	L1
NMTAP	45	0	6
NMTAP	45	96	6
NMTAP	45	192	6
NMTAP	45	192	7
NMTAP	46	0	5
NMTAP	46	96	5
NMTAP	46	192	4
NMTAP	46	192	5
NMTAP	47	0	3
NMTAP	47	96	3
NMTAP	47	192	2
NMTAP	47	192	3
NMTAP	48	0	0
NMTAP	48	0	1
NMTAP	48	96	0
NMTAP	48	96	1
NMTAP	48	192	0
NMTAP	48	192	1
NMTAP	49	0	1
NMTAP	49	96	1
NMTAP	49	192	0
NMTAP	49	192	1
NMTAP	50	0	2
NMTAP	50	96	2
NMTAP	50	192	2
NMTAP	50	192	3
NMTAP	51	0	4
NMTAP	51	96	4
NMTAP	51	192	4
NMTAP	51	192	5
NMTAP	52	0	6
NMTAP	52	0	7
NMTAP	52	96	6
NMTAP	52	96	7
NMTAP	52	192	6
NMTAP	52	192	7
NMHLD	53	0	5	192
NMHLD	53	192	4	192
NMHLD	54	0	3	192
NMTAP	54	192	2
NMHLD	55	0	2	192
NMHLD	55	192	3	192
NMHLD	56	0	4	192
NMTAP	56	192	5
NMHLD	57	0	6	192
NMHLD	57	192	5	192
NMHLD	58	0	4	192
NMTAP	58	192	3
NMHLD	59	0	1	192
NMHLD	59	192	2	192
NMHLD	60	0	3	192
NMTAP	60	192	4
NMHLD	61	0	5	192
NMTAP	61	192	4
NMHLD	62	0	2	192
NMTAP	62	192	3
NMHLD	63	0	3	192
NMHLD	63	0	4	192
NMTAP	64	0	2
NMTAP	64	96	2
NMTAP	64	192	0
NMTAP	64	192	1
NMTAP	64	288	0
NMTAP	64	288	1
NMTAP	65	0	7
NMTAP	65	96	7
NMTAP	65	192	6
NMTAP	65	192	7
NMTAP	66	0	5
NMTAP	66	96	5
NMTAP	66	192	6
NMTAP	66	192	7
NMTAP	66	288	6
NMTAP	66	288	7
NMTAP	67	0	0
NMTAP	67	96	0
NMTAP	67	192	0
NMTAP	67	192	1
NMTAP	68	0	1
NMTAP	68	96	1
NMTAP	68	192	2
NMTAP	68	192	3
NMTAP	68	288	2
NMTAP	68	288	3
NMTAP	69	0	4
NMTAP	69	96	4
NMTAP	69	192	4
NMTAP	69	192	5
NMTAP	70	0	6
NMTAP	70	96	6
NMTAP	70	192	4
NMTAP	70	192	5
NMTAP	70	288	4
NMTAP	70	288	5
NMTAP	71	0	3
NMTAP	71	96	3
NMTAP	71	192	2
NMTAP	71	192	3
NMTAP	72	0	1
NMTAP	72	96	1
NMTAP	72	192	1
NMTAP	72	288	0
NMTAP	72	288	1
NMTAP	73	0	2
NMTAP	73	96	2
NMTAP	73	192	2
NMTAP	73	288	2
NMTAP	73	288	3
NMTAP	74	0	4
NMTAP	74	96	4
NMTAP	74	192	4
NMTAP	74	288	4
NMTAP	74	288	5
NMTAP	75	0	6
NMTAP	75	0	7
NMTAP	75	96	6
NMTAP	75	96	7
NMTAP	75	192	6
NMTAP	75	192	7
NMTAP	76	0	6
NMTAP	76	96	6
NMTAP	76	192	6
NMTAP	76	288	6
NMTAP	76	288	7
NMTAP	77	0	5
NMTAP	77	96	5
NMTAP	77	192	5
NMTAP	77	288	4
NMTAP	77	288	5
NMTAP	78	0	3
NMTAP	78	96	3
NMTAP	78	192	3
NMTAP	78	288	2
NMTAP	78	288	3
NMTAP	79	0	0
NMTAP	79	0	1
NMTAP	79	96	0
NMTAP	79	96	1
NMTAP	79	192	0
NMTAP	79	192	1
NMSTR	80	0	1
NMSI_	80	0	1	96	192	4
NMSTR	81	0	5
NMSI_	81	0	5	96	192	0
NMSTR	82	0	1
NMSI_	82	0	1	96	192	5
NMSTR	83	0	6
NMSI_	83	0	6	96	192	2
NMSTR	84	0	0
NMSI_	84	0	0	96	192	4
NMTAP	85	0	5
NMTAP	85	192	3
NMTAP	85	192	4
NMTAP	86	0	5
NMTAP	86	48	5
NMTAP	86	96	5
NMTAP	86	192	6
NMTAP	86	288	6
NMTAP	87	0	7
NMTAP	87	48	7
NMTAP	87	96	7
NMTAP	87	192	0
NMTAP	87	192	1
NMTAP	88	0	2
NMTAP	88	48	2
NMTAP	88	96	2
NMTAP	88	192	1
NMTAP	88	288	1
NMTAP	89	0	0
NMTAP	89	48	0
NMTAP	89	96	0
NMTAP	89	192	6
NMTAP	89	192	7
NMTAP	90	0	6
NMTAP	90	48	6
NMTAP	90	96	6
NMTAP	90	192	5
NMTAP	90	288	5
NMTAP	91	0	4
NMTAP	91	48	4
NMTAP	91	96	4
NMTAP	91	192	2
NMTAP	91	192	3
NMTAP	92	0	1
NMTAP	92	48	1
NMTAP	92	96	1
NMTAP	92	192	2
NMTAP	92	288	2
NMTAP	93	0	3
NMTAP	93	48	3
NMTAP	93	96	3
NMTAP	93	192	4
NMTAP	93	192	5
BRTAP	94	0	5
NMTAP	94	48	5
NMTAP	94	96	5
NMTAP	94	192	6
NMTAP	94	192	7
NMTAP	94	288	6
NMTAP	94	288	7
NMTAP	95	0	0
NMTAP	95	48	0
NMTAP	95	96	0
NMTAP	95	192	0
NMTAP	95	192	1
NMTAP	96	0	2
NMTAP	96	48	2
NMTAP	96	96	2
NMTAP	96	192	0
NMTAP	96	192	1
NMTAP	96	288	0
NMTAP	96	288	1
NMTAP	97	0	7
NMTAP	97	48	7
NMTAP	97	96	7
NMTAP	97	192	6
NMTAP	97	192	7
NMTAP	98	0	6
NMTAP	98	48	6
NMTAP	98	96	6
NMTAP	98	192	4
NMTAP	98	192	5
NMTAP	98	288	4
NMTAP	98	288	5
NMTAP	99	0	3
NMTAP	99	48	3
NMTAP	99	96	3
NMTAP	99	192	2
NMTAP	99	192	3
NMTAP	100	0	1
NMTAP	100	48	1
NMTAP	100	96	1
NMTAP	100	192	2
NMTAP	100	192	3
NMTAP	100	288	2
NMTAP	100	288	3
NMTAP	101	0	4
NMTAP	101	48	4
NMTAP	101	96	4
NMTAP	101	192	4
NMTAP	101	192	5
NMTAP	102	0	6
NMTAP	102	48	6
NMTAP	102	96	6
NMTAP	102	192	6
NMTAP	102	192	7
NMTAP	102	288	6
NMTAP	102	288	7
NMTAP	103	0	5
NMTAP	103	48	5
NMTAP	103	96	5
NMTAP	103	192	4
NMTAP	103	192	5
NMTAP	103	288	4
NMTAP	103	288	5
NMTAP	104	0	3
NMTAP	104	48	3
NMTAP	104	96	3
NMTAP	104	192	2
NMTAP	104	192	3
NMTAP	104	288	2
NMTAP	104	288	3
NMTAP	105	0	0
NMTAP	105	0	1
NMTAP	105	96	0
NMTAP	105	96	1
NMTAP	105	192	2
NMTAP	105	192	7
NMTAP	106	0	1
NMTAP	106	48	1
NMTAP	106	96	1
NMTAP	106	192	0
NMTAP	106	192	1
NMTAP	106	288	0
NMTAP	106	288	1
NMTAP	107	0	2
NMTAP	107	48	2
NMTAP	107	96	2
NMTAP	107	192	2
NMTAP	107	192	3
NMTAP	107	288	2
NMTAP	107	288	3
NMTAP	108	0	4
NMTAP	108	48	4
NMTAP	108	96	4
NMTAP	108	192	4
NMTAP	108	192	5
NMTAP	108	288	4
NMTAP	108	288	5
NMTAP	109	0	6
NMTAP	109	0	7
NMTAP	109	96	6
NMTAP	109	96	7
NMTAP	109	192	0
NMTAP	109	192	5
BXTAP	110	0	0
BXTAP	110	0	7

T_REC_TAP	374
T_REC_BRK	1
T_REC_XTP	0
T_REC_BXX	4
T_REC_HLD	20
T_REC_XHO	0
T_REC_BHO	0
T_REC_BXH	0
T_REC_STR	5
T_REC_BST	0
T_REC_XST	0
T_REC_XBS	0
T_REC_TTP	28
T_REC_THO	0
T_REC_SLD	5
T_REC_BSL	0
T_REC_ALL	437
T_NUM_TAP	407
T_NUM_BRK	5
T_NUM_HLD	20
T_NUM_SLD	5
T_NUM_ALL	437
T_JUDGE_TAP	412
T_JUDGE_HLD	80
T_JUDGE_SLD	5
T_JUDGE_ALL	497
TTM_EACHPAIRS	90
TTM_SCR_TAP	203500
TTM_SCR_BRK	13000
TTM_SCR_HLD	20000
TTM_SCR_SLD	7500
TTM_SCR_ALL	244000
TTM_SCR_S	236200
TTM_SCR_SS	243500
TTM_RAT_ACV	10020

