VERSION	0.00.00	1.04.00
FES_MODE	0
BPM_DEF	186.000	186.000	186.000	186.000
MET_DEF	4	4
RESOLUTION	384
CLK_DEF	384
COMPATIBLE_CODE	MA2

BPM	0	0	186.000
MET	0	0	4	4

NMTAP	5	0	0
NMTAP	6	0	0
NMTAP	7	0	0
NMTAP	9	0	7
NMTAP	10	0	7
NMTAP	11	0	7
NMTAP	12	0	0
NMTAP	12	0	7
NMTAP	13	0	0
NMTAP	13	192	0
NMTAP	14	0	1
NMTAP	14	192	1
NMTAP	15	0	2
NMTAP	15	192	2
NMTAP	16	0	3
NMTAP	16	0	4
NMTAP	17	0	4
NMTAP	17	192	4
NMTAP	18	0	5
NMTAP	18	192	5
NMTAP	19	0	6
NMTAP	19	192	6
NMTAP	20	0	0
NMTAP	20	0	7
NMTAP	21	0	7
NMTAP	21	192	7
NMTAP	22	0	6
NMTAP	22	192	6
NMTAP	23	0	5
NMTAP	23	192	5
NMTAP	24	0	4
NMTAP	24	192	4
NMTAP	25	0	3
NMTAP	25	192	3
NMTAP	26	0	2
NMTAP	26	192	2
NMTAP	27	0	1
NMTAP	27	192	1
NMTAP	28	0	0
NMTAP	28	0	1
NMTAP	29	0	0
NMTAP	29	192	0
NMTAP	30	0	1
NMTAP	30	192	1
NMTAP	31	0	2
NMTAP	31	192	2
NMTAP	32	0	3
NMTAP	32	192	3
NMTAP	33	0	4
NMTAP	33	192	4
NMTAP	34	0	5
NMTAP	34	192	5
NMTAP	35	0	6
NMTAP	35	192	6
NMTAP	36	0	6
NMTAP	36	0	7
NMTTP	37	0	7	B	0	L1
NMTTP	38	0	0	B	0	L1
NMTTP	39	0	6	B	0	L1
NMTTP	40	0	1	B	0	L1
NMTTP	41	0	5	B	0	L1
NMTTP	42	0	2	B	0	L1
NMTTP	43	0	4	B	0	L1
NMTTP	44	0	0	C	0	L1
NMTAP	45	0	7
NMTAP	45	96	7
NMTAP	45	192	7
NMTAP	46	0	6
NMTAP	46	192	6
NMTAP	47	0	5
NMTAP	47	192	5
EXTAP	48	0	3
EXTAP	48	0	4
EXTAP	48	192	3
EXTAP	48	192	4
NMTAP	49	0	3
NMTAP	49	96	3
NMTAP	49	192	3
NMTAP	50	0	2
NMTAP	50	192	2
NMTAP	51	0	1
NMTAP	51	192	1
EXTAP	52	0	0
EXTAP	52	0	7
NMHLD	53	0	0	384
NMHLD	53	0	1	384
NMHLD	55	0	2	384
NMHLD	55	0	3	384
NMHLD	57	0	4	384
NMHLD	57	0	5	384
NMHLD	59	0	6	384
NMHLD	59	0	7	384
NMHLD	61	0	0	384
NMHLD	61	0	7	384
NMTAP	63	0	0
NMTAP	63	0	7
BRTAP	63	192	0
BRTAP	63	192	7
NMTAP	64	0	7
NMTAP	64	96	7
NMTAP	64	192	7
NMTAP	65	0	6
NMTAP	65	96	6
NMTAP	65	192	6
NMTAP	66	0	5
NMTAP	66	96	5
NMTAP	66	192	5
NMTAP	67	0	4
NMTAP	67	0	5
NMTAP	67	192	4
NMTAP	67	192	5
NMTAP	68	0	3
NMTAP	68	96	3
NMTAP	68	192	3
NMTAP	69	0	2
NMTAP	69	96	2
NMTAP	69	192	2
NMTAP	70	0	1
NMTAP	70	96	1
NMTAP	70	192	1
NMTAP	71	0	0
NMTAP	71	0	1
BRTAP	72	0	0
NMTAP	72	96	0
NMTAP	72	192	0
NMTAP	73	0	1
NMTAP	73	96	1
NMTAP	73	192	1
NMTAP	74	0	2
NMTAP	74	96	2
NMTAP	74	192	2
NMTAP	75	0	3
NMTAP	75	0	4
NMTAP	75	192	3
NMTAP	75	192	4
NMTAP	76	0	4
NMTAP	76	96	4
NMTAP	76	192	4
NMTAP	77	0	5
NMTAP	77	96	5
NMTAP	77	192	5
NMTAP	78	0	6
NMTAP	78	96	6
NMTAP	78	192	6
BXTAP	79	0	0
BXTAP	79	0	7
NMSTR	80	0	7
NMSI_	80	0	7	96	288	3
NMSTR	82	0	0
NMSI_	82	0	0	96	288	4
NMSTR	84	0	6
NMSI_	84	0	6	96	288	2
NMHLD	86	0	0	192
NMHLD	86	0	1	192
NMTAP	87	0	0
NMTAP	87	0	1
NMHLD	88	0	2	192
NMHLD	88	0	3	192
NMTAP	89	0	2
NMTAP	89	0	3
NMHLD	90	0	4	192
NMHLD	90	0	5	192
NMTAP	91	0	4
NMTAP	91	0	5
NMHLD	92	0	6	192
NMHLD	92	0	7	192
NMTAP	93	0	6
NMTAP	93	0	7
BRTAP	94	0	7
NMTAP	94	96	7
NMTAP	94	192	7
NMTAP	95	0	6
NMTAP	95	96	6
NMTAP	95	192	6
NMTAP	95	192	7
NMTAP	96	0	5
NMTAP	96	96	5
NMTAP	96	192	5
NMTAP	97	0	4
NMTAP	97	96	4
NMTAP	97	192	3
NMTAP	97	192	4
NMTAP	98	0	3
NMTAP	98	96	3
NMTAP	98	192	3
NMTAP	99	0	2
NMTAP	99	96	2
NMTAP	99	192	2
NMTAP	99	192	3
NMTAP	100	0	1
NMTAP	100	96	1
NMTAP	100	192	1
NMTAP	101	0	0
NMTAP	101	0	7
BRTAP	102	0	0
NMTAP	102	96	0
NMTAP	102	192	0
NMTAP	102	288	0
NMTAP	103	0	1
NMTAP	103	96	1
NMTAP	103	192	0
NMTAP	103	192	1
NMTAP	104	0	2
NMTAP	104	96	2
NMTAP	104	192	2
NMTAP	104	288	2
NMTAP	105	0	3
NMTAP	105	96	3
NMTAP	105	192	3
NMTAP	105	192	4
NMTAP	106	0	4
NMTAP	106	96	4
NMTAP	106	192	4
NMTAP	106	288	4
NMTAP	107	0	5
NMTAP	107	96	5
NMTAP	107	192	4
NMTAP	107	192	5
NMTAP	108	0	6
NMTAP	108	96	6
NMTAP	108	192	6
NMTAP	108	288	6
NMTAP	109	0	7
NMTAP	109	96	7
NMTAP	109	192	0
NMTAP	109	192	7
BRTAP	110	0	1
BRTAP	110	0	6

T_REC_TAP	181
T_REC_BRK	7
T_REC_XTP	6
T_REC_BXX	2
T_REC_HLD	18
T_REC_XHO	0
T_REC_BHO	0
T_REC_BXH	0
T_REC_STR	3
T_REC_BST	0
T_REC_XST	0
T_REC_XBS	0
T_REC_TTP	8
T_REC_THO	0
T_REC_SLD	3
T_REC_BSL	0
T_REC_ALL	228
T_NUM_TAP	198
T_NUM_BRK	9
T_NUM_HLD	18
T_NUM_SLD	3
T_NUM_ALL	228
T_JUDGE_TAP	207
T_JUDGE_HLD	112
T_JUDGE_SLD	3
T_JUDGE_ALL	322
TTM_EACHPAIRS	38
TTM_SCR_TAP	99000
TTM_SCR_BRK	23400
TTM_SCR_HLD	18000
TTM_SCR_SLD	4500
TTM_SCR_ALL	144900
TTM_SCR_S	139700
TTM_SCR_SS	144000
TTM_RAT_ACV	10062

