VERSION	0.00.00	1.04.00
FES_MODE	0
BPM_DEF	210.000	210.000	210.000	210.000
MET_DEF	4	4
RESOLUTION	384
CLK_DEF	384
COMPATIBLE_CODE	MA2

BPM	0	0	210.000
MET	0	0	4	4

NMSTR	2	0	0
NMSCR	2	0	0	96	960	7
NMTAP	3	288	0
NMSTR	4	0	0
NMSCR	4	0	0	96	864	7
NMTAP	5	288	0
NMSTR	6	0	0
NMSCR	6	0	0	96	480	7
NMSTR	7	0	0
NMSCR	7	0	0	96	288	7
NMSTR	8	0	0
NMSI_	8	0	0	96	96	4
NMSTR	8	192	7
NMSI_	8	192	7	96	96	3
NMTAP	9	0	0
NMTAP	9	96	0
NMTAP	9	192	0
NMTAP	9	216	7
NMTAP	9	240	0
NMTAP	9	264	7
BRTAP	9	288	1
BRTAP	9	288	6
NMSTR	10	0	2
NMSXR	10	0	2	96	960	4
NMHLD	10	0	4	96
NMHLD	10	144	4	96
NMTAP	10	288	4
NMHLD	11	0	5	96
NMHLD	11	144	5	96
NMTAP	11	288	5
NMHLD	12	0	6	96
NMHLD	12	144	6	96
NMTAP	12	288	6
NMTAP	13	0	7
NMTAP	13	96	4
NMTAP	13	96	6
NMTAP	13	192	2
NMTAP	13	192	5
NMHLD	14	0	3	96
NMSTR	14	0	4
NMSXL	14	0	4	96	672	3
NMHLD	14	144	2	96
NMTAP	14	288	2
NMHLD	15	0	1	96
NMHLD	15	144	0	96
NMTAP	15	288	0
NMTAP	16	0	1
NMTAP	16	96	2
NMTAP	16	96	3
NMTAP	16	192	3
NMTAP	16	192	4
NMTAP	16	288	4
NMTAP	16	288	6
NMTAP	16	336	4
NMTAP	16	336	6
NMTAP	17	48	1
NMTAP	17	48	3
NMTAP	17	96	1
NMTAP	17	96	3
NMSTR	17	192	0
BRSI_	17	192	0	96	48	4
NMSTR	17	192	7
BRSI_	17	192	7	96	48	3
NMSTR	18	0	2
NMSI_	18	0	2	96	48	0
NMTAP	18	48	3
NMTAP	18	96	2
NMTAP	18	144	3
NMSTR	18	192	1
NMSI_	18	192	1	96	48	4
NMTAP	18	240	0
BXTAP	18	288	1
NMSTR	19	0	3
NMSI_	19	0	3	96	48	7
NMTAP	19	48	4
NMTAP	19	96	3
NMTAP	19	144	4
NMSTR	19	192	6
NMSCR	19	192	6	96	48	1
NMTAP	19	240	5
BXTAP	19	288	6
NMSTR	20	0	5
NMSI_	20	0	5	96	48	7
NMTAP	20	48	4
NMTAP	20	96	5
NMTAP	20	144	4
NMSTR	20	192	6
NMSI_	20	192	6	96	48	3
NMTAP	20	240	7
BXTAP	20	288	6
NMTAP	21	0	1
NMTAP	21	24	0
NMTAP	21	48	1
NMTAP	21	72	0
NMTAP	21	96	1
NMTAP	21	144	6
NMTAP	21	168	7
NMTAP	21	192	6
NMTAP	21	216	7
NMTAP	21	240	6
NMTAP	21	288	0
NMTAP	21	288	5
NMSTR	22	0	1
NMSI_	22	0	1	96	48	7
NMTAP	22	0	3
NMTAP	22	96	1
NMTAP	22	96	4
NMTAP	22	192	5
NMTAP	22	216	4
NMTAP	22	240	5
NMTAP	22	264	4
NMTAP	22	288	6
NMTAP	23	0	4
NMSTR	23	0	6
NMSI_	23	0	6	96	48	0
NMTAP	23	96	3
NMTAP	23	96	6
NMTAP	23	192	2
NMTAP	23	216	3
NMTAP	23	240	2
NMTAP	23	264	3
BRTAP	23	288	1
BRTAP	23	288	4
NMTAP	24	0	6
NMTAP	24	0	7
NMTAP	24	96	4
NMTAP	24	96	5
NMTAP	24	192	1
NMTAP	24	192	3
NMTAP	24	288	0
NMTAP	24	288	2
NMTAP	24	336	0
NMTAP	24	336	2
NMTAP	25	48	5
NMTAP	25	48	7
NMTAP	25	96	5
NMTAP	25	96	7
NMTAP	25	192	0
NMTAP	25	216	1
NMTAP	25	240	2
NMTAP	25	264	3
NMTAP	25	288	4
NMTAP	25	312	5
NMTAP	25	336	6
NMTAP	25	360	7
NMSTR	26	0	0
NMSCR	26	0	0	96	1248	7
NMTAP	26	96	7
NMTAP	26	192	5
NMTAP	26	288	3
NMTAP	26	336	3
NMTAP	27	48	4
NMTAP	27	96	4
NMTAP	27	192	6
NMSTR	27	288	5
NMSI_	27	288	5	96	48	1
NMSTR	28	96	0
NMSI_	28	96	0	96	48	4
NMTAP	28	288	3
NMTAP	28	336	3
NMTAP	29	48	2
NMTAP	29	96	2
NMTAP	29	144	1
NMTAP	29	192	0
NMTAP	29	288	0
NMTAP	29	288	7
NMSTR	30	0	6
NMSI_	30	0	6	96	48	4
NMTAP	30	96	7
NMSTR	30	192	0
NMSI_	30	192	0	96	48	2
NMTAP	30	288	7
NMSTR	30	336	7
NMSI_	30	336	7	96	48	3
NMTAP	31	48	1
NMTAP	31	96	1
NMTAP	31	144	0
NMSTR	31	192	0
NMSI_	31	192	0	96	48	4
NMTAP	31	288	5
NMSTR	32	0	7
NMSI_	32	0	7	96	288	3
NMSLL	32	0	7	96	288	3
NMSTR	33	96	3
NMSI_	33	96	3	96	48	1
NMSTR	33	96	4
NMSI_	33	96	4	96	48	6
NMTAP	33	192	3
NMTAP	33	192	4
EXTAP	33	288	0
EXTAP	33	288	7
NMTAP	34	0	0
NMTAP	34	0	1
NMTAP	34	48	0
NMTAP	34	48	1
NMTAP	34	96	2
NMTAP	34	96	3
NMTAP	34	144	2
NMTAP	34	144	3
NMTAP	34	192	4
NMTAP	34	192	5
NMTAP	34	240	4
NMTAP	34	240	5
NMTAP	34	288	3
NMTAP	34	288	6
NMTAP	34	336	5
NMTAP	34	360	4
NMTAP	35	0	5
NMTAP	35	24	4
NMTAP	35	48	5
NMTAP	35	96	3
NMTAP	35	96	6
NMTAP	35	144	3
NMTAP	35	144	6
NMTAP	35	192	1
NMTAP	35	192	4
NMTAP	35	240	1
NMTAP	35	240	4
NMTAP	35	288	2
NMTAP	35	312	3
NMTAP	35	336	2
NMTAP	35	360	3
NMTAP	36	0	1
NMTAP	36	48	1
NMTAP	36	96	0
NMTAP	36	96	5
NMTAP	36	144	0
NMTAP	36	144	5
NMTAP	36	192	2
NMTAP	36	192	7
NMTAP	36	240	2
NMTAP	36	240	7
NMTAP	36	288	1
NMTAP	36	312	0
NMTAP	36	336	1
NMTAP	36	360	0
NMSTR	37	0	1
NMSI_	37	0	1	96	48	5
NMSI_	37	0	1	96	48	6
BRTAP	37	96	1
NMSTR	37	192	4
NMSI_	37	192	4	96	48	1
NMSI_	37	192	4	96	48	7
BRTAP	37	288	4
EXTAP	38	0	0
EXTAP	38	0	6
EXTAP	38	48	0
EXTAP	38	48	6
NMTAP	38	96	1
NMTAP	38	96	3
NMTAP	38	144	1
NMTAP	38	144	3
NMTAP	38	192	4
NMTAP	38	192	6
NMTAP	38	240	4
NMTAP	38	240	6
NMTAP	38	288	3
NMTAP	38	288	7
NMTAP	38	336	1
NMTAP	38	360	0
NMTAP	39	0	1
NMTAP	39	24	0
NMTAP	39	48	1
NMTAP	39	96	2
NMTAP	39	96	7
NMTAP	39	144	2
NMTAP	39	144	7
NMTAP	39	192	1
NMTAP	39	192	5
NMTAP	39	240	1
NMTAP	39	240	5
NMTAP	39	288	6
NMTAP	39	312	0
NMTAP	39	336	6
NMTAP	39	360	0
EXTAP	40	0	6
NMTTP	40	12	6	D	0	M1
NMTTP	40	24	5	A	0	M1
NMTTP	40	36	5	D	0	M1
NMTTP	40	48	4	A	0	M1
EXTAP	40	96	1
NMTTP	40	108	2	D	0	M1
NMTTP	40	120	2	A	0	M1
NMTTP	40	132	3	D	0	M1
NMTTP	40	144	3	A	0	M1
EXTAP	40	192	7
NMTTP	40	204	7	B	0	M1
NMTTP	40	216	0	C	0	M1
NMTTP	40	228	3	B	0	M1
NMTAP	40	288	1
NMTAP	40	336	0
NMTAP	40	336	1
NMTAP	41	48	6
NMTAP	41	96	6
NMTAP	41	96	7
NMTAP	41	192	0
NMTAP	41	192	5
NMTTP	41	288	2	B	0	M1
NMTTP	41	288	2	E	0	M1
NMTTP	41	288	3	B	0	M1
NMTTP	41	288	4	E	0	M1
NMHLD	42	0	7	192
NMTTP	42	96	6	B	0	M1
NMHLD	42	192	5	192
NMTTP	42	288	4	B	0	M1
NMHLD	43	0	3	192
NMTTP	43	96	2	B	0	M1
NMHLD	43	192	1	192
NMTTP	43	288	0	B	0	M1
NMHLD	44	0	6	192
NMTTP	44	96	5	B	0	M1
NMTTP	44	96	6	E	0	M1
NMHLD	44	192	0	192
NMTTP	44	288	2	B	0	M1
NMTTP	44	288	3	E	0	M1
NMHLD	45	0	5	192
NMTTP	45	96	6	B	0	M1
NMTTP	45	96	7	E	0	M1
NMHLD	45	192	2	96
EXTAP	45	288	0
NMTAP	46	0	7
NMTAP	46	24	4
NMTAP	46	48	7
NMTAP	46	72	4
NMTAP	46	96	7
NMTAP	46	120	4
NMTAP	46	144	7
NMTAP	46	168	4
NMHLD	46	192	6	48
NMHLD	46	264	3	48
NMHLD	46	264	5	48
NMTAP	46	336	1
NMTAP	46	336	4
NMTAP	47	0	0
NMTAP	47	24	3
NMTAP	47	48	0
NMTAP	47	72	3
NMTAP	47	96	0
NMTAP	47	120	3
NMTAP	47	144	0
NMTAP	47	168	3
NMHLD	47	192	0	48
NMHLD	47	264	1	48
NMHLD	47	264	7	48
NMTAP	47	336	2
NMTAP	47	336	6
NMTAP	48	0	5
NMTAP	48	24	3
NMTAP	48	48	5
NMTAP	48	72	3
NMTAP	48	96	6
NMTAP	48	120	4
NMTAP	48	144	6
NMTAP	48	168	4
NMHLD	48	192	7	48
NMHLD	48	264	0	48
NMHLD	48	264	1	48
NMTAP	48	336	2
NMTAP	48	336	6
NMTAP	49	0	3
NMTAP	49	24	5
NMTAP	49	48	3
NMTAP	49	72	5
NMTAP	49	96	2
NMTAP	49	120	4
NMTAP	49	144	2
NMTAP	49	168	4
NMTAP	49	192	1
NMTAP	49	216	3
NMTAP	49	240	1
NMTAP	49	264	3
NMTAP	49	288	0
NMTAP	49	312	2
NMTAP	49	336	0
NMTAP	49	360	2
BRSTR	50	0	7
NMSI_	50	0	7	96	264	2
CNSLL	50	360	2	0	408	4
NMSTR	52	0	6
NMSI_	52	0	6	96	240	2
NMHLD	52	192	3	384
CNSCR	52	336	2	0	192	5
CNSI_	53	144	5	0	240	1
NMSTR	54	0	2
NMSI_	54	0	2	96	264	6
NMHLD	54	192	4	384
CNSCR	54	360	6	0	144	0
CNSV_	55	120	0	0	264	5
NMSTR	56	0	6
NMSCR	56	0	6	96	288	2
NMTAP	56	192	3
NMSTR	57	0	3
NMSI_	57	0	3	96	96	7
BXHLD	58	0	0	288
NMHLD	58	192	1	288
NMHLD	59	0	2	288
NMHLD	59	192	3	288
NMHLD	60	0	4	288
NMHLD	60	192	5	288
NMHLD	61	0	6	288
NMHLD	61	192	7	192
BXHLD	62	0	0	192
NMTAP	62	96	1
NMHLD	62	192	2	192
NMTAP	62	288	3
BXHLD	63	0	4	192
NMTAP	63	96	5
NMHLD	63	192	6	192
NMTAP	63	288	7
NMSTR	64	0	0
NMSCR	64	0	0	96	288	7
NMTHO	65	0	0	384	C	1	M1
NMSTR	66	192	1
NMSI_	66	192	1	96	48	4
NMSTR	66	192	6
NMSI_	66	192	6	96	48	3
BRTAP	66	288	1
BRTAP	66	288	6
EXSTR	67	0	0
NMSI_	67	0	0	96	48	4
EXTAP	67	0	7
NMTAP	67	96	0
NMSTR	67	96	6
NMSI_	67	96	6	96	48	3
NMSTR	67	192	2
NMSI_	67	192	2	96	48	7
NMTAP	67	192	6
NMTAP	67	288	2
NMTAP	67	288	5
NMSTR	67	336	5
NMSCR	67	336	5	96	48	0
EXTAP	68	48	1
NMTAP	68	48	5
EXTAP	68	64	2
EXTAP	68	80	3
EXTAP	68	96	4
NMSTR	68	192	3
NMSI_	68	192	3	96	48	0
NMSTR	68	192	7
NMSI_	68	192	7	96	48	4
NMTAP	68	288	3
NMTAP	68	288	7
NMHLD	69	0	1	48
NMTAP	69	48	3
NMHLD	69	96	6	48
NMTAP	69	144	4
NMTAP	69	192	3
NMTAP	69	192	5
NMTAP	69	240	0
NMTAP	69	264	7
NMTAP	69	288	0
NMTAP	69	336	1
NMSTR	70	0	2
NMSI_	70	0	2	96	48	5
NMSTR	70	48	6
NMSI_	70	48	6	96	48	3
NMSTR	70	96	2
NMSCL	70	96	2	96	48	7
NMTAP	70	144	6
NMTAP	70	192	2
EXTAP	70	288	1
EXTAP	70	288	5
BRTAP	71	0	0
BRSTR	71	0	7
NMSI_	71	0	7	96	48	3
NMSTR	71	96	1
NMSI_	71	96	1	96	48	4
NMTAP	71	96	7
NMTAP	71	192	1
NMSTR	71	192	5
NMSI_	71	192	5	96	48	0
NMTAP	71	288	2
NMTAP	71	288	5
NMSTR	71	336	2
NMSCL	71	336	2	96	48	7
NMTAP	72	48	2
EXTAP	72	48	6
EXTAP	72	64	5
EXTAP	72	80	4
EXTAP	72	96	3
NMSTR	72	192	0
NMSI_	72	192	0	96	48	3
NMSTR	72	192	4
NMSI_	72	192	4	96	48	7
NMTAP	72	288	0
NMTAP	72	288	4
NMHLD	73	0	6	48
NMTAP	73	48	4
NMHLD	73	96	1	48
NMTAP	73	144	3
NMTAP	73	192	2
NMTAP	73	192	4
NMTAP	73	240	6
NMTAP	73	264	7
NMTAP	73	288	6
NMTAP	73	336	0
NMTAP	73	336	7
BRHLD	74	0	0	48
BRHLD	74	0	1	48
BRHLD	74	96	6	48
BRHLD	74	96	7	48
NMSTR	74	192	0
NMSI_	74	192	0	96	48	4
NMSTR	74	192	7
NMSI_	74	192	7	96	48	3
NMTAP	74	216	1
NMTAP	74	216	6
NMTAP	74	240	2
NMTAP	74	240	5
NMSTR	75	0	1
NMSI_	75	0	1	96	48	5
NMTAP	75	48	0
NMTAP	75	96	1
NMSTR	75	144	6
NMSI_	75	144	6	96	48	3
NMTAP	75	192	7
NMTAP	75	240	6
NMTAP	75	288	0
NMSTR	75	336	0
NMSCR	75	336	0	96	48	3
EXTAP	76	48	0
NMTAP	76	48	4
NMTAP	76	64	5
NMTAP	76	80	6
NMTAP	76	96	7
EXSTR	76	192	2
NMSI_	76	192	2	96	48	7
EXSTR	76	192	6
NMSI_	76	192	6	96	48	3
NMTAP	76	288	2
NMTAP	76	288	6
NMTAP	77	0	0
NMTAP	77	48	4
NMTAP	77	96	2
NMTAP	77	96	3
NMTAP	77	144	1
NMTAP	77	192	7
NMTAP	77	240	3
NMTAP	77	288	4
NMTAP	77	288	5
BRSTR	77	336	7
NMSI_	77	336	7	96	48	3
NMSTR	78	0	0
NMSI_	78	0	0	96	48	2
NMSTR	78	48	7
NMSI_	78	48	7	96	48	5
NMSTR	78	96	0
NMSI_	78	96	0	96	48	4
NMTAP	78	144	7
NMTAP	78	192	0
NMTAP	78	288	2
NMTAP	78	288	6
NMTAP	79	0	1
NMHLD	79	0	5	72
NMTAP	79	72	7
NMTAP	79	96	5
NMTAP	79	144	0
NMTAP	79	144	4
NMTAP	79	192	1
NMTAP	79	192	5
NMTAP	79	240	2
NMTAP	79	240	6
NMTAP	79	288	3
NMTAP	79	288	7
NMTAP	79	336	0
NMSTR	79	336	4
NMSCL	79	336	4	96	48	1
NMTAP	80	48	0
NMTAP	80	48	4
NMTAP	80	64	7
NMTAP	80	80	6
NMTAP	80	96	5
EXSTR	80	192	0
NMSI_	80	192	0	96	48	3
EXSTR	80	192	4
NMSI_	80	192	4	96	48	7
NMTAP	80	288	0
NMTAP	80	288	4
NMTAP	81	0	0
NMTAP	81	0	2
NMTAP	81	48	1
NMTAP	81	96	5
NMTAP	81	96	7
NMTAP	81	144	6
NMTAP	81	192	0
NMTAP	81	192	7
NMTAP	81	240	1
NMTAP	81	264	0
NMSTR	81	288	1
NMSCR	81	288	1	96	192	7
NMSXL	81	288	1	96	192	0
NMTAP	81	336	2
NMTAP	81	336	7
EXTAP	82	288	0
EXTAP	82	288	7
BRTAP	83	0	6
BRTAP	83	0	7
BRTAP	83	96	0
BRTAP	83	96	1
BRTAP	83	192	4
BRTAP	83	192	6
BRTAP	83	240	4
BRTAP	83	240	6
BRTAP	83	336	1
BRTAP	83	336	3
BRTAP	84	48	0
BRTAP	84	48	7
BXTAP	84	72	1
BXTAP	84	72	6
BXTAP	84	96	2
BXTAP	84	96	5
BXTAP	84	144	2
BXTAP	84	144	5
BXHLD	84	192	2	72
BXHLD	84	192	5	72
NMTTP	84	288	3	B	0	M1
NMTTP	84	288	3	A	0	M1
NMTTP	84	288	4	B	0	M1
NMTTP	84	288	4	E	1	M1
NMTTP	84	288	4	A	0	M1
NMTAP	85	0	1
NMTAP	85	24	0
NMTAP	85	48	1
NMTAP	85	72	0
NMTAP	85	96	2
NMTAP	85	120	7
NMTAP	85	144	2
NMTAP	85	168	7
NMTAP	85	192	3
NMTAP	85	216	6
NMTAP	85	240	3
NMTAP	85	264	6
EXTAP	85	288	4
EXTAP	85	288	5
EXTAP	85	336	4
EXHLD	85	336	5	240
BXTAP	86	48	6
BXTAP	86	96	0
BXTAP	86	144	2
BXSTR	86	192	4
NMSI_	86	192	4	96	48	0
NMTAP	86	288	4
NMTAP	86	288	6
NMSTR	87	0	1
NMSI_	87	0	1	96	48	3
NMSTR	87	0	7
NMSI_	87	0	7	96	48	3
NMTAP	87	96	1
NMTAP	87	96	7
NMTAP	87	192	2
NMTAP	87	192	4
NMTAP	87	240	1
NMTAP	87	264	0
NMTAP	87	288	1
NMTAP	87	336	2
NMHLD	87	336	7	96
NMTAP	88	48	3
NMTAP	88	72	6
NMTAP	88	96	2
NMTAP	88	120	5
NMTAP	88	144	1
NMTAP	88	168	4
NMSTR	88	192	0
NMSUR	88	192	0	96	48	4
NMSLR	88	192	0	96	48	4
NMTAP	89	0	6
NMTAP	89	48	5
NMTAP	89	72	4
NMTAP	89	96	5
NMTAP	89	144	2
NMTAP	89	168	3
NMTAP	89	192	1
NMTAP	89	240	5
NMTAP	89	264	4
NMTAP	89	288	6
NMTAP	89	336	2
NMTAP	89	336	7
BRTAP	90	0	2
BRTAP	90	0	7
BRTAP	90	96	0
BRTAP	90	96	5
BRSTR	90	192	1
NMSI_	90	192	1	96	48	4
BRSTR	90	192	6
NMSI_	90	192	6	96	48	3
BRTAP	90	240	0
BRTAP	90	240	7
BRTAP	90	288	1
BRTAP	90	288	6
NMTAP	91	0	0
NMTAP	91	0	7
NMTAP	91	48	1
NMTAP	91	72	0
NMTAP	91	96	1
NMTAP	91	144	6
NMTAP	91	168	7
NMTAP	91	192	6
NMTAP	91	216	7
NMTAP	91	240	5
NMTAP	91	264	0
NMTAP	91	288	4
NMTAP	91	312	1
NMHLD	91	336	3	96
NMTAP	92	48	2
NMTAP	92	72	3
NMTAP	92	96	2
NMTAP	92	144	5
NMTAP	92	168	4
NMSTR	92	192	5
NMSI_	92	192	5	96	48	2
NMTAP	92	288	0
NMTAP	92	336	0
NMTAP	93	0	1
NMTAP	93	0	4
NMTAP	93	48	2
NMTAP	93	72	3
NMTAP	93	96	1
NMTAP	93	144	5
NMTAP	93	168	4
NMTAP	93	192	6
NMTAP	93	240	1
NMTAP	93	264	0
NMTAP	93	288	2
NMTAP	93	336	3
NMSTR	93	336	7
NMSCL	93	336	7	96	96	3
NMTAP	94	48	2
NMTAP	94	96	1
NMTAP	94	144	0
NMSTR	94	192	7
NMSF_	94	192	7	96	48	3
NMTAP	94	288	7
NMHLD	95	0	1	48
NMHLD	95	0	5	48
NMTAP	95	96	3
NMTAP	95	96	7
NMTAP	95	192	1
NMTAP	95	216	0
NMTAP	95	240	1
NMTAP	95	264	0
NMTAP	95	288	2
NMTAP	95	336	3
NMTAP	95	336	7
NMTAP	96	48	5
NMTAP	96	72	4
NMTAP	96	96	7
NMTAP	96	144	2
NMTAP	96	168	3
NMSTR	96	192	0
NMSCL	96	192	0	96	48	5
NMSCR	96	192	0	96	48	3
BXTAP	96	288	0
NMTAP	97	0	2
NMTAP	97	24	4
NMTAP	97	48	2
NMTAP	97	72	4
NMTAP	97	96	2
NMTAP	97	120	4
NMTAP	97	144	2
NMTAP	97	168	4
NMTAP	97	192	3
NMTAP	97	216	5
NMTAP	97	240	3
NMTAP	97	264	5
NMTAP	97	288	3
NMTAP	97	312	5
NMTAP	97	336	3
NMTAP	97	360	5
NMTAP	98	0	4
NMTAP	98	24	6
NMTAP	98	48	4
NMTAP	98	72	6
NMTAP	98	96	5
NMTAP	98	120	7
NMTAP	98	144	5
NMTAP	98	168	7
NMTTP	98	192	4	E	0	M1
NMTTP	98	204	3	E	0	M1
NMTTP	98	216	2	E	0	M1
NMTTP	98	228	1	E	0	M1
NMTTP	98	240	0	E	0	M1
NMTTP	98	252	7	E	0	M1
NMTTP	98	264	6	E	0	M1
NMTTP	98	276	5	E	0	M1
NMTTP	98	288	0	C	1	M1
NMTTP	98	288	4	E	0	M1
NMHLD	99	0	1	288
NMSTR	99	0	7
NMSCL	99	0	7	96	192	2
NMSTR	100	0	0
NMSCR	100	0	0	96	192	5
NMHLD	100	0	6	288
NMHLD	101	0	1	96
NMSTR	101	0	7
NMSI_	101	0	7	96	48	3
NMHLD	101	192	2	96
NMSTR	101	192	4
NMSI_	101	192	4	96	48	0
NMTAP	102	0	1
NMTAP	102	24	7
NMTAP	102	48	1
NMTAP	102	72	7
BRTAP	102	96	1
NMTAP	102	112	2
NMTAP	102	128	3
NMTAP	102	144	4
BRTAP	102	192	7
NMTAP	102	208	6
NMTAP	102	224	5
NMTAP	102	240	4
BRTAP	102	288	0
NMTAP	102	304	1
NMTAP	102	320	2
NMTAP	102	336	3
BRTAP	103	0	6
NMTAP	103	24	0
NMTAP	103	48	6
NMTAP	103	72	0
NMTAP	103	96	5
NMTAP	103	120	1
NMTAP	103	144	5
NMTAP	103	168	1
NMTAP	103	192	4
NMTAP	103	216	2
NMTAP	103	240	4
NMTAP	103	264	2
NMTAP	103	288	3
NMTAP	103	312	3
NMTAP	103	336	3
NMTAP	103	360	3
NMSTR	104	0	3
NMSCL	104	0	3	96	288	3
NMSCR	104	0	3	96	288	3
BRTAP	104	96	3
NMTTP	105	96	2	B	0	M1
NMTTP	105	96	2	A	0	M1
NMTTP	105	96	3	B	0	M1
NMTTP	105	96	3	E	0	M1
NMTTP	105	96	3	A	0	M1
NMTTP	105	96	4	B	0	M1
NMTTP	105	96	4	E	1	M1
NMTTP	105	96	4	A	0	M1
NMTTP	105	96	5	B	0	M1
NMTTP	105	96	5	E	0	M1
NMTTP	105	96	5	A	0	M1

T_REC_TAP	480
T_REC_BRK	34
T_REC_XTP	27
T_REC_BXX	13
T_REC_HLD	51
T_REC_XHO	1
T_REC_BHO	4
T_REC_BXH	5
T_REC_STR	72
T_REC_BST	5
T_REC_XST	5
T_REC_XBS	1
T_REC_TTP	51
T_REC_THO	1
T_REC_SLD	88
T_REC_BSL	2
T_REC_ALL	840
T_NUM_TAP	635
T_NUM_BRK	64
T_NUM_HLD	53
T_NUM_SLD	88
T_NUM_ALL	840
T_JUDGE_TAP	688
T_JUDGE_HLD	186
T_JUDGE_SLD	90
T_JUDGE_ALL	964
TTM_EACHPAIRS	142
TTM_SCR_TAP	317500
TTM_SCR_BRK	166400
TTM_SCR_HLD	53000
TTM_SCR_SLD	132000
TTM_SCR_ALL	668900
TTM_SCR_S	642650
TTM_SCR_SS	662500
TTM_RAT_ACV	10096

