VERSION	0.00.00	1.04.00
FES_MODE	0
BPM_DEF	210.000	210.000	210.000	210.000
MET_DEF	4	4
RESOLUTION	384
CLK_DEF	384
COMPATIBLE_CODE	MA2

BPM	0	0	210.000
MET	0	0	4	4

NMSTR	2	0	2
NMSCL	2	0	2	96	480	3
NMHLD	2	0	4	576
NMTAP	3	288	2
NMTAP	3	288	4
NMHLD	4	0	3	576
NMSTR	4	0	5
NMSCR	4	0	5	96	480	4
NMTAP	5	288	3
NMTAP	5	288	5
NMHLD	6	0	2	192
NMSTR	6	0	6
NMSI_	6	0	6	96	96	3
NMSTR	7	0	1
NMSCR	7	0	1	96	96	4
NMHLD	7	0	5	192
NMHLD	8	0	4	96
NMHLD	8	0	6	96
NMHLD	8	192	1	96
NMHLD	8	192	3	96
NMTAP	9	0	0
NMTAP	9	0	7
NMTAP	9	96	2
NMTAP	9	96	5
EXTAP	9	192	3
EXTAP	9	216	4
EXTAP	9	240	3
EXTAP	9	264	4
BXTAP	9	288	3
NMHLD	10	0	2	144
NMHLD	10	144	3	144
NMTAP	10	288	1
NMHLD	11	0	5	144
NMHLD	11	144	4	144
NMTAP	11	288	6
NMHLD	12	0	2	144
NMHLD	12	144	3	144
NMTAP	12	288	1
NMTAP	13	0	2
NMTAP	13	0	3
NMTAP	13	96	2
NMTAP	13	96	3
NMTAP	13	192	1
NMTAP	13	192	4
NMHLD	14	0	5	144
NMHLD	14	144	4	144
NMTAP	14	288	6
NMHLD	15	0	2	144
NMHLD	15	144	3	144
NMTAP	15	288	1
NMTAP	16	0	1
NMTAP	16	0	3
NMTAP	16	96	0
NMTAP	16	96	7
NMTAP	16	192	4
NMTAP	16	192	6
NMTAP	16	288	3
NMTAP	16	288	4
NMTAP	16	336	3
NMTAP	16	336	4
NMTAP	17	48	1
NMTAP	17	48	5
NMSTR	17	96	1
NMSI_	17	96	1	96	48	4
NMSTR	17	96	5
NMSI_	17	96	5	96	48	0
NMTAP	18	0	7
NMTAP	18	48	7
NMTAP	18	96	3
NMTAP	18	144	3
NMTAP	18	192	5
NMTAP	18	240	5
NMTAP	18	288	6
NMTAP	18	288	7
NMTAP	19	0	0
NMTAP	19	48	0
NMTAP	19	96	4
NMTAP	19	144	4
NMTAP	19	192	2
NMTAP	19	240	2
NMTAP	19	288	0
NMTAP	19	288	1
NMTAP	20	0	2
NMTAP	20	48	2
NMTAP	20	96	7
NMTAP	20	144	7
NMTAP	20	192	1
NMTAP	20	240	1
NMTAP	20	288	2
NMTAP	20	288	3
NMTAP	21	0	5
NMTAP	21	48	5
NMTAP	21	96	0
NMTAP	21	144	0
NMTAP	21	192	6
NMTAP	21	240	6
NMTAP	21	288	4
NMTAP	21	288	5
NMTAP	22	0	6
NMTAP	22	48	6
NMTAP	22	96	3
NMTAP	22	144	3
NMTAP	22	192	5
NMTAP	22	216	4
NMTAP	22	240	5
NMTAP	22	264	4
BRTAP	22	288	5
NMTAP	23	0	1
NMTAP	23	48	1
NMTAP	23	96	4
NMTAP	23	144	4
NMTAP	23	192	2
NMTAP	23	216	3
NMTAP	23	240	2
NMTAP	23	264	3
BRTAP	23	288	2
NMTAP	24	0	3
NMTAP	24	0	4
NMTAP	24	96	4
NMTAP	24	96	6
NMTAP	24	192	0
NMTAP	24	192	7
NMTAP	24	288	1
NMTAP	24	288	3
NMTAP	24	336	1
NMTAP	24	336	3
NMTAP	25	48	3
NMTAP	25	48	4
NMTAP	25	96	3
NMSTR	25	96	4
NMSF_	25	96	4	96	96	0
NMTTP	26	0	0	E	0	M1
NMTTP	26	0	0	A	0	M1
NMTTP	26	0	1	E	0	M1
NMTTP	26	0	1	A	0	M1
NMTTP	26	0	7	A	0	M1
NMTTP	26	192	2	B	0	M1
NMTTP	26	192	3	B	0	M1
NMTTP	26	192	4	E	0	M1
NMTTP	26	192	4	A	0	M1
NMTTP	27	0	4	B	0	M1
NMTTP	27	0	5	B	0	M1
NMTTP	27	0	6	E	0	M1
NMTTP	27	0	6	A	0	M1
NMTTP	27	192	0	E	0	M1
NMTTP	27	192	0	A	0	M1
NMTTP	27	192	6	B	0	M1
NMTTP	27	192	7	B	0	M1
NMTTP	28	0	1	E	0	M1
NMTTP	28	24	1	B	0	M1
NMTTP	28	48	2	B	0	M1
NMTTP	28	72	3	E	0	M1
NMTTP	28	192	7	E	0	M1
NMTTP	28	216	6	B	0	M1
NMTTP	28	240	5	B	0	M1
NMTTP	28	264	5	E	0	M1
EXTAP	28	336	0
EXTAP	29	48	7
EXTAP	29	96	7
EXTAP	29	192	0
BXTAP	29	288	0
BXTAP	29	288	7
NMTTP	30	0	4	B	0	M1
NMTTP	30	0	5	B	0	M1
NMTTP	30	0	6	E	0	M1
NMTTP	30	0	6	A	0	M1
NMTTP	30	192	2	B	0	M1
NMTTP	30	192	3	B	0	M1
NMTTP	30	192	4	E	0	M1
NMTTP	30	192	4	A	0	M1
NMTTP	31	0	0	B	0	M1
NMTTP	31	0	1	B	0	M1
NMTTP	31	0	2	E	0	M1
NMTTP	31	0	2	A	0	M1
NMTTP	31	192	0	E	0	M1
NMTTP	31	192	0	A	0	M1
NMTTP	31	192	6	B	0	M1
NMTTP	31	192	7	B	0	M1
NMTHO	32	0	0	384	C	1	M1
BRTAP	33	288	0
BRTAP	33	288	7
NMTAP	34	0	1
NMHLD	34	48	1	48
NMTAP	34	96	0
NMHLD	34	144	0	48
NMTAP	34	192	2
NMHLD	34	240	2	48
NMTAP	34	288	7
NMHLD	34	336	7	48
NMTAP	35	0	0
NMHLD	35	48	0	48
NMTAP	35	96	1
NMHLD	35	144	1	48
NMTAP	35	192	2
NMHLD	35	240	2	48
NMTAP	35	288	0
NMHLD	35	336	0	48
NMTAP	36	0	3
NMHLD	36	48	3	48
NMTAP	36	96	2
NMHLD	36	144	2	48
NMTAP	36	192	1
NMHLD	36	240	1	48
NMTAP	36	288	0
NMHLD	36	336	0	48
NMTAP	37	0	1
NMTAP	37	96	2
NMTAP	37	96	3
NMTAP	37	192	4
NMTAP	37	192	5
NMTAP	37	288	6
NMTAP	37	288	7
NMTAP	38	0	5
NMHLD	38	48	5	48
NMTAP	38	96	0
NMHLD	38	144	0	48
NMTAP	38	192	6
NMHLD	38	240	6	48
NMTAP	38	288	7
NMHLD	38	336	7	48
NMTAP	39	0	4
NMHLD	39	48	4	48
NMTAP	39	96	5
NMHLD	39	144	5	48
NMTAP	39	192	6
NMHLD	39	240	6	48
NMTAP	39	288	7
NMHLD	39	336	7	48
NMTAP	40	0	6
NMTAP	40	96	4
NMTAP	40	96	5
NMTAP	40	192	2
NMTAP	40	192	3
NMTAP	40	288	0
NMTAP	40	288	1
NMTAP	40	336	0
NMTAP	40	336	1
NMTAP	41	48	3
NMTAP	41	48	4
NMTAP	41	96	3
NMTAP	41	96	4
BRTAP	41	192	1
BRTAP	41	192	5
NMSTR	42	0	0
NMSCR	42	0	0	96	96	3
NMSTR	42	192	5
NMSCR	42	192	5	96	96	0
NMSTR	43	0	2
NMSCR	43	0	2	96	96	5
NMTAP	43	192	7
NMTAP	43	288	7
NMSTR	44	0	7
NMSCL	44	0	7	96	96	4
NMSTR	44	192	2
NMSCL	44	192	2	96	96	7
NMSTR	45	0	5
NMSCL	45	0	5	96	96	2
NMTAP	45	192	0
NMTAP	45	288	0
NMTAP	46	0	1
NMTAP	46	48	1
NMTAP	46	96	3
NMTAP	46	192	2
NMTAP	46	192	3
NMTAP	46	264	3
NMTAP	46	264	4
NMTAP	46	336	4
NMTAP	46	336	5
NMTAP	47	0	6
NMTAP	47	48	6
NMTAP	47	96	4
NMTAP	47	192	4
NMTAP	47	192	5
NMTAP	47	264	3
NMTAP	47	264	4
NMTAP	47	336	2
NMTAP	47	336	3
NMTAP	48	0	1
NMTAP	48	48	1
NMTAP	48	96	0
NMTAP	48	192	0
NMTAP	48	192	1
NMTAP	48	264	0
NMTAP	48	264	7
NMTAP	48	336	6
NMTAP	48	336	7
NMTAP	49	0	5
NMTAP	49	48	5
NMTAP	49	96	7
NMTAP	49	192	6
NMTAP	49	192	7
NMTAP	49	264	0
NMTAP	49	264	7
NMTAP	49	336	0
NMTAP	49	336	1
BXSTR	50	0	2
NMSLL	50	0	2	96	240	6
BXHLD	50	0	7	576
CNSLL	50	336	6	0	240	1
NMHLD	52	0	0	576
NMSTR	52	0	5
NMSLR	52	0	5	96	240	1
CNSLR	52	336	1	0	240	6
NMHLD	54	0	2	576
NMSTR	54	0	7
NMSUR	54	0	7	96	288	0
CNSLR	55	0	0	0	192	4
NMSTR	56	0	0
NMSLL	56	0	0	96	192	4
NMHLD	56	0	5	576
CNSUL	56	288	4	0	288	3
NMHLD	58	0	1	96
NMHLD	58	0	3	96
NMHLD	58	192	2	96
NMHLD	58	192	4	96
NMHLD	59	0	3	96
NMHLD	59	0	5	96
NMHLD	59	192	4	96
NMHLD	59	192	6	96
NMHLD	60	0	3	96
NMHLD	60	0	6	96
NMHLD	60	192	2	96
NMHLD	60	192	5	96
NMHLD	61	0	1	96
NMHLD	61	0	4	96
NMHLD	61	192	0	96
NMHLD	61	192	3	96
NMHLD	62	0	1	96
NMHLD	62	96	3	96
NMHLD	62	192	4	96
NMHLD	62	288	6	96
NMHLD	63	0	0	96
NMHLD	63	96	2	96
NMHLD	63	192	4	96
NMHLD	63	288	6	96
NMTHO	64	0	0	384	C	1	M1
NMTTP	65	0	1	B	0	M1
NMTTP	65	0	2	B	0	M1
NMTTP	65	0	5	B	0	M1
NMTTP	65	0	6	B	0	M1
NMSTR	66	0	7
NMSF_	66	0	7	96	96	3
BRSTR	66	288	1
NMSI_	66	288	1	96	48	3
BRTAP	66	288	5
NMSTR	67	0	7
NMSI_	67	0	7	96	48	5
NMSTR	67	96	0
NMSI_	67	96	0	96	48	4
NMTAP	67	192	6
NMTAP	67	288	5
NMTAP	67	336	5
NMTAP	68	48	6
NMTAP	68	48	7
NMTAP	68	96	6
NMTAP	68	96	7
NMSTR	68	192	0
NMSI_	68	192	0	96	48	5
NMSTR	68	192	1
NMSI_	68	192	1	96	48	4
NMTAP	69	0	6
NMTAP	69	48	6
NMTAP	69	96	4
NMTAP	69	144	4
NMTAP	69	192	3
NMTAP	69	240	3
NMTAP	69	288	1
NMTAP	70	0	2
NMTAP	70	0	3
NMTAP	70	96	4
NMTAP	70	96	5
NMTAP	70	192	6
NMTAP	70	192	7
NMTAP	70	240	6
NMTAP	70	240	7
NMSTR	70	288	6
NMSI_	70	288	6	96	48	4
NMTAP	70	288	7
NMSTR	71	0	0
NMSI_	71	0	0	96	48	2
NMSTR	71	96	7
NMSI_	71	96	7	96	48	3
NMTAP	71	192	1
NMTAP	71	288	2
NMTAP	71	336	2
NMTAP	72	48	0
NMTAP	72	48	1
NMTAP	72	96	0
NMTAP	72	96	1
NMSTR	72	192	2
NMSCL	72	192	2	96	48	7
NMSTR	72	192	7
NMSCL	72	192	7	96	48	4
NMTAP	73	0	5
NMTAP	73	48	5
NMTAP	73	96	7
NMTAP	73	144	7
NMTAP	73	192	0
NMTAP	73	240	0
NMTAP	73	288	2
EXTAP	74	0	1
EXTAP	74	0	3
EXTAP	74	96	4
EXTAP	74	96	6
EXTAP	74	192	0
EXTAP	74	192	7
EXTAP	74	240	0
EXTAP	74	240	7
BRTAP	74	288	1
BRSTR	74	288	6
NMSI_	74	288	6	96	48	1
NMSTR	75	0	2
NMSI_	75	0	2	96	48	5
NMSTR	75	96	7
NMSI_	75	96	7	96	48	3
NMTAP	75	192	2
NMTAP	75	288	1
NMTAP	75	336	1
NMTAP	76	48	0
NMTAP	76	48	1
NMTAP	76	96	0
NMTAP	76	96	1
NMSTR	76	192	6
NMSI_	76	192	6	96	48	2
NMSTR	76	192	7
NMSI_	76	192	7	96	48	3
NMTAP	77	0	1
NMTAP	77	48	1
NMTAP	77	96	3
NMTAP	77	144	3
NMTAP	77	192	5
NMTAP	77	240	5
NMTAP	77	288	7
NMHLD	77	336	7	96
NMTAP	78	48	0
NMSTR	78	96	0
NMSCR	78	96	0	96	48	3
NMSTR	78	96	7
NMSCL	78	96	7	96	48	4
BRSTR	78	288	2
NMSI_	78	288	2	96	48	5
BRTAP	78	288	5
NMSTR	79	0	6
NMSI_	79	0	6	96	48	1
NMSTR	79	96	0
NMSI_	79	96	0	96	48	4
NMTAP	79	192	7
NMTAP	79	288	6
NMTAP	79	336	6
NMTAP	80	48	6
NMTAP	80	48	7
NMTAP	80	96	6
NMTAP	80	96	7
NMTAP	80	192	4
NMTAP	80	192	5
NMTAP	80	288	3
NMTAP	80	288	6
NMTAP	81	0	2
NMTAP	81	48	1
NMTAP	81	96	0
NMTAP	81	144	7
NMTAP	81	192	6
NMTAP	81	240	5
NMTAP	81	288	3
NMTAP	81	288	4
NMTTP	82	0	0	A	0	M1
NMTTP	82	0	0	D	1	M1
NMTTP	82	0	1	D	0	M1
NMTTP	82	0	7	A	0	M1
NMTTP	82	0	7	D	0	M1
BXTAP	83	0	0
BXTAP	83	0	1
BXTAP	83	96	2
BXTAP	83	96	3
BXTAP	83	192	4
BXTAP	83	192	5
BXTAP	83	240	4
BXTAP	83	240	5
BXTAP	83	336	6
BXTAP	83	336	7
BXTAP	84	48	0
BXTAP	84	72	7
BXTAP	84	96	0
BXTAP	84	144	1
BXTAP	84	144	6
BXSTR	84	192	1
NMSI_	84	192	1	96	48	3
BXSTR	84	192	6
NMSI_	84	192	6	96	48	4
EXTAP	85	0	2
EXTAP	85	0	5
BRTAP	85	96	1
BRSTR	85	96	7
NMSI_	85	96	7	96	48	3
NMSTR	85	192	0
NMSI_	85	192	0	96	48	4
NMSTR	85	288	6
NMSI_	85	288	6	96	48	3
NMSTR	86	0	1
NMSI_	86	0	1	96	48	4
NMSTR	86	96	7
NMSI_	86	96	7	96	48	3
NMSTR	86	192	0
NMSI_	86	192	0	96	48	4
NMSTR	86	288	5
NMSCR	86	288	5	96	192	4
NMTAP	87	288	4
NMTAP	87	288	5
NMTAP	87	336	4
NMTAP	87	336	5
NMTAP	88	48	6
NMTAP	88	48	7
NMSTR	88	96	6
NMSI_	88	96	6	96	48	2
NMSI_	88	96	6	96	48	3
NMTAP	88	96	7
NMTAP	88	288	1
NMTAP	88	288	4
NMTAP	89	0	2
NMTAP	89	48	2
NMTAP	89	96	0
NMTAP	89	144	0
NMTAP	89	192	7
NMTAP	89	240	7
NMTAP	89	288	5
EXTAP	90	0	4
EXTAP	90	0	6
EXTAP	90	96	1
EXTAP	90	96	3
EXTAP	90	192	7
EXTAP	90	216	0
EXTAP	90	240	7
BRTAP	90	288	1
BRTAP	90	288	6
NMTAP	91	0	2
NMSTR	91	0	3
NMSI_	91	0	3	96	48	7
NMSTR	91	192	2
NMSI_	91	192	2	96	48	0
NMTAP	91	192	3
NMTAP	92	0	1
NMTAP	92	48	1
NMSTR	92	96	0
NMSCL	92	96	0	96	48	5
NMSTR	92	96	1
NMSCR	92	96	1	96	48	4
NMTAP	92	288	3
NMTAP	92	288	6
NMSTR	93	0	4
NMSI_	93	0	4	96	48	0
NMTAP	93	0	5
NMTAP	93	192	4
NMSTR	93	192	5
NMSI_	93	192	5	96	48	7
NMTAP	94	0	6
NMTAP	94	48	6
NMTAP	94	96	6
NMTAP	94	96	7
NMTAP	94	192	4
NMTAP	94	192	5
BRSTR	94	288	0
NMSCR	94	288	0	96	192	7
BRTAP	94	288	4
NMTTP	95	0	0	C	1	M1
NMTAP	95	288	0
NMTAP	95	288	6
NMTAP	95	336	0
NMTAP	95	336	6
NMTAP	96	48	3
NMTAP	96	48	4
NMSTR	96	96	3
NMSI_	96	96	3	96	48	1
NMSTR	96	96	4
NMSI_	96	96	4	96	48	6
NMTAP	96	288	0
NMTAP	96	288	7
NMTAP	97	0	6
NMTAP	97	48	5
NMTAP	97	96	4
NMTAP	97	144	3
NMTAP	97	192	2
NMTAP	97	240	1
BRSTR	97	288	0
NMSXL	97	288	0	96	288	3
BRSTR	97	288	7
NMSXR	97	288	7	96	288	4
NMHLD	99	0	1	288
NMHLD	99	0	3	288
NMHLD	100	0	4	288
NMHLD	100	0	6	288
NMHLD	101	0	2	96
NMHLD	101	0	7	96
NMHLD	101	192	0	96
NMHLD	101	192	5	96
NMTAP	102	0	1
NMTAP	102	24	6
NMTAP	102	48	1
NMTAP	102	72	6
NMTAP	102	96	1
NMTAP	102	120	6
NMTAP	102	144	1
NMTAP	102	168	6
NMTAP	102	192	0
NMTAP	102	216	7
NMTAP	102	240	0
NMTAP	102	264	7
NMTAP	102	288	0
NMTAP	102	312	7
NMTAP	102	336	0
NMTAP	102	360	7
NMTAP	103	0	0
NMTAP	103	24	1
NMTAP	103	48	2
NMTAP	103	72	3
NMTAP	103	96	4
NMTAP	103	120	5
NMTAP	103	144	6
NMTAP	103	168	7
NMTAP	103	192	0
NMTAP	103	216	1
NMTAP	103	240	2
NMTAP	103	264	3
NMTAP	103	288	4
NMTAP	103	312	5
NMTAP	103	336	6
NMTAP	103	360	7
NMTAP	104	0	0
BRSTR	104	96	2
BRSV_	104	96	2	96	192	0
BRSTR	104	96	6
BRSV_	104	96	6	96	192	4
NMTTP	105	96	0	C	1	M1
NMTTP	105	96	1	B	0	M1
NMTTP	105	96	1	A	0	M1
NMTTP	105	96	5	B	0	M1
NMTTP	105	96	5	A	0	M1

T_REC_TAP	320
T_REC_BRK	13
T_REC_XTP	25
T_REC_BXX	18
T_REC_HLD	74
T_REC_XHO	0
T_REC_BHO	0
T_REC_BXH	1
T_REC_STR	49
T_REC_BST	9
T_REC_XST	0
T_REC_XBS	3
T_REC_TTP	56
T_REC_THO	2
T_REC_SLD	60
T_REC_BSL	2
T_REC_ALL	632
T_NUM_TAP	450
T_NUM_BRK	46
T_NUM_HLD	76
T_NUM_SLD	60
T_NUM_ALL	632
T_JUDGE_TAP	493
T_JUDGE_HLD	236
T_JUDGE_SLD	62
T_JUDGE_ALL	791
TTM_EACHPAIRS	131
TTM_SCR_TAP	225000
TTM_SCR_BRK	119600
TTM_SCR_HLD	76000
TTM_SCR_SLD	90000
TTM_SCR_ALL	510600
TTM_SCR_S	490850
TTM_SCR_SS	506000
TTM_RAT_ACV	10090

