VERSION	0.00.00	1.04.00
FES_MODE	0
BPM_DEF	210.000	210.000	210.000	210.000
MET_DEF	4	4
RESOLUTION	384
CLK_DEF	384
COMPATIBLE_CODE	MA2

BPM	0	0	210.000
MET	0	0	4	4

NMSTR	2	0	1
NMSUR	2	0	1	96	480	4
NMSTR	4	0	6
NMSUL	4	0	6	96	480	3
NMSTR	6	0	1
NMSI_	6	0	1	96	192	4
NMSTR	7	0	6
NMSI_	7	0	6	96	192	2
NMSTR	8	0	0
NMSI_	8	0	0	96	192	4
NMTAP	9	0	5
NMTAP	9	192	4
NMTAP	9	192	5
NMTAP	10	0	6
NMTAP	10	96	6
NMTAP	10	192	6
NMTAP	11	0	5
NMTAP	11	96	5
NMTAP	11	192	5
NMTAP	12	0	4
NMTAP	12	96	4
NMTAP	12	192	4
NMTAP	13	0	2
NMTAP	13	0	3
NMTAP	13	192	2
NMTAP	13	192	3
NMTAP	14	0	1
NMTAP	14	96	1
NMTAP	14	192	1
NMTAP	15	0	2
NMTAP	15	96	2
NMTAP	15	192	2
NMTAP	16	0	3
NMTAP	16	96	3
NMTAP	16	192	3
NMTAP	17	0	4
NMTAP	17	0	5
NMTAP	17	192	4
NMTAP	17	192	5
NMTAP	18	0	4
NMTAP	18	96	4
NMTAP	18	192	5
NMTAP	19	0	6
NMTAP	19	96	6
NMTAP	19	192	7
NMTAP	20	0	0
NMTAP	20	96	0
NMTAP	20	192	1
NMTAP	21	0	2
NMTAP	21	96	2
NMTAP	21	192	2
NMTAP	21	192	3
NMTAP	22	0	3
NMTAP	22	96	3
NMTAP	22	192	2
NMTAP	23	0	1
NMTAP	23	96	1
NMTAP	23	192	0
NMTAP	24	0	7
NMTAP	24	96	7
NMTAP	24	192	6
NMTAP	25	0	5
NMTAP	25	96	5
NMTAP	25	192	4
NMTAP	25	192	5
NMTTP	26	0	6	B	0	L1
NMTTP	26	96	5	B	0	L1
NMTTP	26	192	4	B	0	L1
NMTTP	27	0	1	B	0	L1
NMTTP	27	96	2	B	0	L1
NMTTP	27	192	3	B	0	L1
NMTTP	28	0	6	B	0	L1
NMTTP	28	96	5	B	0	L1
NMTTP	28	192	4	B	0	L1
NMTTP	28	288	3	B	0	L1
NMTTP	29	0	2	B	0	L1
NMTTP	29	96	1	B	0	L1
NMTTP	29	192	0	C	0	L1
NMTTP	30	0	0	B	0	L1
NMTTP	30	96	1	B	0	L1
NMTTP	30	192	2	B	0	L1
NMTTP	30	192	3	B	0	L1
NMTTP	31	0	7	B	0	L1
NMTTP	31	96	6	B	0	L1
NMTTP	31	192	4	B	0	L1
NMTTP	31	192	5	B	0	L1
NMTTP	32	0	1	B	0	L1
NMTTP	32	96	2	B	0	L1
NMTTP	32	192	3	B	0	L1
NMTTP	32	288	4	B	0	L1
NMTTP	33	0	0	C	1	L1
EXTAP	34	0	1
EXTAP	34	96	1
EXTAP	34	192	0
EXTAP	34	288	0
EXTAP	35	0	7
EXTAP	35	96	7
EXTAP	35	192	6
EXTAP	35	192	7
NMTAP	36	0	5
NMTAP	36	96	5
NMTAP	36	192	6
NMTAP	36	288	6
NMTAP	37	0	7
NMTAP	37	96	7
NMTAP	37	192	0
NMTAP	37	192	1
NMTAP	38	0	1
NMTAP	38	96	1
NMTAP	38	192	2
NMTAP	38	288	2
NMTAP	39	0	3
NMTAP	39	96	3
NMTAP	39	192	4
NMTAP	39	192	5
NMTAP	40	0	6
NMTAP	40	96	6
NMTAP	40	192	5
NMTAP	40	288	5
NMTAP	41	0	4
NMTAP	41	96	4
NMTAP	41	192	2
NMTAP	41	192	3
NMTAP	42	0	1
NMTAP	42	96	1
NMTAP	42	192	0
NMTAP	42	192	1
NMTAP	43	0	2
NMTAP	43	96	2
NMTAP	43	192	2
NMTAP	43	192	3
NMTAP	44	0	4
NMTAP	44	96	4
NMTAP	44	192	4
NMTAP	44	192	5
NMTAP	45	0	6
NMTAP	45	0	7
NMTAP	45	96	6
NMTAP	45	96	7
NMTAP	45	192	6
NMTAP	45	192	7
NMTAP	46	0	6
NMTAP	46	96	6
NMTAP	46	192	6
NMTAP	46	192	7
NMTAP	47	0	5
NMTAP	47	96	5
NMTAP	47	192	4
NMTAP	47	192	5
NMTAP	48	0	3
NMTAP	48	96	3
NMTAP	48	192	2
NMTAP	48	192	3
NMTAP	49	0	0
NMTAP	49	0	1
NMTAP	49	96	0
NMTAP	49	96	1
NMTAP	49	192	0
NMTAP	49	192	1
NMSTR	50	0	1
NMSI_	50	0	1	96	288	4
NMTAP	51	192	5
NMSTR	52	0	6
NMSI_	52	0	6	96	288	3
NMTAP	53	192	2
NMSTR	54	0	1
NMSI_	54	0	1	96	288	5
NMTAP	55	192	6
NMSTR	56	0	7
NMSI_	56	0	7	96	288	3
NMTAP	57	192	3
NMTAP	57	192	4
NMHLD	58	0	5	192
NMHLD	58	192	4	192
NMHLD	59	0	3	192
NMTAP	59	192	2
NMHLD	60	0	2	192
NMHLD	60	192	3	192
NMHLD	61	0	4	192
NMTAP	61	192	5
NMHLD	62	0	6	192
NMHLD	62	192	5	192
NMHLD	63	0	4	192
NMTAP	63	192	3
NMHLD	64	0	1	192
NMHLD	64	192	2	192
NMHLD	65	0	3	192
NMTAP	65	192	4
NMHLD	66	0	3	192
NMHLD	66	0	4	192
NMTAP	67	0	5
NMTAP	67	96	5
NMTAP	67	192	6
NMTAP	67	192	7
NMTAP	67	288	6
NMTAP	67	288	7
NMTAP	68	0	0
NMTAP	68	96	0
NMTAP	68	192	0
NMTAP	68	192	1
NMTAP	69	0	2
NMTAP	69	96	2
NMTAP	69	192	0
NMTAP	69	192	1
NMTAP	69	288	0
NMTAP	69	288	1
NMTAP	70	0	7
NMTAP	70	96	7
NMTAP	70	192	6
NMTAP	70	192	7
NMTAP	71	0	6
NMTAP	71	96	6
NMTAP	71	192	4
NMTAP	71	192	5
NMTAP	71	288	4
NMTAP	71	288	5
NMTAP	72	0	3
NMTAP	72	96	3
NMTAP	72	192	2
NMTAP	72	192	3
NMTAP	73	0	1
NMTAP	73	96	1
NMTAP	73	192	2
NMTAP	73	192	3
NMTAP	73	288	2
NMTAP	73	288	3
NMTAP	74	0	4
NMTAP	74	96	4
BRTAP	74	192	4
BRTAP	74	192	5
NMTAP	75	0	5
NMTAP	75	96	5
NMTAP	75	192	6
NMTAP	75	192	7
NMTAP	75	288	6
NMTAP	75	288	7
NMTAP	76	0	0
NMTAP	76	96	0
NMTAP	76	192	0
NMTAP	76	192	1
NMTAP	76	288	0
NMTAP	76	288	1
NMTAP	77	0	2
NMTAP	77	96	2
NMTAP	77	192	0
NMTAP	77	192	1
NMTAP	77	288	0
NMTAP	77	288	1
NMTAP	78	0	7
NMTAP	78	96	7
NMTAP	78	192	6
NMTAP	78	192	7
NMTAP	79	0	6
NMTAP	79	96	6
NMTAP	79	192	4
NMTAP	79	192	5
NMTAP	79	288	4
NMTAP	79	288	5
NMTAP	80	0	3
NMTAP	80	96	3
NMTAP	80	192	2
NMTAP	80	192	3
NMTAP	80	288	2
NMTAP	80	288	3
NMTAP	81	0	1
NMTAP	81	96	1
NMTAP	81	192	2
NMTAP	81	192	3
NMTAP	81	288	2
NMTAP	81	288	3
NMTAP	82	0	4
NMTAP	82	96	4
NMTAP	82	192	4
NMTAP	82	192	5
EXTAP	83	0	4
EXTAP	83	0	6
EXTAP	83	96	4
EXTAP	83	96	6
EXTAP	83	192	4
EXTAP	83	192	6
EXTAP	84	0	1
EXTAP	84	0	3
EXTAP	84	96	1
EXTAP	84	96	3
EXTAP	84	192	1
EXTAP	84	192	3
NMTAP	85	0	2
NMTAP	85	96	1
NMTAP	85	192	0
NMTAP	85	288	7
NMTAP	86	0	6
NMTAP	86	96	5
NMTAP	86	192	3
NMTAP	86	192	4
NMTAP	87	0	5
NMTAP	87	96	5
NMTAP	87	192	5
NMTAP	87	288	4
NMTAP	87	288	5
NMTAP	88	0	6
NMTAP	88	96	6
NMTAP	88	192	6
NMTAP	88	288	6
NMTAP	88	288	7
NMTAP	89	0	0
NMTAP	89	96	0
NMTAP	89	192	0
NMTAP	89	288	0
NMTAP	89	288	1
NMTAP	90	0	2
NMTAP	90	0	3
NMTAP	90	96	2
NMTAP	90	96	3
NMTAP	90	192	1
NMTAP	90	192	4
NMTAP	91	0	3
NMTAP	91	96	2
NMTAP	91	192	1
NMTAP	91	288	0
NMTAP	92	0	7
NMTAP	92	96	6
NMTAP	92	192	4
NMTAP	92	192	5
NMTAP	93	0	4
NMTAP	93	96	5
NMTAP	93	192	6
NMTAP	93	288	7
NMTAP	94	0	0
NMTAP	94	96	1
NMTAP	94	192	2
NMTAP	94	192	3
NMTAP	95	0	2
NMTAP	95	96	2
NMTAP	95	192	2
NMTAP	95	288	2
NMTAP	95	288	3
NMTAP	96	0	1
NMTAP	96	96	1
NMTAP	96	192	1
NMTAP	96	288	0
NMTAP	96	288	1
NMTAP	97	0	7
NMTAP	97	96	7
NMTAP	97	192	7
NMTAP	97	288	6
NMTAP	97	288	7
NMTAP	98	0	4
NMTAP	98	0	5
NMTAP	98	96	4
NMTAP	98	96	5
NMTAP	98	192	3
NMTAP	98	192	6
NMTAP	99	0	4
NMTAP	99	96	5
NMTAP	99	192	6
NMTAP	99	288	7
NMTAP	100	0	0
NMTAP	100	96	1
NMTAP	100	192	2
NMTAP	100	288	3
NMTAP	101	0	4
NMTAP	101	96	4
NMTAP	101	192	3
NMTAP	101	288	3
NMTAP	102	0	3
NMTAP	102	0	4
NMTAP	102	96	3
NMTAP	102	96	4
NMTAP	102	192	2
NMTAP	102	192	5
NMTAP	102	288	2
NMTAP	102	288	5
NMTAP	103	0	1
NMTAP	103	0	6
NMTAP	103	96	1
NMTAP	103	96	6
NMTAP	103	192	0
NMTAP	103	192	7
NMTAP	103	288	0
NMTAP	103	288	7
EXSTR	104	0	1
NMSLR	104	0	1	96	384	0
EXSTR	104	0	6
NMSLL	104	0	6	96	384	7

T_REC_TAP	300
T_REC_BRK	2
T_REC_XTP	20
T_REC_BXX	0
T_REC_HLD	14
T_REC_XHO	0
T_REC_BHO	0
T_REC_BXH	0
T_REC_STR	9
T_REC_BST	0
T_REC_XST	2
T_REC_XBS	0
T_REC_TTP	26
T_REC_THO	0
T_REC_SLD	11
T_REC_BSL	0
T_REC_ALL	384
T_NUM_TAP	357
T_NUM_BRK	2
T_NUM_HLD	14
T_NUM_SLD	11
T_NUM_ALL	384
T_JUDGE_TAP	359
T_JUDGE_HLD	56
T_JUDGE_SLD	11
T_JUDGE_ALL	426
TTM_EACHPAIRS	81
TTM_SCR_TAP	178500
TTM_SCR_BRK	5200
TTM_SCR_HLD	14000
TTM_SCR_SLD	16500
TTM_SCR_ALL	214200
TTM_SCR_S	207600
TTM_SCR_SS	214000
TTM_RAT_ACV	10009

