VERSION	0.00.00	1.04.00
FES_MODE	0
BPM_DEF	210.000	210.000	210.000	210.000
MET_DEF	4	4
RESOLUTION	384
CLK_DEF	384
COMPATIBLE_CODE	MA2

BPM	0	0	210.000
MET	0	0	4	4

NMTAP	10	0	0
NMTAP	10	192	0
NMTAP	11	0	1
NMTAP	11	192	1
NMTAP	12	0	2
NMTAP	12	192	2
NMTAP	13	0	2
NMTAP	13	0	3
NMTAP	14	0	4
NMTAP	14	192	4
NMTAP	15	0	5
NMTAP	15	192	5
NMTAP	16	0	6
NMTAP	16	192	6
EXTAP	17	0	6
EXTAP	17	0	7
NMTAP	18	0	7
NMTAP	18	192	7
NMTAP	19	0	6
NMTAP	19	192	6
NMTAP	20	0	5
NMTAP	20	192	5
NMTAP	21	0	3
NMTAP	21	0	4
NMTAP	21	192	3
NMTAP	21	192	4
NMTAP	22	0	3
NMTAP	22	192	3
NMTAP	23	0	2
NMTAP	23	192	2
NMTAP	24	0	1
NMTAP	24	192	1
EXTAP	25	0	0
EXTAP	25	0	7
NMHLD	26	0	0	384
NMHLD	26	0	1	384
NMHLD	28	0	2	384
NMHLD	28	0	3	384
NMHLD	30	0	4	384
NMHLD	30	0	5	384
NMHLD	32	0	6	384
NMHLD	32	0	7	384
NMTAP	34	0	7
NMTAP	34	96	7
NMTAP	34	192	7
NMTAP	35	0	6
NMTAP	35	192	6
NMTAP	36	0	5
NMTAP	36	96	5
NMTAP	36	192	5
BRTAP	37	0	3
BRTAP	37	0	4
NMTAP	38	0	3
NMTAP	38	96	3
NMTAP	38	192	3
NMTAP	39	0	2
NMTAP	39	192	2
NMTAP	40	0	1
NMTAP	40	96	1
NMTAP	40	192	1
BXTAP	41	0	0
BXTAP	41	0	7
NMTAP	42	0	7
NMTAP	42	192	7
NMTAP	43	0	6
NMTAP	43	0	7
NMTAP	44	0	0
NMTAP	44	192	0
NMTAP	45	0	0
NMTAP	45	0	1
NMTAP	46	0	1
NMTAP	46	96	1
NMTAP	46	192	0
NMTAP	46	192	1
NMTAP	47	0	2
NMTAP	47	96	2
NMTAP	47	192	2
NMTAP	47	192	3
NMTAP	48	0	4
NMTAP	48	96	4
NMTAP	48	192	4
NMTAP	48	192	5
NMTAP	49	0	6
NMTAP	49	96	6
NMTAP	49	192	6
NMTAP	49	192	7
NMSTR	50	0	0
NMSI_	50	0	0	96	288	4
NMSTR	52	0	6
NMSI_	52	0	6	96	288	2
NMSTR	54	0	1
NMSI_	54	0	1	96	288	5
NMSTR	56	0	7
NMSI_	56	0	7	96	288	3
NMTTP	58	0	3	B	0	L1
NMTTP	58	0	4	B	0	L1
NMTTP	59	0	2	B	0	L1
NMTTP	59	0	5	B	0	L1
NMTTP	60	0	1	B	0	L1
NMTTP	60	0	6	B	0	L1
NMTTP	61	0	0	B	0	L1
NMTTP	61	0	7	B	0	L1
NMTTP	62	0	1	E	0	L1
NMTTP	62	0	7	E	0	L1
NMTTP	63	0	2	E	0	L1
NMTTP	63	0	6	E	0	L1
NMTHO	64	0	0	384	C	1	L1
NMTAP	66	0	0
NMTAP	66	0	7
NMTAP	66	192	0
NMTAP	66	192	7
BRTAP	67	0	0
NMTAP	67	96	0
NMTAP	67	192	0
NMTAP	68	0	1
NMTAP	68	96	1
NMTAP	68	192	1
NMTAP	69	0	2
NMTAP	69	96	2
NMTAP	69	192	2
NMTAP	70	0	2
NMTAP	70	0	3
NMTAP	70	192	2
NMTAP	70	192	3
NMTAP	71	0	4
NMTAP	71	96	4
NMTAP	71	192	4
NMTAP	72	0	5
NMTAP	72	96	5
NMTAP	72	192	5
NMTAP	73	0	6
NMTAP	73	96	6
NMTAP	73	192	6
NMTAP	74	0	6
NMTAP	74	0	7
BRTAP	75	0	7
NMTAP	75	96	7
NMTAP	75	192	7
NMTAP	76	0	6
NMTAP	76	96	6
NMTAP	76	192	6
NMTAP	77	0	5
NMTAP	77	96	5
NMTAP	77	192	5
EXTAP	78	0	3
EXTAP	78	0	4
NMTAP	78	192	3
NMTAP	78	192	4
NMTAP	79	0	3
NMTAP	79	96	3
NMTAP	79	192	3
NMTAP	80	0	2
NMTAP	80	96	2
NMTAP	80	192	2
NMTAP	81	0	1
NMTAP	81	96	1
NMTAP	81	192	1
BRTAP	82	0	0
BRTAP	82	0	7
NMTAP	83	0	0
NMTAP	83	0	7
NMTAP	83	192	0
NMTAP	83	192	7
NMTAP	84	0	0
NMTAP	84	0	7
BRTAP	85	0	0
NMTAP	85	96	0
NMTAP	85	192	1
NMTAP	85	288	1
NMTAP	86	0	2
NMTAP	86	96	2
NMTAP	86	192	2
NMTAP	86	192	3
NMTAP	87	0	4
NMTAP	87	96	4
NMTAP	87	192	5
NMTAP	87	288	5
NMTAP	88	0	6
NMTAP	88	96	6
NMTAP	88	192	6
NMTAP	88	192	7
NMTAP	89	0	0
NMTAP	89	96	0
NMTAP	89	192	7
NMTAP	89	288	7
BRTAP	90	0	0
BRTAP	90	0	7
NMTAP	91	0	7
NMTAP	91	96	7
NMTAP	91	192	6
NMTAP	91	288	6
NMTAP	92	0	5
NMTAP	92	96	5
NMTAP	92	192	4
NMTAP	92	288	4
NMTAP	93	0	3
NMTAP	93	96	3
NMTAP	93	192	2
NMTAP	93	288	2
NMTAP	94	0	1
NMTAP	94	96	1
NMTAP	94	192	0
NMTAP	94	192	1
NMTAP	95	0	1
NMTAP	95	96	1
NMTAP	95	192	2
NMTAP	95	288	2
NMTAP	96	0	3
NMTAP	96	96	3
NMTAP	96	192	4
NMTAP	96	288	4
NMTAP	97	0	5
NMTAP	97	96	5
NMTAP	97	192	6
NMTAP	97	288	6
BRTAP	98	0	0
BRTAP	98	0	7
NMTAP	99	0	6
NMTAP	99	0	7
NMTAP	99	96	6
NMTAP	99	96	7
NMTAP	99	192	6
NMTAP	99	192	7
NMTAP	100	0	0
NMTAP	100	0	1
NMTAP	100	96	0
NMTAP	100	96	1
NMTAP	100	192	0
NMTAP	100	192	1
NMTAP	101	0	0
NMTAP	101	0	7
NMTAP	101	96	0
NMTAP	101	96	7
NMTAP	101	192	0
NMTAP	101	192	7
NMHLD	102	0	1	864
NMHLD	102	0	6	864

T_REC_TAP	187
T_REC_BRK	11
T_REC_XTP	6
T_REC_BXX	2
T_REC_HLD	10
T_REC_XHO	0
T_REC_BHO	0
T_REC_BXH	0
T_REC_STR	4
T_REC_BST	0
T_REC_XST	0
T_REC_XBS	0
T_REC_TTP	12
T_REC_THO	1
T_REC_SLD	4
T_REC_BSL	0
T_REC_ALL	237
T_NUM_TAP	209
T_NUM_BRK	13
T_NUM_HLD	11
T_NUM_SLD	4
T_NUM_ALL	237
T_JUDGE_TAP	222
T_JUDGE_HLD	108
T_JUDGE_SLD	4
T_JUDGE_ALL	334
TTM_EACHPAIRS	43
TTM_SCR_TAP	104500
TTM_SCR_BRK	33800
TTM_SCR_HLD	11000
TTM_SCR_SLD	6000
TTM_SCR_ALL	155300
TTM_SCR_S	149400
TTM_SCR_SS	154000
TTM_RAT_ACV	10084

