VERSION	0.00.00	1.04.00
FES_MODE	0
BPM_DEF	185.000	185.000	185.000	185.000
MET_DEF	4	4
RESOLUTION	384
CLK_DEF	384
COMPATIBLE_CODE	MA2

BPM	0	0	185.000
MET	0	0	4	4

NMTAP	1	0	3
NMTAP	1	0	4
NMTAP	1	192	3
NMTAP	1	192	4
NMTAP	2	0	3
NMTAP	2	0	4
NMSTR	2	96	3
NMSI_	2	96	3	96	48	0
NMSTR	2	96	4
NMSI_	2	96	4	96	48	7
NMSTR	3	0	1
NMSI_	3	0	1	96	48	3
NMHLD	3	0	5	288
NMSTR	3	192	1
NMSI_	3	192	1	96	48	3
NMSTR	4	0	0
BRSI_	4	0	0	96	48	4
NMHLD	4	0	6	288
NMSTR	4	192	0
BRSI_	4	192	0	96	48	4
NMSTR	5	0	1
NMSCR	5	0	1	96	48	3
NMHLD	5	0	5	288
NMSTR	5	192	1
NMSCR	5	192	1	96	48	3
NMSTR	6	0	0
BRSUR	6	0	0	96	48	4
NMHLD	6	0	6	288
NMSTR	6	192	0
BRSUR	6	192	0	96	48	4
NMSTR	7	0	0
NMSI_	7	0	0	96	48	4
NMSTR	7	0	1
NMSI_	7	0	1	96	48	3
NMSTR	7	192	0
NMSI_	7	192	0	96	48	4
NMSTR	7	192	1
NMSI_	7	192	1	96	48	3
NMSTR	8	0	0
NMSUR	8	0	0	96	48	4
NMSTR	8	0	1
NMSCR	8	0	1	96	48	3
NMSTR	8	192	0
NMSUR	8	192	0	96	48	4
NMSTR	8	192	1
NMSCR	8	192	1	96	48	3
NMSTR	9	0	0
NMSI_	9	0	0	96	48	5
NMSTR	9	0	1
NMSI_	9	0	1	96	48	4
NMSTR	9	192	0
NMSI_	9	192	0	96	48	4
NMSTR	9	192	1
NMSI_	9	192	1	96	48	5
EXTAP	10	0	0
EXTAP	10	0	1
EXSTR	10	96	0
BRSSL	10	96	0	96	96	4
EXSTR	10	96	1
BRSSR	10	96	1	96	96	5
NMHLD	11	0	3	96
NMHLD	11	0	6	96
NMHLD	11	192	0	96
NMHLD	11	192	7	96
NMTAP	12	0	1
NMTAP	12	48	1
NMTAP	12	96	4
NMTAP	12	192	2
NMTAP	12	192	5
NMTAP	12	288	3
NMTAP	12	312	4
NMTAP	12	336	3
NMTAP	12	360	4
NMSTR	13	0	3
NMSI_	13	0	3	96	48	7
BRTAP	13	96	3
NMTAP	13	144	4
NMTAP	13	192	5
NMTAP	13	240	6
NMTAP	13	288	7
NMHLD	14	0	0	96
NMSTR	14	0	1
BRSCR	14	0	1	96	48	4
NMHLD	14	192	0	96
NMSTR	14	192	1
BRSCR	14	192	1	96	48	4
NMTAP	15	0	2
NMTAP	15	0	7
NMTAP	15	48	1
NMTAP	15	72	0
NMTAP	15	96	1
NMTAP	15	144	6
NMTAP	15	192	0
NMTAP	15	192	5
NMTAP	15	240	6
NMTAP	15	264	7
NMTAP	15	288	6
NMTAP	15	336	1
NMTAP	16	0	2
NMTAP	16	0	7
NMTAP	16	48	1
NMTAP	16	72	0
NMTAP	16	96	2
NMTAP	16	144	4
NMTAP	16	192	3
NMTAP	16	192	5
NMTAP	16	288	2
NMTAP	16	336	1
NMTAP	17	0	0
NMTAP	17	0	5
NMTAP	17	48	6
NMTAP	17	72	7
NMTAP	17	96	6
NMTAP	17	144	3
NMTAP	17	192	4
NMTAP	17	240	1
NMTAP	17	264	0
NMTAP	17	288	1
NMTAP	18	0	2
NMSTR	18	0	3
NMSCR	18	0	3	96	48	7
NMSUR	18	0	3	96	48	7
NMHLD	18	192	0	96
NMSTR	18	192	1
BRSCR	18	192	1	96	48	4
BRTAP	19	0	3
BRTAP	19	0	6
NMTAP	19	48	5
NMTAP	19	72	4
NMTAP	19	96	5
NMTAP	19	144	2
NMTAP	19	192	1
NMTAP	19	192	4
NMTAP	19	240	2
NMTAP	19	264	3
NMTAP	19	288	2
NMTAP	19	336	5
NMTAP	20	0	3
NMTAP	20	0	6
NMTAP	20	48	5
NMTAP	20	72	4
NMTAP	20	96	6
NMTAP	20	144	0
NMTAP	20	192	1
NMTAP	20	192	7
NMTAP	20	288	6
NMTAP	20	336	5
NMTAP	21	0	1
NMTAP	21	0	4
NMTAP	21	48	2
NMTAP	21	72	3
NMTAP	21	96	2
NMTAP	21	144	7
NMTAP	21	192	0
NMTAP	21	240	5
NMTAP	21	264	4
NMTAP	21	288	5
NMSTR	22	0	1
BRSUR	22	0	1	96	48	5
NMHLD	22	0	7	96
NMSTR	22	192	1
BRSUR	22	192	1	96	48	5
NMHLD	22	192	7	96
NMTAP	23	0	2
NMTAP	23	0	7
NMTAP	23	48	1
NMTAP	23	72	0
NMTAP	23	96	1
NMTAP	23	144	4
NMTAP	23	192	3
NMTAP	23	240	6
NMTAP	23	264	7
NMTAP	23	288	6
NMTAP	23	336	3
NMTAP	24	0	4
NMTAP	24	48	1
NMTAP	24	72	0
NMTAP	24	96	2
NMTAP	24	144	4
NMTAP	24	192	3
NMTAP	24	192	5
NMTAP	24	288	2
NMTAP	24	288	4
NMTAP	25	0	5
NMTAP	25	24	4
NMTAP	25	48	5
NMTAP	25	72	4
BRTAP	25	96	7
NMTAP	25	192	2
NMTAP	25	216	3
NMTAP	25	240	2
NMTAP	25	264	3
BRTAP	25	288	0
NMTAP	26	0	1
NMTAP	26	24	7
NMTAP	26	48	1
NMTAP	26	72	7
NMTAP	26	96	1
NMTAP	26	120	7
NMTAP	26	144	1
BRTAP	26	192	3
BRTAP	26	192	5
BRTAP	26	240	1
BRTAP	26	240	7
BRTAP	26	288	2
BRTAP	26	288	6
NMSTR	27	0	1
NMSI_	27	0	1	96	48	4
NMHLD	27	0	7	288
NMSTR	27	192	1
NMSI_	27	192	1	96	48	4
NMSTR	28	0	0
BRSI_	28	0	0	96	48	5
NMHLD	28	0	6	288
NMSTR	28	192	0
BRSI_	28	192	0	96	48	5
NMSTR	29	0	1
NMSCR	29	0	1	96	48	4
NMHLD	29	0	7	288
NMSTR	29	192	1
NMSCR	29	192	1	96	48	4
NMSTR	30	0	0
BRSV_	30	0	0	96	48	5
NMHLD	30	0	6	288
NMSTR	30	192	0
BRSV_	30	192	0	96	48	5
NMSTR	31	0	1
NMSI_	31	0	1	96	32	3
NMTAP	31	0	7
NMTAP	31	96	7
CNSCR	31	128	3	0	16	4
NMSTR	31	192	1
NMSI_	31	192	1	96	32	3
NMTAP	31	192	7
NMTAP	31	288	7
CNSCR	31	320	3	0	16	4
NMSTR	32	0	0
BRSUR	32	0	0	96	48	5
NMTAP	32	0	6
NMTAP	32	96	6
NMSTR	32	192	0
BRSUR	32	192	0	96	48	5
NMTAP	32	192	6
NMTAP	32	288	6
EXSTR	33	0	1
NMSI_	33	0	1	96	48	5
NMTAP	33	0	7
EXSTR	33	96	1
NMSCR	33	96	1	96	48	3
NMTAP	33	96	7
EXTAP	33	192	1
NMTAP	33	192	6
CNSI_	33	240	3	0	48	7
EXSTR	34	0	0
BRSI_	34	0	0	96	48	4
NMTAP	34	0	5
EXSTR	34	96	0
BRSCR	34	96	0	96	48	3
NMTAP	34	96	5
BXTAP	34	192	0
NMTAP	34	192	5
CNSI_	34	240	3	0	48	7
NMSTR	35	0	1
NMSCR	35	0	1	96	48	5
NMHLD	35	0	7	288
NMSTR	35	192	1
NMSCR	35	192	1	96	48	5
NMSTR	36	0	0
BRSCR	36	0	0	96	48	4
NMHLD	36	0	6	288
NMSTR	36	192	0
BRSCR	36	192	0	96	48	4
NMSTR	37	0	1
NMSLR	37	0	1	96	48	5
NMHLD	37	0	7	288
NMSTR	37	192	1
NMSLR	37	192	1	96	48	5
NMSTR	38	0	0
BRSLR	38	0	0	96	48	4
NMHLD	38	0	6	288
NMSTR	38	192	0
BRSLR	38	192	0	96	48	4
NMSTR	39	0	1
NMSCR	39	0	1	96	24	3
NMTAP	39	0	7
NMTAP	39	96	7
CNSI_	39	120	3	0	24	5
NMSTR	39	192	1
NMSCR	39	192	1	96	24	3
NMTAP	39	192	7
NMTAP	39	288	7
CNSI_	39	312	3	0	24	5
NMSTR	40	0	0
BRSI_	40	0	0	96	24	2
NMTAP	40	0	6
NMTAP	40	96	6
CNSCR	40	120	2	0	24	4
NMSTR	40	192	0
BRSI_	40	192	0	96	24	2
NMTAP	40	192	6
NMTAP	40	288	6
CNSCR	40	312	2	0	24	4
NMSTR	41	0	1
NMSI_	41	0	1	96	96	5
NMSCL	41	0	1	96	192	2
NMTTP	42	0	0	C	1	M1
NMTTP	42	0	1	B	0	M1
NMTTP	42	0	1	A	0	M1
NMTTP	42	0	2	B	0	M1
NMTTP	42	0	2	A	0	M1
NMTTP	42	0	5	B	0	M1
NMTTP	42	0	5	A	0	M1
NMTTP	42	0	6	B	0	M1
NMTTP	42	0	6	A	0	M1
NMTAP	42	192	0
NMTAP	42	192	7
NMTAP	42	240	0
NMTAP	42	240	7
NMTAP	42	288	0
NMTAP	42	288	7
NMTAP	43	0	1
NMTAP	43	96	2
NMTAP	43	96	3
NMTAP	43	192	1
NMSTR	43	288	2
NMSUR	43	288	2	96	240	4
NMTAP	43	288	3
NMTAP	44	0	4
NMTAP	44	96	5
NMTAP	44	144	5
NMTAP	44	240	7
NMTAP	44	336	6
NMHLD	45	0	6	96
NMHLD	45	96	5	96
NMTAP	45	192	4
NMTAP	45	240	4
NMTAP	45	288	3
NMTAP	45	336	3
NMTAP	46	48	4
NMTAP	46	48	5
NMTAP	46	144	2
NMTAP	46	144	3
NMSTR	46	192	2
NMSCR	46	192	2	96	96	5
NMTAP	46	192	3
NMHLD	47	0	6	96
NMTAP	47	96	4
NMHLD	47	192	2	96
NMTAP	47	288	4
NMSTR	47	336	4
NMSXL	47	336	4	96	240	3
NMTAP	48	48	3
NMTAP	48	96	3
NMTAP	48	144	2
NMTAP	48	240	1
NMTAP	48	288	1
NMHLD	49	0	1	96
NMHLD	49	96	2	96
NMTAP	49	192	3
NMTAP	49	240	3
NMTAP	49	288	4
NMTAP	49	336	4
NMTAP	50	48	2
NMTAP	50	48	5
NMTAP	50	144	3
NMTAP	50	144	4
NMTAP	50	192	2
NMTAP	50	192	5
NMTAP	50	240	1
NMTAP	50	240	6
BRTAP	50	288	1
BRTAP	50	288	6
NMTAP	51	0	0
NMTAP	51	0	1
NMTAP	51	96	6
NMTAP	51	96	7
NMTAP	51	192	0
NMSTR	51	192	1
NMSI_	51	192	1	96	48	6
NMTAP	51	288	5
NMSTR	51	336	5
NMSI_	51	336	5	96	48	2
NMTAP	52	48	0
EXTAP	52	144	1
EXTAP	52	144	7
NMHLD	52	240	6	96
NMTAP	52	336	7
NMHLD	53	0	7	96
NMHLD	53	96	0	96
NMTAP	53	192	1
NMSTR	53	240	1
NMSXR	53	240	1	96	240	4
NMTAP	53	288	4
NMTAP	53	336	4
NMTAP	54	96	5
NMTAP	54	192	6
NMTAP	54	288	4
NMTAP	54	288	6
NMHLD	55	0	2	96
NMTAP	55	96	0
NMHLD	55	192	5	96
NMTAP	55	288	7
NMHLD	56	0	0	96
NMHLD	56	0	6	96
NMTAP	56	144	1
NMTAP	56	144	5
NMTAP	56	192	1
NMTAP	56	192	5
NMTAP	56	288	2
NMTAP	56	336	2
NMTAP	57	0	2
NMTAP	57	0	3
NMTAP	57	96	0
NMTAP	57	96	1
NMTAP	57	192	6
NMTAP	57	192	7
NMSTR	57	288	4
NMSUR	57	288	4	96	96	1
NMSTR	57	288	5
NMSCR	57	288	5	96	96	0
BRTAP	58	192	2
BRTAP	58	192	7
NMTAP	59	0	1
NMHLD	59	0	7	288
EXTAP	59	96	1
NMTTP	59	108	2	E	0	M1
NMTTP	59	120	2	B	0	M1
NMTTP	59	132	3	B	0	M1
NMTTP	59	144	4	E	0	M1
NMTAP	59	192	1
EXTAP	59	288	1
NMTTP	59	300	2	E	0	M1
NMTTP	59	312	2	B	0	M1
NMTTP	59	324	3	B	0	M1
NMTTP	59	336	4	E	0	M1
NMTAP	60	0	0
NMHLD	60	0	6	288
EXTAP	60	96	0
NMTTP	60	108	0	E	0	M1
NMTTP	60	120	7	B	0	M1
NMTTP	60	132	6	B	0	M1
NMTTP	60	144	6	E	0	M1
NMTAP	60	192	0
EXTAP	60	288	0
NMTTP	60	300	0	E	0	M1
NMTTP	60	312	7	B	0	M1
NMTTP	60	324	6	B	0	M1
NMTTP	60	336	6	E	0	M1
NMSTR	61	0	1
NMSCR	61	0	1	96	48	3
NMTAP	61	96	4
NMSTR	61	192	1
NMSCR	61	192	1	96	48	3
NMTAP	61	288	4
NMTAP	62	0	5
NMTAP	62	48	4
NMTAP	62	96	3
NMTAP	62	144	2
NMSTR	62	192	1
NMSCR	62	192	1	96	48	3
NMTAP	63	0	1
NMHLD	63	0	7	288
EXTAP	63	96	1
NMTTP	63	108	2	E	0	M1
NMTTP	63	120	2	B	0	M1
NMTTP	63	132	3	B	0	M1
NMTTP	63	144	4	E	0	M1
NMTAP	63	192	1
EXTAP	63	288	1
NMTTP	63	300	2	E	0	M1
NMTTP	63	312	2	B	0	M1
NMTTP	63	324	3	B	0	M1
NMTTP	63	336	4	E	0	M1
EXSTR	64	0	0
BRSI_	64	0	0	96	48	2
BRSI_	64	0	0	96	48	6
EXSTR	64	96	0
BRSF_	64	96	0	96	48	4
BXTAP	64	192	0
NMTAP	65	0	2
NMTAP	65	0	6
NMTAP	65	48	1
NMTAP	65	96	0
NMTAP	65	96	5
NMTAP	65	144	6
NMTAP	65	192	3
NMTAP	65	192	7
NMTAP	65	240	1
NMTAP	65	288	0
NMTAP	65	288	4
NMTAP	65	336	6
NMTAP	66	0	1
NMTAP	66	0	7
NMTAP	66	72	3
NMTAP	66	72	4
NMTAP	66	144	1
NMTAP	66	144	5
NMSTR	66	192	1
NMSI_	66	192	1	96	48	4
NMSTR	66	192	5
NMSV_	66	192	5	96	48	0
BRTAP	66	288	1
BRTAP	66	288	5
NMTAP	67	0	3
NMTAP	67	0	7
NMTAP	67	48	2
NMTAP	67	72	0
NMTAP	67	96	2
NMTAP	67	144	6
NMTAP	67	168	7
NMTAP	67	192	6
NMTAP	67	240	1
NMTAP	67	264	0
NMTAP	67	288	1
NMTAP	67	336	5
NMTAP	67	360	7
NMTAP	68	0	5
NMTAP	68	48	2
NMTAP	68	72	3
NMTAP	68	96	1
NMTAP	68	144	7
NMTAP	68	192	0
NMTAP	68	192	6
NMTAP	68	288	4
NMTAP	68	288	5
NMTAP	68	336	3
NMTAP	68	336	4
NMTAP	69	0	2
NMTAP	69	0	3
NMTAP	69	48	1
NMTAP	69	72	3
NMTAP	69	96	2
NMTAP	69	144	5
NMTAP	69	168	4
NMTAP	69	192	6
NMTAP	69	240	0
NMTAP	69	264	7
NMTAP	69	288	1
NMHLD	70	0	0	96
NMSTR	70	0	1
BRSLR	70	0	1	96	48	5
BRTAP	70	96	1
NMHLD	70	192	0	96
NMSTR	70	192	1
BRSLR	70	192	1	96	48	5
BRTAP	70	288	1
NMTAP	71	0	3
NMTAP	71	0	6
NMTAP	71	48	5
NMTAP	71	72	4
NMTAP	71	96	5
NMTAP	71	144	1
NMTAP	71	168	3
NMTAP	71	192	1
NMTAP	71	240	6
NMTAP	71	264	4
NMTAP	71	288	6
NMTAP	71	336	2
NMTAP	71	360	3
NMTAP	72	0	2
NMTAP	72	48	5
NMTAP	72	72	4
NMTAP	72	96	6
NMTAP	72	144	0
NMTAP	72	192	1
NMTAP	72	192	7
NMTAP	72	288	2
NMTAP	72	288	3
NMTAP	72	336	3
NMTAP	72	336	4
NMTAP	73	0	4
NMTAP	73	0	5
NMTAP	73	48	6
NMTAP	73	72	4
NMTAP	73	96	5
NMTAP	73	144	1
NMTAP	73	168	3
NMTAP	73	192	2
NMTAP	73	240	7
NMTAP	73	264	4
NMTAP	73	288	5
NMSTR	74	0	2
BRSI_	74	0	2	96	48	6
NMSTR	74	0	3
BRSI_	74	0	3	96	48	7
NMTAP	74	96	2
NMTAP	74	96	3
NMHLD	74	192	0	96
NMSTR	74	192	1
BRSLR	74	192	1	96	48	5
BRTAP	74	288	1
NMTAP	75	0	3
NMTAP	75	0	7
NMTAP	75	48	6
NMTAP	75	72	4
NMTAP	75	96	6
NMTAP	75	120	4
NMTAP	75	144	5
NMTAP	75	192	2
NMTAP	75	216	3
NMTAP	75	240	2
NMTAP	75	264	3
NMTAP	75	288	1
NMTAP	75	336	6
NMTAP	75	360	7
NMTAP	76	0	4
NMTAP	76	48	1
NMTAP	76	72	0
NMTAP	76	96	3
NMTAP	76	144	2
NMTAP	76	144	6
NMTAP	76	192	2
NMTAP	76	192	6
NMTAP	76	288	0
NMTAP	76	288	1
NMTAP	76	336	0
NMTAP	76	336	7
NMTAP	77	0	6
NMTAP	77	0	7
NMTAP	77	48	5
NMTAP	77	72	7
NMTAP	77	96	5
NMTAP	77	120	7
NMTAP	77	144	5
NMTAP	77	192	2
NMTAP	77	216	0
NMTAP	77	240	2
NMTAP	77	264	0
NMTAP	77	288	2
NMSTR	78	0	1
BRSCR	78	0	1	96	24	3
NMHLD	78	0	7	96
BRTAP	78	96	1
CNSI_	78	120	3	0	24	5
NMSTR	78	192	1
BRSCR	78	192	1	96	24	3
NMHLD	78	192	7	96
BRTAP	78	288	1
CNSI_	78	312	3	0	24	5
NMTAP	79	0	3
NMTAP	79	0	6
NMTAP	79	48	2
NMTAP	79	72	0
NMTAP	79	96	2
NMTAP	79	120	0
NMTAP	79	144	2
NMTAP	79	192	5
NMTAP	79	216	7
NMTAP	79	240	5
NMTAP	79	264	7
NMTAP	79	288	5
NMTAP	79	336	2
NMTAP	79	360	3
NMTAP	80	0	0
NMTAP	80	48	5
NMTAP	80	72	4
NMTAP	80	96	7
NMTAP	80	144	2
NMTAP	80	144	6
NMTAP	80	192	2
NMTAP	80	192	6
NMTAP	80	288	3
NMTAP	80	288	5
NMTAP	81	0	4
NMTAP	81	0	5
BXTAP	81	48	7
NMTAP	81	96	4
NMTAP	81	96	5
BXTAP	81	144	0
NMTAP	81	192	2
NMTAP	81	192	3
BXTAP	81	240	7
NMTAP	81	288	2
NMTAP	81	288	3
BXTAP	81	336	0
NMTAP	82	0	1
NMTAP	82	24	7
NMTAP	82	48	1
NMTAP	82	72	7
NMTAP	82	96	2
NMTAP	82	120	6
NMTAP	82	144	2
NMTAP	82	168	6
NMTAP	82	192	1
NMTAP	82	216	5
NMTAP	82	240	1
NMTAP	82	264	5
BRTAP	82	288	0
BXTAP	82	288	4
NMSTR	83	0	2
BRSUR	83	0	2	96	288	4
NMTAP	83	0	6
NMTTP	83	96	0	C	1	M1
CNSCR	84	0	4	0	384	3
NMTAP	85	0	5
NMTAP	85	96	5
NMSTR	85	192	3
NMSCL	85	192	3	96	48	1
NMSTR	85	192	4
NMSCR	85	192	4	96	48	6
NMSTR	86	0	3
NMSSR	86	0	3	96	144	7
NMSTR	86	0	4
NMSSL	86	0	4	96	144	0
NMTAP	87	0	1
NMHLD	87	0	7	288
NMTAP	87	96	1
NMTTP	87	104	2	D	0	M1
NMTTP	87	112	2	A	0	M1
NMTTP	87	120	3	D	0	M1
NMTTP	87	128	3	A	0	M1
NMTTP	87	136	4	D	0	M1
NMTTP	87	144	4	A	0	M1
NMTAP	87	192	1
NMTAP	87	288	1
NMTTP	87	296	2	D	0	M1
NMTTP	87	304	2	A	0	M1
NMTTP	87	312	3	D	0	M1
NMTTP	87	320	3	A	0	M1
NMTTP	87	328	4	D	0	M1
NMTTP	87	336	4	A	0	M1
NMTAP	88	0	0
NMHLD	88	0	6	288
NMTAP	88	96	0
NMTTP	88	104	1	D	0	M1
NMTTP	88	112	1	A	0	M1
NMTTP	88	120	2	D	0	M1
NMTTP	88	128	2	A	0	M1
NMTTP	88	136	3	D	0	M1
NMTTP	88	144	3	A	0	M1
NMTAP	88	192	0
NMTAP	88	288	0
NMTTP	88	296	1	D	0	M1
NMTTP	88	304	1	A	0	M1
NMTTP	88	312	2	D	0	M1
NMTTP	88	320	2	A	0	M1
NMTTP	88	328	3	D	0	M1
NMTTP	88	336	3	A	0	M1
NMTAP	89	0	1
NMHLD	89	0	7	288
NMTAP	89	96	1
NMTTP	89	104	2	D	0	M1
NMTTP	89	112	2	A	0	M1
NMTTP	89	120	3	D	0	M1
NMTTP	89	128	3	A	0	M1
NMTTP	89	136	4	D	0	M1
NMTTP	89	144	4	A	0	M1
NMTAP	89	192	1
NMTAP	89	288	1
NMTTP	89	296	2	D	0	M1
NMTTP	89	304	2	A	0	M1
NMTTP	89	312	3	D	0	M1
NMTTP	89	320	3	A	0	M1
NMTTP	89	328	4	D	0	M1
NMTTP	89	336	4	A	0	M1
NMTAP	90	0	0
NMHLD	90	0	6	288
NMTAP	90	96	0
NMTTP	90	104	1	D	0	M1
NMTTP	90	112	1	A	0	M1
NMTTP	90	120	2	D	0	M1
NMTTP	90	128	2	A	0	M1
NMTTP	90	136	3	D	0	M1
NMTTP	90	144	3	A	0	M1
NMTAP	90	192	0
NMTAP	90	288	0
NMTTP	90	296	1	D	0	M1
NMTTP	90	304	1	A	0	M1
NMTTP	90	312	2	D	0	M1
NMTTP	90	320	2	A	0	M1
NMTTP	90	328	3	D	0	M1
NMTTP	90	336	3	A	0	M1
NMSTR	91	0	1
NMSLR	91	0	1	96	120	7
NMTAP	91	0	5
NMSTR	91	96	4
NMSI_	91	96	4	96	48	6
NMTTP	91	192	7	D	1	M1
NMSTR	92	0	0
BRSI_	92	0	0	96	60	4
NMSTR	92	0	1
BRSLR	92	0	1	96	120	7
CNSI_	92	156	4	0	60	6
NMTTP	92	192	6	A	0	M1
NMTTP	92	192	7	A	0	M1
NMTTP	92	192	7	D	1	M1
NMSTR	93	0	1
NMSCR	93	0	1	96	48	3
NMTAP	93	0	5
NMSTR	93	96	4
NMSCR	93	96	4	96	48	6
CNSUR	93	144	3	0	72	7
NMTTP	93	192	7	D	1	M1
NMSTR	94	0	0
BRSUR	94	0	0	96	60	4
NMSTR	94	0	1
BRSCR	94	0	1	96	60	3
CNSUR	94	156	3	0	60	7
CNSCR	94	156	4	0	60	6
NMTTP	94	192	6	A	0	M1
NMTTP	94	192	7	A	0	M1
NMTTP	94	192	7	D	1	M1
NMSTR	95	0	1
NMSI_	95	0	1	96	48	5
NMTAP	95	0	5
NMSTR	95	96	3
NMSF_	95	96	3	96	48	7
NMTTP	95	192	3	A	1	M1
NMSTR	96	0	0
BRSI_	96	0	0	96	48	4
NMTAP	96	0	5
NMSTR	96	96	3
BRSI_	96	96	3	96	48	6
BRSI_	96	96	3	96	48	7
NMTTP	96	192	3	E	0	M1
NMTTP	96	192	3	A	1	M1
NMTTP	96	192	4	E	0	M1
NMTHO	97	0	0	384	C	1	M1
NMSTR	97	0	1
NMSI_	97	0	1	96	64	4
CNSCL	97	160	4	0	64	2
CNSI_	97	224	2	0	64	0
NMTTP	98	0	0	B	0	M1
NMTTP	98	0	0	E	0	M1
NMTTP	98	0	0	A	0	M1
NMTTP	98	0	0	D	0	M1
NMTTP	98	0	7	B	0	M1
NMTTP	98	0	7	A	0	M1
BRTAP	99	0	0
NMTAP	99	24	7
NMTAP	99	48	0
NMTAP	99	72	7
NMTAP	99	96	1
NMTAP	99	120	6
NMTAP	99	144	1
NMTAP	99	168	6
NMTAP	99	192	2
NMTAP	99	216	5
NMTAP	99	240	2
NMTAP	99	264	5
NMTAP	99	288	3
NMTAP	99	312	4
NMTAP	99	336	3
NMTAP	99	360	4
BRTAP	100	0	2
NMTAP	100	24	3
NMTAP	100	48	2
NMTAP	100	72	3
NMTAP	100	96	1
NMTAP	100	120	4
NMTAP	100	144	1
NMTAP	100	168	4
NMTAP	100	192	0
NMTAP	100	216	5
NMTAP	100	240	0
NMTAP	100	264	5
NMTAP	100	288	7
NMTAP	100	312	6
NMTAP	100	336	7
NMTAP	100	360	6
BRTAP	101	0	1
NMTAP	101	24	0
NMTAP	101	48	1
NMTAP	101	72	0
NMTAP	101	96	2
NMTAP	101	120	7
NMTAP	101	144	2
NMTAP	101	168	7
NMTAP	101	192	3
NMTAP	101	216	6
NMTAP	101	240	3
NMTAP	101	264	6
NMTAP	101	288	4
NMTAP	101	312	5
NMTAP	101	336	4
NMTAP	101	360	5
BRTAP	102	0	3
NMTAP	102	24	4
NMTAP	102	48	3
NMTAP	102	72	4
NMTAP	102	96	2
NMTAP	102	120	5
NMTAP	102	144	2
NMTAP	102	168	5
NMTAP	102	192	1
NMTAP	102	216	6
NMTAP	102	240	1
NMTAP	102	264	6
NMTAP	102	288	0
NMTAP	102	312	7
NMTAP	102	336	0
NMTAP	102	360	7
BRTAP	103	0	1
NMTAP	103	24	0
NMTAP	103	48	2
NMTAP	103	72	7
NMTAP	103	96	3
NMTAP	103	120	6
NMTAP	103	144	4
NMTAP	103	168	5
BRTAP	103	192	2
NMTAP	103	216	3
NMTAP	103	240	1
NMTAP	103	264	4
NMTAP	103	288	0
NMTAP	103	312	5
NMTAP	103	336	7
NMTAP	103	360	6
BRTAP	104	0	0
NMTAP	104	12	1
NMTAP	104	24	2
NMTAP	104	36	3
NMTAP	104	48	4
NMTAP	104	60	5
NMTAP	104	72	6
NMTAP	104	84	7
BRTAP	104	96	0
NMTAP	104	108	1
NMTAP	104	120	2
NMTAP	104	132	3
NMTAP	104	144	4
NMTAP	104	156	5
NMTAP	104	168	6
NMTAP	104	180	7
BRSTR	104	192	0
NMSI_	104	192	0	96	48	4
BRTAP	105	0	2
BRTAP	105	0	6
EXHLD	105	192	1	768
EXSTR	105	192	5
BRSI_	105	192	5	96	192	1
CNSCL	106	96	1	0	480	2

T_REC_TAP	507
T_REC_BRK	33
T_REC_XTP	11
T_REC_BXX	7
T_REC_HLD	46
T_REC_XHO	1
T_REC_BHO	0
T_REC_BXH	0
T_REC_STR	92
T_REC_BST	1
T_REC_XST	9
T_REC_XBS	0
T_REC_TTP	100
T_REC_THO	1
T_REC_SLD	62
T_REC_BSL	44
T_REC_ALL	914
T_NUM_TAP	719
T_NUM_BRK	85
T_NUM_HLD	48
T_NUM_SLD	62
T_NUM_ALL	914
T_JUDGE_TAP	760
T_JUDGE_HLD	192
T_JUDGE_SLD	106
T_JUDGE_ALL	1058
TTM_EACHPAIRS	148
TTM_SCR_TAP	359500
TTM_SCR_BRK	221000
TTM_SCR_HLD	48000
TTM_SCR_SLD	93000
TTM_SCR_ALL	721500
TTM_SCR_S	691650
TTM_SCR_SS	713000
TTM_RAT_ACV	10119

