VERSION	0.00.00	1.04.00
FES_MODE	0
BPM_DEF	185.000	185.000	185.000	185.000
MET_DEF	4	4
RESOLUTION	384
CLK_DEF	384
COMPATIBLE_CODE	MA2

BPM	0	0	185.000
MET	0	0	4	4

EXTAP	1	0	0
EXTAP	1	192	1
EXTAP	2	0	0
EXTAP	2	96	1
EXTAP	2	192	2
NMHLD	3	0	2	288
NMTAP	3	96	3
NMTAP	3	192	3
NMTAP	3	288	3
NMTAP	4	0	1
NMHLD	4	0	4	288
NMTAP	4	96	3
NMTAP	4	192	1
NMTAP	4	288	3
NMHLD	5	0	2	288
NMTAP	5	96	3
NMTAP	5	192	3
NMTAP	5	288	4
NMTAP	6	0	1
NMHLD	6	0	5	288
NMTAP	6	96	4
NMTAP	6	192	1
NMTAP	6	288	4
NMTAP	7	0	3
NMTAP	7	0	5
NMTAP	7	96	3
NMTAP	7	96	5
NMTAP	7	192	2
NMTAP	7	192	4
NMTAP	7	288	2
NMTAP	7	288	4
NMTAP	8	0	1
NMHLD	8	0	5	288
NMTAP	8	96	4
NMTAP	8	192	1
NMTAP	8	288	4
NMTAP	9	0	1
NMTAP	9	0	3
NMTAP	9	96	2
NMTAP	9	192	4
NMTAP	9	192	6
NMTAP	9	288	5
NMSTR	10	0	3
NMSCL	10	0	3	96	96	0
NMSTR	10	0	4
NMSCR	10	0	4	96	96	7
NMHLD	11	0	1	96
NMHLD	11	0	7	96
NMHLD	11	192	0	96
NMHLD	11	192	6	96
NMTAP	12	0	0
NMTAP	12	0	7
NMTAP	12	96	0
NMTAP	12	96	7
NMTAP	12	192	1
NMTAP	12	192	6
NMTAP	13	0	6
NMTAP	13	0	7
NMTAP	13	96	6
NMTAP	13	96	7
NMTAP	13	192	0
NMTAP	13	192	1
NMTAP	13	288	0
NMTAP	13	288	1
NMTAP	14	0	1
NMHLD	14	0	7	192
NMTAP	14	96	3
NMSTR	14	192	1
NMSCR	14	192	1	96	48	3
NMHLD	15	0	6	288
NMTAP	15	96	4
NMTAP	15	192	7
NMTAP	15	288	0
NMHLD	16	0	1	288
NMTAP	16	96	3
NMTAP	16	192	0
NMTAP	16	288	7
NMHLD	17	0	6	96
NMHLD	17	96	7	96
NMHLD	17	192	0	96
NMTAP	17	288	1
NMTAP	18	0	1
NMHLD	18	0	7	192
NMTAP	18	96	3
NMSTR	18	192	1
NMSI_	18	192	1	96	48	4
NMTAP	19	0	5
NMTAP	19	96	6
NMTAP	19	96	7
NMTAP	19	192	0
NMTAP	19	192	7
NMTAP	19	288	0
NMTAP	19	288	1
NMTAP	20	0	2
NMTAP	20	96	0
NMTAP	20	96	1
NMTAP	20	192	0
NMTAP	20	192	7
NMTAP	20	288	6
NMTAP	20	288	7
NMHLD	21	0	6	96
NMTAP	21	96	4
NMHLD	21	192	1	96
NMTAP	21	288	3
NMTAP	22	0	0
NMHLD	22	0	5	192
NMTAP	22	96	4
NMSTR	22	192	0
NMSI_	22	192	0	96	48	4
NMTAP	23	0	6
NMTAP	23	96	0
NMTAP	23	96	7
NMTAP	23	192	1
NMTAP	23	192	3
NMTAP	23	288	2
NMTAP	24	0	1
NMTAP	24	0	3
NMTAP	24	96	0
NMTAP	24	96	7
NMTAP	24	192	4
NMTAP	24	192	6
NMTAP	24	288	5
NMTAP	25	0	6
NMTAP	25	0	7
NMTAP	25	96	6
NMTAP	25	96	7
NMTAP	25	192	0
NMTAP	25	192	1
NMTAP	25	288	0
NMTAP	25	288	1
NMHLD	26	0	2	96
NMHLD	26	0	7	96
EXTAP	26	192	1
EXTAP	26	192	6
EXTAP	26	240	1
EXTAP	26	240	6
EXTAP	26	288	1
EXTAP	26	288	6
NMTAP	27	0	2
NMTAP	27	0	4
NMTAP	27	96	3
NMTAP	27	192	4
NMTAP	27	192	5
NMTAP	27	288	6
NMHLD	27	336	6	96
NMTAP	28	48	7
NMHLD	28	96	7	96
NMTAP	28	192	0
NMTAP	28	288	0
NMTAP	28	288	1
NMTAP	29	0	2
NMTAP	29	48	2
NMTAP	29	96	4
NMTAP	29	144	4
NMTAP	29	192	3
NMTAP	29	240	3
NMTAP	29	288	5
NMTAP	30	0	4
NMTAP	30	0	5
NMTAP	30	96	4
NMTAP	30	96	5
NMTAP	30	192	3
NMTAP	30	192	6
NMTAP	31	0	3
NMTAP	31	0	5
NMTAP	31	96	4
NMTAP	31	192	2
NMTAP	31	192	3
NMTAP	31	288	1
NMHLD	31	336	1	96
NMTAP	32	48	0
NMHLD	32	96	0	96
NMTAP	32	192	7
NMTAP	32	288	6
NMTAP	32	288	7
NMTAP	33	0	5
NMTAP	33	48	5
NMTAP	33	96	3
NMTAP	33	144	3
NMTAP	33	192	4
NMTAP	33	240	4
NMTAP	33	288	2
NMTAP	34	0	2
NMTAP	34	0	3
NMTAP	34	96	2
NMTAP	34	96	3
NMTAP	34	192	1
NMTAP	34	192	4
NMTAP	35	0	3
NMTAP	35	0	5
NMTAP	35	96	3
NMTAP	35	96	5
NMTAP	35	192	2
NMTAP	35	192	4
NMTAP	35	288	2
NMTAP	35	288	4
NMTAP	36	0	1
NMHLD	36	0	5	288
NMTAP	36	96	4
NMSTR	36	192	1
NMSI_	36	192	1	96	48	4
NMTAP	37	0	6
NMTAP	37	0	7
NMTAP	37	96	6
NMTAP	37	96	7
NMTAP	37	192	0
NMTAP	37	192	7
NMTAP	37	288	0
NMTAP	37	288	7
NMHLD	38	0	0	288
NMTAP	38	0	1
NMTAP	38	96	4
NMSTR	38	192	1
NMSI_	38	192	1	96	48	4
NMTAP	39	0	3
NMTAP	39	0	7
NMTAP	39	96	3
NMTAP	39	96	7
NMTAP	39	192	2
NMTAP	39	192	6
NMTAP	39	288	2
NMTAP	39	288	6
NMTAP	40	0	1
NMHLD	40	0	5	288
NMTAP	40	96	4
NMSTR	40	192	1
NMSCR	40	192	1	96	48	4
NMTAP	41	0	6
NMTAP	41	48	6
NMTAP	41	96	0
NMTAP	41	144	0
NMTAP	41	192	7
NMTAP	41	240	7
NMTAP	41	288	1
NMSTR	42	0	0
NMSI_	42	0	0	96	96	3
NMSTR	42	0	7
NMSI_	42	0	7	96	96	4
NMTAP	42	288	1
NMTAP	42	288	6
NMTAP	43	0	2
NMHLD	43	96	2	960
NMTAP	43	192	3
NMTAP	43	288	3
NMTAP	44	0	1
NMTAP	44	96	1
NMTAP	44	192	3
NMTAP	44	288	3
NMTTP	45	0	1	E	0	M1
NMTTP	45	96	2	E	0	M1
NMTTP	45	192	3	E	0	M1
NMTTP	45	288	4	E	0	M1
NMTAP	46	0	5
NMTAP	46	96	4
NMTAP	46	96	5
NMTAP	46	192	3
NMTAP	46	240	3
NMTAP	46	288	4
NMTAP	47	0	5
NMHLD	47	96	5	960
NMTAP	47	192	4
NMTAP	47	288	4
NMTAP	48	0	6
NMTAP	48	96	6
NMTAP	48	192	4
NMTAP	48	288	4
NMSTR	49	0	6
NMSLL	49	0	6	96	192	2
EXTAP	50	0	2
EXTAP	50	0	5
NMTAP	50	96	2
NMTAP	50	96	5
NMTAP	50	192	3
NMTAP	50	240	3
NMTAP	50	288	4
NMTAP	51	0	1
NMTAP	51	96	1
NMTAP	51	96	3
NMTAP	51	192	2
NMTAP	51	240	2
NMTAP	51	288	3
NMTAP	52	0	6
NMTAP	52	96	4
NMTAP	52	96	6
NMTAP	52	192	5
NMTAP	52	240	5
NMTAP	52	288	4
NMSTR	53	0	3
NMSXR	53	0	3	96	288	4
NMTAP	54	0	5
NMTAP	54	96	5
NMTAP	54	192	4
NMTAP	54	240	4
NMTAP	54	288	3
NMTAP	54	288	5
NMTAP	55	0	6
NMTAP	55	96	4
NMTAP	55	96	6
NMTAP	55	192	5
NMTAP	55	240	5
NMTAP	55	288	3
NMTAP	56	0	1
NMTAP	56	96	1
NMTAP	56	96	3
NMTAP	56	192	2
NMTAP	56	240	2
NMTAP	56	288	4
NMSTR	57	0	5
NMSUL	57	0	5	96	288	4
NMTAP	58	0	3
NMTAP	58	96	3
NMTTP	58	192	3	B	0	M1
NMTTP	58	192	3	E	0	M1
NMTTP	58	192	4	B	1	M1
NMTTP	58	192	5	E	0	M1
EXSTR	59	0	1
NMSI_	59	0	1	96	48	4
NMHLD	59	0	6	576
NMSTR	59	192	1
NMSI_	59	192	1	96	48	4
NMSTR	60	0	1
NMSCR	60	0	1	96	48	4
NMSTR	60	192	1
NMSCR	60	192	1	96	48	4
NMTAP	61	0	6
NMTAP	61	96	6
NMTAP	61	96	7
NMTAP	61	192	5
NMTAP	61	288	4
NMTAP	61	288	5
NMTAP	62	0	2
NMTAP	62	96	2
NMTAP	62	96	3
NMTAP	62	192	1
NMTAP	62	288	0
NMTAP	62	288	1
NMSTR	63	0	1
NMSI_	63	0	1	96	48	3
NMHLD	63	0	7	576
NMSTR	63	192	0
NMSI_	63	192	0	96	48	4
NMSTR	64	0	1
NMSI_	64	0	1	96	48	3
NMSTR	64	192	0
NMSI_	64	192	0	96	48	4
EXTAP	65	0	3
NMTAP	65	96	2
NMTAP	65	96	4
NMTAP	65	192	1
NMTAP	65	192	5
NMTAP	65	288	0
NMTAP	65	288	6
NMHLD	66	0	7	288
BXTAP	66	288	0
NMTAP	67	0	6
NMTAP	67	0	7
NMTAP	67	96	2
NMTAP	67	96	4
NMTAP	67	192	0
NMTAP	67	192	1
NMTAP	67	288	3
NMTAP	67	288	5
NMTAP	68	0	6
NMTAP	68	0	7
NMTAP	68	96	0
NMTAP	68	96	1
NMTAP	68	192	2
NMTAP	68	192	3
NMTAP	68	288	4
NMTAP	68	288	5
NMHLD	69	0	6	96
NMTAP	69	0	7
NMTAP	69	96	7
NMTAP	69	192	0
NMHLD	69	192	1	96
NMTAP	69	288	0
NMSTR	70	0	0
BRSI_	70	0	0	96	48	5
NMHLD	70	0	7	288
NMSTR	70	192	0
NMSI_	70	192	0	96	48	5
EXTAP	71	0	6
EXTAP	71	0	7
NMTAP	71	96	2
NMTAP	71	96	4
NMTAP	71	192	0
NMTAP	71	192	1
NMTAP	71	288	3
NMTAP	71	288	5
NMTAP	72	0	6
NMTAP	72	0	7
NMTAP	72	96	4
NMTAP	72	96	5
NMTAP	72	192	2
NMTAP	72	192	3
NMTAP	72	288	0
NMTAP	72	288	1
NMTAP	73	0	0
NMHLD	73	0	1	96
NMTAP	73	96	0
NMHLD	73	192	6	96
NMTAP	73	192	7
NMTAP	73	288	7
NMSTR	74	0	0
NMSCR	74	0	0	96	96	4
NMTAP	74	0	5
NMTAP	74	192	5
EXTAP	74	288	5
NMHLD	75	0	6	96
NMTAP	75	0	7
NMTAP	75	96	4
NMTAP	75	192	0
NMHLD	75	192	1	96
NMTAP	75	288	3
NMTAP	76	0	6
NMTAP	76	0	7
NMTAP	76	96	4
NMTAP	76	96	5
NMTAP	76	192	2
NMTAP	76	192	3
NMTAP	76	288	0
NMTAP	76	288	1
NMTAP	77	0	6
NMTAP	77	0	7
NMTAP	77	96	6
NMTAP	77	96	7
NMTAP	77	192	0
NMTAP	77	192	1
NMTAP	77	288	0
NMTAP	77	288	1
NMTAP	78	0	0
NMSTR	78	0	1
BRSCR	78	0	1	96	48	4
NMTAP	78	192	0
NMSTR	78	192	1
NMSCR	78	192	1	96	48	4
EXTAP	79	0	5
NMTAP	79	96	6
NMTAP	79	96	7
NMTAP	79	192	0
NMTAP	79	192	7
NMTAP	79	288	0
NMTAP	79	288	1
NMHLD	80	0	2	96
NMHLD	80	96	0	96
NMHLD	80	192	7	96
NMTAP	80	288	5
NMSTR	81	0	6
BRSCL	81	0	6	96	96	3
NMSTR	81	0	7
NMSUL	81	0	7	96	96	3
NMTAP	81	288	2
NMSTR	82	0	0
NMSUR	82	0	0	96	96	4
NMSTR	82	0	1
BRSCR	82	0	1	96	96	4
NMTAP	82	288	5
EXSTR	83	0	0
NMSXL	83	0	0	96	672	3
EXSTR	83	0	7
NMSXR	83	0	7	96	672	4
BXTAP	85	192	2
BXTAP	85	192	5
NMTAP	86	0	2
NMTAP	86	0	5
NMTAP	86	96	1
NMTAP	86	96	6
NMTAP	86	192	0
NMTAP	86	192	7
NMTAP	87	0	6
NMTAP	87	96	6
NMTAP	87	96	7
NMTAP	87	192	1
NMTAP	87	288	0
NMTAP	87	288	1
NMSTR	88	0	1
NMSI_	88	0	1	96	48	3
NMHLD	88	0	7	288
NMSTR	88	192	1
NMSI_	88	192	1	96	48	3
NMTAP	89	0	6
NMTAP	89	0	7
NMTAP	89	96	6
NMTAP	89	96	7
NMTAP	89	192	0
NMTAP	89	192	1
NMTAP	89	288	0
NMTAP	89	288	1
NMSTR	90	0	1
NMSI_	90	0	1	96	48	4
NMHLD	90	0	7	288
NMSTR	90	192	1
NMSI_	90	192	1	96	48	4
NMSTR	91	0	0
NMSCR	91	0	0	96	96	4
NMTAP	91	0	6
NMTAP	91	192	7
NMSTR	92	0	1
NMSCR	92	0	1	96	96	5
NMTAP	92	0	7
NMTAP	92	192	0
NMSTR	93	0	0
NMSLR	93	0	0	96	96	4
NMTAP	93	0	6
NMTAP	93	192	7
NMSTR	94	0	1
NMSLR	94	0	1	96	96	5
NMTAP	94	0	7
NMTAP	94	192	0
NMHLD	95	0	0	96
NMTAP	95	0	1
NMTAP	95	96	3
BRTAP	95	192	4
BRTAP	95	192	6
NMHLD	96	0	0	96
NMTAP	96	0	1
NMTAP	96	96	4
BRTAP	96	192	6
BRTAP	96	192	7
NMSTR	97	0	0
NMSI_	97	0	0	96	96	5
NMSTR	97	0	1
NMSI_	97	0	1	96	96	4
NMSTR	98	0	0
NMSCL	98	0	0	96	96	5
NMSTR	98	0	1
NMSCR	98	0	1	96	96	4
NMTAP	99	0	4
NMTAP	99	0	5
NMTAP	99	96	4
NMTAP	99	96	5
NMTAP	99	192	0
NMTAP	99	192	1
NMTAP	99	288	0
NMTAP	99	288	1
NMTAP	100	0	2
NMTAP	100	0	3
NMTAP	100	96	2
NMTAP	100	96	3
NMTAP	100	192	6
NMTAP	100	192	7
NMTAP	100	288	6
NMTAP	100	288	7
NMTAP	101	0	4
NMTAP	101	0	5
NMTAP	101	96	4
NMTAP	101	96	5
NMTAP	101	192	0
NMTAP	101	192	1
NMTAP	101	288	0
NMTAP	101	288	1
NMTAP	102	0	2
NMTAP	102	0	3
NMTAP	102	96	2
NMTAP	102	96	3
NMTAP	102	192	6
NMTAP	102	192	7
NMTAP	102	288	6
NMTAP	102	288	7
NMTAP	103	0	4
NMTAP	103	0	5
NMTAP	103	96	0
NMTAP	103	96	7
NMTAP	103	192	2
NMTAP	103	192	3
NMTAP	103	288	0
NMTAP	103	288	7
EXTAP	104	0	0
EXTAP	104	24	7
EXTAP	104	48	0
EXTAP	104	72	7
EXTAP	104	96	0
EXTAP	104	120	7
EXTAP	104	144	0
EXTAP	104	168	7
EXTAP	104	192	0
BRTAP	105	0	1
BRTAP	105	0	6
NMSTR	105	192	0
NMSI_	105	192	0	96	192	5
NMHLD	105	192	7	768
CNSI_	106	96	5	0	288	1
CNSCR	107	0	1	0	192	4

T_REC_TAP	399
T_REC_BRK	6
T_REC_XTP	27
T_REC_BXX	3
T_REC_HLD	48
T_REC_XHO	0
T_REC_BHO	0
T_REC_BXH	0
T_REC_STR	42
T_REC_BST	0
T_REC_XST	3
T_REC_XBS	0
T_REC_TTP	8
T_REC_THO	0
T_REC_SLD	41
T_REC_BSL	4
T_REC_ALL	581
T_NUM_TAP	479
T_NUM_BRK	13
T_NUM_HLD	48
T_NUM_SLD	41
T_NUM_ALL	581
T_JUDGE_TAP	488
T_JUDGE_HLD	228
T_JUDGE_SLD	45
T_JUDGE_ALL	761
TTM_EACHPAIRS	171
TTM_SCR_TAP	239500
TTM_SCR_BRK	33800
TTM_SCR_HLD	48000
TTM_SCR_SLD	61500
TTM_SCR_ALL	382800
TTM_SCR_S	370100
TTM_SCR_SS	381500
TTM_RAT_ACV	10034

