VERSION	0.00.00	1.04.00
FES_MODE	0
BPM_DEF	185.000	185.000	185.000	185.000
MET_DEF	4	4
RESOLUTION	384
CLK_DEF	384
COMPATIBLE_CODE	MA2

BPM	0	0	185.000
MET	0	0	4	4

NMSTR	3	0	1
NMSCR	3	0	1	96	288	4
NMSTR	5	0	1
NMSCR	5	0	1	96	288	4
NMSTR	7	0	1
NMSCR	7	0	1	96	288	4
NMTAP	9	0	5
NMTAP	9	192	5
NMTAP	10	0	3
NMTAP	10	0	4
NMTAP	11	0	2
NMTAP	11	96	2
NMTAP	11	192	2
NMTAP	12	0	1
NMTAP	12	96	1
NMTAP	12	192	1
NMTAP	13	0	0
NMTAP	13	96	0
NMTAP	13	192	0
NMTAP	14	0	6
NMTAP	14	0	7
NMTAP	14	192	6
NMTAP	14	192	7
NMTAP	15	0	5
NMTAP	15	96	5
NMTAP	15	192	5
NMTAP	16	0	6
NMTAP	16	96	6
NMTAP	16	192	6
NMTAP	17	0	7
NMTAP	17	96	7
NMTAP	17	192	7
NMTAP	18	0	0
NMTAP	18	0	1
NMTAP	18	192	0
NMTAP	18	192	1
NMTAP	19	0	1
NMTAP	19	96	1
NMTAP	19	192	1
NMTAP	20	0	2
NMTAP	20	96	2
NMTAP	20	192	2
NMTAP	21	0	3
NMTAP	21	96	3
NMTAP	21	192	3
NMTAP	22	0	4
NMTAP	22	0	5
NMTAP	22	192	4
NMTAP	22	192	5
NMTAP	23	0	6
NMTAP	23	96	6
NMTAP	23	192	6
NMTAP	24	0	5
NMTAP	24	96	5
NMTAP	24	192	5
NMTAP	25	0	4
NMTAP	25	96	4
NMTAP	25	192	4
NMTAP	26	0	2
NMTAP	26	0	3
NMTAP	26	192	2
NMTAP	26	192	3
NMTTP	27	0	1	B	0	L1
NMTTP	27	96	2	B	0	L1
NMTTP	27	192	3	B	0	L1
NMTTP	28	0	6	B	0	L1
NMTTP	28	96	5	B	0	L1
NMTTP	28	192	4	B	0	L1
NMTTP	29	0	1	B	0	L1
NMTTP	29	96	2	B	0	L1
NMTTP	29	192	3	B	0	L1
NMTTP	29	288	4	B	0	L1
NMTTP	30	0	5	B	0	L1
NMTTP	30	96	6	B	0	L1
NMTTP	30	192	0	C	0	L1
NMTTP	31	0	7	B	0	L1
NMTTP	31	96	6	B	0	L1
NMTTP	31	192	4	B	0	L1
NMTTP	31	192	5	B	0	L1
NMTTP	32	0	0	B	0	L1
NMTTP	32	96	1	B	0	L1
NMTTP	32	192	2	B	0	L1
NMTTP	32	192	3	B	0	L1
NMTTP	33	0	7	B	0	L1
NMTTP	33	96	6	B	0	L1
NMTTP	33	192	5	B	0	L1
NMTTP	33	288	4	B	0	L1
NMTTP	34	0	3	B	0	L1
NMTTP	34	96	2	B	0	L1
NMTTP	34	192	1	B	0	L1
NMTAP	35	0	7
NMTAP	35	96	7
NMTAP	35	192	6
NMTAP	36	0	5
NMTAP	36	96	5
NMTAP	36	192	4
NMTAP	37	0	3
NMTAP	37	96	3
NMTAP	37	192	2
NMTAP	38	0	1
NMTAP	38	96	1
NMTAP	38	192	0
NMTAP	38	192	1
NMTAP	39	0	0
NMTAP	39	96	0
NMTAP	39	192	1
NMTAP	40	0	2
NMTAP	40	96	2
NMTAP	40	192	3
NMTAP	41	0	4
NMTAP	41	96	4
NMTAP	41	192	5
NMTAP	42	0	6
NMTAP	42	96	6
NMTAP	42	192	6
NMTAP	42	192	7
NMHLD	43	0	5	192
NMHLD	43	192	4	192
NMHLD	44	0	3	192
NMTAP	44	192	2
NMHLD	45	0	2	192
NMHLD	45	192	3	192
NMHLD	46	0	4	192
NMTAP	46	192	5
NMHLD	47	0	6	192
NMHLD	47	192	5	192
NMHLD	48	0	4	192
NMTAP	48	192	3
NMHLD	49	0	1	192
NMHLD	49	192	2	192
NMHLD	50	0	3	192
NMTAP	50	192	4
NMTAP	51	0	2
NMTAP	51	96	2
NMTAP	51	192	2
NMTAP	51	192	3
NMTAP	52	0	1
NMTAP	52	96	1
NMTAP	52	192	0
NMTAP	52	192	1
NMTAP	53	0	7
NMTAP	53	96	7
NMTAP	53	192	6
NMTAP	53	192	7
NMTAP	54	0	4
NMTAP	54	0	5
NMTAP	54	96	4
NMTAP	54	96	5
NMTAP	54	192	4
NMTAP	54	192	5
NMTAP	55	0	5
NMTAP	55	96	5
NMTAP	55	192	4
NMTAP	55	192	5
NMTAP	56	0	6
NMTAP	56	96	6
NMTAP	56	192	6
NMTAP	56	192	7
NMTAP	57	0	0
NMTAP	57	96	0
NMTAP	57	192	0
NMTAP	57	192	1
NMTAP	58	0	2
NMTAP	58	0	3
NMTAP	58	96	2
NMTAP	58	96	3
NMTAP	58	192	2
NMTAP	58	192	3
NMSTR	59	0	1
NMSCR	59	0	1	96	192	4
NMTAP	60	0	5
NMTAP	60	192	2
NMTAP	60	192	3
NMSTR	61	0	1
NMSI_	61	0	1	96	192	4
NMTAP	62	0	5
NMTAP	62	192	2
NMTAP	62	192	3
NMSTR	63	0	1
NMSCR	63	0	1	96	192	4
NMTAP	64	0	5
NMTAP	64	192	5
NMTAP	65	0	4
NMTAP	65	192	3
NMTAP	65	192	4
NMTAP	66	0	3
NMTAP	66	96	3
NMTAP	66	192	3
NMTAP	66	192	4
NMTAP	67	0	5
NMTAP	67	96	5
NMTAP	67	192	6
NMTAP	67	288	6
NMTAP	68	0	7
NMTAP	68	96	7
NMTAP	68	192	0
NMTAP	68	192	1
NMTAP	69	0	2
NMTAP	69	96	2
NMTAP	69	192	1
NMTAP	69	288	1
NMTAP	70	0	0
NMTAP	70	96	0
NMTAP	70	192	6
NMTAP	70	192	7
NMTAP	71	0	6
NMTAP	71	96	6
NMTAP	71	192	5
NMTAP	71	288	5
NMTAP	72	0	4
NMTAP	72	96	4
NMTAP	72	192	2
NMTAP	72	192	3
NMTAP	73	0	1
NMTAP	73	96	1
NMTAP	73	192	2
NMTAP	73	288	2
NMTAP	74	0	3
NMTAP	74	96	3
NMTAP	74	192	4
NMTAP	74	192	5
NMTAP	75	0	5
NMTAP	75	96	5
NMTAP	75	192	6
NMTAP	75	192	7
NMTAP	75	288	6
NMTAP	75	288	7
NMTAP	76	0	0
NMTAP	76	96	0
NMTAP	76	192	0
NMTAP	76	192	1
NMTAP	77	0	2
NMTAP	77	96	2
NMTAP	77	192	0
NMTAP	77	192	1
NMTAP	77	288	0
NMTAP	77	288	1
NMTAP	78	0	7
NMTAP	78	96	7
BRTAP	78	192	6
BRTAP	78	192	7
NMTAP	79	0	6
NMTAP	79	96	6
NMTAP	79	192	4
NMTAP	79	192	5
NMTAP	79	288	4
NMTAP	79	288	5
NMTAP	80	0	3
NMTAP	80	96	3
NMTAP	80	192	2
NMTAP	80	192	3
NMTAP	81	0	1
NMTAP	81	96	1
NMTAP	81	192	2
NMTAP	81	192	3
NMTAP	81	288	2
NMTAP	81	288	3
NMTAP	82	0	4
NMTAP	82	96	4
NMTAP	82	192	3
NMTAP	82	192	4
NMTAP	83	0	2
NMTAP	83	96	2
NMTAP	83	192	2
NMTAP	83	288	2
NMTAP	83	288	3
NMTAP	84	0	1
NMTAP	84	96	1
NMTAP	84	192	1
NMTAP	84	288	0
NMTAP	84	288	1
NMTAP	85	0	7
NMTAP	85	96	7
NMTAP	85	192	7
NMTAP	85	288	6
NMTAP	85	288	7
NMTAP	86	0	4
NMTAP	86	0	5
NMTAP	86	96	4
NMTAP	86	96	5
NMTAP	86	192	4
NMTAP	86	192	5
NMTAP	87	0	5
NMTAP	87	96	5
NMTAP	87	192	5
NMTAP	87	288	4
NMTAP	87	288	5
NMTAP	88	0	6
NMTAP	88	96	6
NMTAP	88	192	6
NMTAP	88	288	6
NMTAP	88	288	7
NMTAP	89	0	0
NMTAP	89	96	0
NMTAP	89	192	0
NMTAP	89	288	0
NMTAP	89	288	1
NMTAP	90	0	2
NMTAP	90	0	3
NMTAP	90	96	2
NMTAP	90	96	3
NMTAP	90	192	2
NMTAP	90	192	3
NMTTP	91	0	1	B	0	L1
NMTTP	91	96	2	B	0	L1
NMTTP	91	192	3	B	0	L1
NMTTP	92	0	6	B	0	L1
NMTTP	92	96	5	B	0	L1
NMTTP	92	192	4	B	0	L1
NMTTP	93	0	1	E	0	L1
NMTTP	93	96	2	E	0	L1
NMTTP	93	192	3	B	0	L1
NMTTP	93	192	3	E	0	L1
NMTTP	94	0	7	E	0	L1
NMTTP	94	96	6	E	0	L1
NMTTP	94	192	4	B	0	L1
NMTTP	94	192	5	E	0	L1
EXTAP	95	0	0
EXTAP	95	96	0
EXTAP	95	192	0
NMTAP	96	0	7
NMTAP	96	96	7
NMTAP	96	192	7
NMTAP	97	0	7
NMTAP	97	96	6
NMTAP	97	192	5
NMTAP	97	288	4
NMTAP	98	0	3
NMTAP	98	96	2
NMTAP	98	192	0
NMTAP	98	192	1
NMTAP	99	0	0
NMTAP	99	96	1
NMTAP	99	192	2
NMTAP	99	288	3
NMTAP	100	0	4
NMTAP	100	96	5
NMTAP	100	192	6
NMTAP	100	192	7
NMTAP	101	0	7
NMTAP	101	96	6
NMTAP	101	192	5
NMTAP	101	288	4
NMTAP	102	0	3
NMTAP	102	96	2
NMTAP	102	192	1
NMTAP	102	288	0
NMTAP	103	0	7
NMTAP	103	96	6
NMTAP	103	192	5
NMTAP	103	288	4
NMTAP	104	0	3
NMTAP	104	0	4
NMTAP	104	96	3
NMTAP	104	96	4
NMTAP	104	192	2
NMTAP	104	192	5
EXSTR	105	0	3
NMSXR	105	0	3	96	864	0
EXSTR	105	0	4
NMSXL	105	0	4	96	864	7

T_REC_TAP	286
T_REC_BRK	2
T_REC_XTP	3
T_REC_BXX	0
T_REC_HLD	12
T_REC_XHO	0
T_REC_BHO	0
T_REC_BXH	0
T_REC_STR	6
T_REC_BST	0
T_REC_XST	2
T_REC_XBS	0
T_REC_TTP	42
T_REC_THO	0
T_REC_SLD	8
T_REC_BSL	0
T_REC_ALL	361
T_NUM_TAP	339
T_NUM_BRK	2
T_NUM_HLD	12
T_NUM_SLD	8
T_NUM_ALL	361
T_JUDGE_TAP	341
T_JUDGE_HLD	48
T_JUDGE_SLD	8
T_JUDGE_ALL	397
TTM_EACHPAIRS	61
TTM_SCR_TAP	169500
TTM_SCR_BRK	5200
TTM_SCR_HLD	12000
TTM_SCR_SLD	12000
TTM_SCR_ALL	198700
TTM_SCR_S	192550
TTM_SCR_SS	198500
TTM_RAT_ACV	10010

