VERSION	0.00.00	1.04.00
FES_MODE	0
BPM_DEF	185.000	185.000	185.000	185.000
MET_DEF	4	4
RESOLUTION	384
CLK_DEF	384
COMPATIBLE_CODE	MA2

BPM	0	0	185.000
MET	0	0	4	4

NMTAP	3	0	0
NMTAP	3	192	0
NMTAP	4	0	0
NMTAP	5	0	7
NMTAP	5	192	7
NMTAP	6	0	7
NMTAP	7	0	0
NMTAP	7	192	0
NMTAP	8	0	0
NMTAP	9	0	7
NMTAP	9	192	7
NMTAP	10	0	0
NMTAP	10	0	7
NMTAP	11	0	0
NMTAP	11	0	7
NMTAP	11	192	0
NMTAP	11	192	7
EXTAP	12	0	0
EXTAP	12	0	7
NMTAP	13	0	6
NMTAP	13	96	6
NMTAP	13	192	6
NMTAP	14	0	4
NMTAP	14	0	5
NMTAP	15	0	3
NMTAP	15	96	3
NMTAP	15	192	3
NMTAP	16	0	2
NMTAP	16	0	3
NMTAP	17	0	1
NMTAP	17	96	1
NMTAP	17	192	1
NMTAP	18	0	0
NMTAP	18	0	1
NMTAP	19	0	0
NMTAP	19	96	0
NMTAP	19	192	0
NMTAP	20	0	1
NMTAP	20	192	1
NMTAP	21	0	2
NMTAP	21	192	2
NMTAP	22	0	3
NMTAP	22	0	4
NMTAP	23	0	4
NMTAP	23	96	4
NMTAP	23	192	4
NMTAP	24	0	5
NMTAP	24	192	5
NMTAP	25	0	6
NMTAP	25	192	6
BXTAP	26	0	0
BXTAP	26	0	7
NMSTR	27	0	7
NMSI_	27	0	7	96	288	3
NMSTR	29	0	0
NMSI_	29	0	0	96	288	4
NMSTR	31	0	6
NMSI_	31	0	6	96	288	2
NMSTR	33	0	1
NMSI_	33	0	1	96	288	5
NMTTP	35	0	7	B	0	L1
NMTTP	36	0	0	B	0	L1
NMTTP	37	0	6	B	0	L1
NMTTP	38	0	1	B	0	L1
NMTTP	39	0	5	B	0	L1
NMTTP	40	0	2	B	0	L1
NMTHO	41	0	0	384	C	1	L1
NMTAP	43	0	0
NMTAP	43	192	0
NMTAP	44	0	1
NMTAP	44	192	1
NMTAP	45	0	2
NMTAP	45	192	2
NMTAP	46	0	3
NMTAP	46	192	3
NMTAP	47	0	4
NMTAP	47	192	4
NMTAP	48	0	5
NMTAP	48	192	5
NMTAP	49	0	6
NMTAP	49	192	6
NMTAP	50	0	6
NMTAP	50	0	7
NMTAP	51	0	7
NMTAP	51	192	7
NMTAP	52	0	6
NMTAP	52	192	6
NMTAP	53	0	5
NMTAP	53	192	5
NMTAP	54	0	4
NMTAP	54	192	4
NMTAP	55	0	3
NMTAP	55	192	3
NMTAP	56	0	2
NMTAP	56	192	2
NMTAP	57	0	1
NMTAP	57	192	1
NMTAP	58	0	0
NMTAP	58	0	7
NMHLD	59	0	0	384
NMHLD	59	0	1	384
NMHLD	61	0	2	384
NMHLD	61	0	3	384
NMHLD	63	0	4	384
NMHLD	63	0	5	384
NMHLD	65	0	6	384
NMHLD	65	0	7	384
BRTAP	67	0	7
NMTAP	67	96	7
NMTAP	67	192	7
NMTAP	68	0	6
NMTAP	68	192	6
NMTAP	69	0	5
NMTAP	69	96	5
NMTAP	69	192	5
NMTAP	70	0	4
NMTAP	70	0	5
NMTAP	71	0	3
NMTAP	71	96	3
NMTAP	71	192	3
NMTAP	72	0	2
NMTAP	72	192	2
NMTAP	73	0	1
NMTAP	73	96	1
NMTAP	73	192	1
NMTAP	74	0	0
NMTAP	74	0	1
NMTAP	75	0	0
NMTAP	75	96	0
NMTAP	75	192	0
NMTAP	76	0	1
NMTAP	76	192	1
NMTAP	77	0	2
NMTAP	77	96	2
NMTAP	77	192	2
NMTAP	78	0	3
NMTAP	78	0	4
NMTAP	79	0	4
NMTAP	79	96	4
NMTAP	79	192	4
NMTAP	80	0	5
NMTAP	80	192	5
NMTAP	81	0	6
NMTAP	81	96	6
NMTAP	81	192	6
NMTAP	82	0	7
NMTAP	82	192	7
EXSTR	83	0	0
NMSI_	83	0	0	96	288	3
EXSTR	83	0	7
NMSI_	83	0	7	96	288	4
NMTAP	85	0	2
NMTAP	85	96	2
NMTAP	85	192	2
NMTAP	86	0	0
NMTAP	86	0	1
NMTAP	86	192	0
NMTAP	86	192	1
NMTAP	87	0	7
NMTAP	87	96	7
NMTAP	87	192	7
NMTAP	88	0	6
NMTAP	88	0	7
NMTAP	88	192	6
NMTAP	88	192	7
NMTAP	89	0	5
NMTAP	89	96	5
NMTAP	89	192	5
NMTAP	90	0	4
NMTAP	90	0	5
NMTAP	90	192	4
NMTAP	90	192	5
NMTAP	91	0	4
NMTAP	91	96	4
NMTAP	91	192	4
NMTAP	92	0	4
NMTAP	92	0	5
NMTAP	92	192	4
NMTAP	92	192	5
NMTAP	93	0	6
NMTAP	93	96	6
NMTAP	93	192	6
NMTAP	94	0	0
NMTAP	94	0	7
NMTAP	94	192	0
NMTAP	94	192	7
NMTAP	95	0	0
NMTAP	95	96	0
NMTAP	95	192	0
NMTAP	96	0	0
NMTAP	96	0	1
NMTAP	96	192	0
NMTAP	96	192	1
NMTAP	97	0	2
NMTAP	97	96	2
NMTAP	97	192	2
BXTAP	98	0	3
BXTAP	98	0	4
NMTAP	99	0	2
NMTAP	99	96	2
NMTAP	99	192	2
NMTAP	100	0	1
NMTAP	100	96	1
NMTAP	100	192	1
NMTAP	101	0	0
NMTAP	101	96	0
NMTAP	101	192	0
NMTAP	102	0	7
NMTAP	102	96	7
NMTAP	102	192	7
NMTAP	103	0	6
NMTAP	103	96	6
NMTAP	103	192	6
NMTAP	104	0	5
NMTAP	104	96	5
NMTAP	104	192	5
BRTAP	105	0	3
BRTAP	105	0	4
NMHLD	105	192	3	768
NMHLD	105	192	4	768

T_REC_TAP	182
T_REC_BRK	3
T_REC_XTP	2
T_REC_BXX	4
T_REC_HLD	10
T_REC_XHO	0
T_REC_BHO	0
T_REC_BXH	0
T_REC_STR	4
T_REC_BST	0
T_REC_XST	2
T_REC_XBS	0
T_REC_TTP	6
T_REC_THO	1
T_REC_SLD	6
T_REC_BSL	0
T_REC_ALL	220
T_NUM_TAP	196
T_NUM_BRK	7
T_NUM_HLD	11
T_NUM_SLD	6
T_NUM_ALL	220
T_JUDGE_TAP	203
T_JUDGE_HLD	104
T_JUDGE_SLD	6
T_JUDGE_ALL	313
TTM_EACHPAIRS	34
TTM_SCR_TAP	98000
TTM_SCR_BRK	18200
TTM_SCR_HLD	11000
TTM_SCR_SLD	9000
TTM_SCR_ALL	136200
TTM_SCR_S	131450
TTM_SCR_SS	135500
TTM_RAT_ACV	10051

