VERSION	0.00.00	1.04.00
FES_MODE	0
BPM_DEF	160.000	160.000	160.000	160.000
MET_DEF	4	4
RESOLUTION	384
CLK_DEF	384
COMPATIBLE_CODE	MA2

BPM	0	0	160.000
MET	0	0	4	4

NMTTP	1	0	1	E	0	M1
NMTTP	1	96	2	E	0	M1
NMTTP	1	192	3	E	0	M1
NMTTP	1	288	1	B	1	M1
NMSTR	2	0	0
NMSCR	2	0	0	96	96	4
NMTAP	2	192	0
NMTAP	2	288	0
NMSTR	3	0	0
NMSCR	3	0	0	96	96	4
NMTAP	3	192	0
NMSTR	3	288	0
NMSXL	3	288	0	96	288	3
NMSTR	5	0	0
NMSCR	5	0	0	96	96	4
NMTAP	5	192	0
NMTAP	5	288	0
NMSTR	6	0	0
NMSCR	6	0	0	96	96	4
NMTAP	6	192	0
NMTAP	6	288	0
NMSTR	7	0	0
NMSCR	7	0	0	96	96	4
NMTAP	7	192	0
NMSTR	7	288	0
NMSXL	7	288	0	96	288	4
NMTAP	9	0	7
NMTAP	9	96	0
NMTAP	9	192	0
BRTAP	9	240	7
BRTAP	9	288	6
BRTAP	9	336	5
BRHLD	10	0	4	96
NMTAP	10	96	7
NMTAP	10	144	7
NMTAP	10	192	0
NMTAP	10	192	6
NMTAP	10	288	4
NMTAP	10	288	5
NMHLD	11	0	6	96
NMTAP	11	96	5
NMTAP	11	144	5
NMTAP	11	192	4
NMTAP	11	192	6
NMSTR	11	288	7
BRSCL	11	288	7	96	96	3
NMSTR	12	0	3
BRSUL	12	0	3	96	96	7
NMTAP	12	288	3
NMTAP	12	288	5
NMTAP	13	0	6
NMTAP	13	48	6
NMTAP	13	96	4
NMTAP	13	192	6
NMTAP	13	192	7
NMTAP	13	240	6
NMTAP	13	240	7
NMTAP	13	336	4
NMTAP	13	336	5
NMSTR	14	0	4
BRSCR	14	0	4	96	96	0
BRSUL	14	0	4	96	96	0
NMTAP	14	0	5
NMTAP	14	288	6
NMTAP	14	288	7
NMTAP	15	0	6
NMTAP	15	48	5
NMTAP	15	96	4
NMTAP	15	192	4
NMTAP	15	192	5
NMTAP	15	240	6
NMSTR	15	288	7
BRSI_	15	288	7	96	48	5
NMSTR	16	0	0
BRSI_	16	0	0	96	48	4
NMSTR	16	96	5
BRSCR	16	96	5	96	48	7
NMSTR	16	192	4
BRSUL	16	192	4	96	48	0
NMSTR	16	288	7
BRSXR	16	288	7	96	192	4
NMTAP	17	0	0
NMTAP	17	96	0
NMTAP	17	192	0
BRSTR	17	288	2
NMSI_	17	288	2	96	48	0
BRSTR	17	288	3
NMSI_	17	288	3	96	48	7
NMSTR	18	96	4
NMSI_	18	96	4	96	48	0
NMSTR	18	96	5
NMSI_	18	96	5	96	48	7
NMSTR	18	288	2
NMSI_	18	288	2	96	48	0
NMSTR	18	288	3
NMSI_	18	288	3	96	48	7
NMSTR	19	96	4
NMSI_	19	96	4	96	48	0
NMSTR	19	96	5
NMSI_	19	96	5	96	48	7
NMSTR	19	288	6
NMSCR	19	288	6	96	96	2
NMSTR	20	0	2
NMSV_	20	0	2	96	96	4
NMTAP	20	96	4
NMTAP	20	192	3
NMTAP	20	288	3
NMTAP	21	0	2
NMTAP	21	0	4
NMSTR	21	96	2
NMSCL	21	96	2	96	48	7
NMSTR	21	96	4
NMSCR	21	96	4	96	48	7
NMTAP	22	0	1
NMTAP	22	0	5
NMSTR	22	96	3
NMSXL	22	96	3	96	144	3
NMSXR	22	96	3	96	144	3
NMTAP	23	48	4
NMTAP	23	48	6
NMTAP	23	96	7
NMTAP	23	144	0
NMTAP	23	192	1
NMTAP	23	192	3
NMTAP	23	288	3
NMTAP	23	288	4
NMTAP	24	0	4
NMTAP	24	48	4
NMTAP	24	72	3
NMTAP	24	96	2
NMHLD	24	192	1	48
NMHLD	24	192	3	48
NMHLD	24	288	1	48
NMHLD	24	288	3	48
NMTAP	25	0	4
NMTAP	25	48	4
NMTAP	25	72	3
NMTAP	25	96	2
NMHLD	25	192	1	48
NMHLD	25	192	3	48
NMHLD	25	288	1	48
NMHLD	25	288	3	48
NMTAP	26	0	4
NMTAP	26	48	4
NMTAP	26	72	3
NMTAP	26	96	2
NMHLD	26	192	1	48
NMHLD	26	192	3	48
NMHLD	26	288	1	48
NMHLD	26	288	3	48
NMTAP	27	0	4
NMTAP	27	48	4
NMTAP	27	72	3
NMTAP	27	96	2
NMHLD	27	192	2	48
NMHLD	27	192	3	48
NMHLD	27	288	2	48
NMHLD	27	288	3	48
NMTAP	28	0	4
NMTAP	28	48	4
NMTAP	28	72	3
NMTAP	28	96	2
NMHLD	28	192	1	48
NMHLD	28	192	3	48
NMHLD	28	288	1	48
NMHLD	28	288	3	48
NMTAP	29	0	4
NMTAP	29	48	4
NMTAP	29	72	3
NMTAP	29	96	2
NMHLD	29	192	1	48
NMHLD	29	192	3	48
NMHLD	29	288	1	48
NMHLD	29	288	3	48
NMTAP	30	0	4
NMTAP	30	48	4
NMTAP	30	72	3
NMTAP	30	96	2
NMHLD	30	192	1	48
NMHLD	30	192	3	48
NMHLD	30	288	1	48
NMHLD	30	288	3	48
NMSTR	31	0	2
NMSCR	31	0	2	96	48	5
NMTAP	31	240	6
NMSTR	31	288	6
NMSI_	31	288	6	96	48	4
NMSTR	32	0	7
NMSI_	32	0	7	96	48	3
NMTAP	32	192	5
NMTAP	32	240	5
NMTAP	32	288	4
NMTAP	33	0	3
NMTAP	33	0	6
NMTAP	33	96	3
NMTAP	33	96	6
NMSTR	33	192	5
BRSI_	33	192	5	96	96	3
NMSTR	33	288	3
BRSI_	33	288	3	96	72	0
CNSI_	34	72	0	0	72	5
NMTAP	34	192	4
NMTAP	34	288	3
NMTAP	34	288	5
NMTAP	35	0	4
NMTAP	35	48	4
NMSTR	35	96	3
BRSXL	35	96	3	96	144	3
NMTAP	35	96	5
NMTTP	35	192	6	A	0	M1
NMTTP	35	288	7	E	0	M1
NMTTP	36	0	0	E	0	M1
NMTAP	36	96	4
NMTAP	36	192	5
NMTAP	36	240	5
NMTAP	36	288	3
NMTAP	36	336	3
NMHLD	37	0	7	144
NMTAP	37	48	4
NMTAP	37	96	4
NMTAP	37	144	4
NMHLD	37	192	7	144
NMTAP	37	240	5
NMTAP	37	288	5
NMTAP	37	336	5
NMSTR	38	0	7
BRSI_	38	0	7	96	48	3
CNSI_	38	144	3	0	48	0
CNSI_	38	192	0	0	48	4
CNSI_	38	240	4	0	144	6
NMTAP	39	0	7
NMTAP	39	96	7
NMTAP	39	192	6
NMTAP	39	192	7
BRSTR	39	288	5
NMSCR	39	288	5	96	48	0
NMTAP	40	0	3
NMSTR	40	96	2
NMSCL	40	96	2	96	48	7
NMTAP	40	192	4
NMSTR	40	288	5
NMSCR	40	288	5	96	48	0
NMTAP	41	0	3
NMSTR	41	96	2
NMSCL	41	96	2	96	48	7
NMTAP	41	192	4
NMTAP	41	288	5
NMSTR	42	0	6
NMSCR	42	0	6	96	96	2
NMSTR	42	96	2
NMSV_	42	96	2	96	96	4
NMTAP	42	192	4
NMTAP	42	288	3
NMTAP	43	0	2
NMTAP	43	0	4
NMSTR	43	96	1
NMSCL	43	96	1	96	96	6
NMSTR	43	96	5
NMSCL	43	96	5	96	96	2
NMHLD	44	0	1	48
NMHLD	44	0	4	48
NMHLD	44	96	3	48
NMHLD	44	96	6	48
NMSTR	44	192	2
NMSXR	44	192	2	96	288	4
NMSTR	44	192	5
NMSXL	44	192	5	96	288	3
EXTAP	45	288	2
EXTAP	45	288	5
NMTAP	46	0	1
NMTAP	46	0	4
NMTAP	46	96	1
NMTAP	46	96	4
NMTAP	46	192	3
NMTAP	46	240	1
NMTAP	46	288	2
NMTAP	46	336	4
NMTAP	47	0	3
NMTAP	47	0	5
NMTAP	47	48	2
NMTAP	47	96	1
NMHLD	47	144	0	96
NMTTP	47	240	2	B	0	M1
NMTTP	47	256	3	B	0	M1
NMTTP	47	272	4	B	0	M1
NMTTP	47	288	5	E	0	M1
NMTAP	47	336	1
NMTAP	48	0	1
NMTAP	48	96	6
NMTAP	48	96	7
NMTAP	48	192	6
NMTAP	48	240	4
NMTAP	48	288	3
NMTAP	48	336	1
NMTAP	49	48	0
NMTAP	49	96	0
NMHLD	49	144	7	144
NMSTR	49	192	1
NMSI_	49	192	1	96	48	3
EXTAP	49	288	1
NMTAP	50	48	2
NMTAP	50	96	2
NMTAP	50	144	3
NMHLD	50	192	1	96
NMTAP	50	288	3
NMTAP	50	336	4
NMHLD	51	0	2	48
NMHLD	51	0	4	48
NMHLD	51	96	1	48
NMHLD	51	96	3	48
NMHLD	51	192	0	48
NMHLD	51	192	2	48
NMSTR	51	288	7
NMSCR	51	288	7	96	288	4
NMHLD	51	336	7	432
NMTAP	53	192	0
NMTAP	53	192	1
NMTAP	53	288	1
NMTAP	53	288	3
NMTAP	53	336	1
NMTAP	53	336	3
NMTAP	54	48	2
NMTAP	54	96	2
NMTAP	54	144	3
NMHLD	54	192	1	96
NMTAP	54	288	3
NMTAP	54	336	4
NMHLD	55	0	2	48
NMHLD	55	0	4	48
NMHLD	55	96	1	48
NMHLD	55	96	3	48
NMHLD	55	192	0	48
NMHLD	55	192	2	48
NMSTR	55	288	7
NMSI_	55	288	7	96	96	4
NMHLD	55	336	7	432
CNSI_	56	96	4	0	96	0
CNSI_	56	192	0	0	96	3
CNSI_	56	288	3	0	96	1
NMSTR	57	192	5
BRSXL	57	192	5	96	96	6
NMSTR	57	288	4
BRSXR	57	288	4	96	96	3
NMTAP	58	96	5
NMTAP	58	144	5
NMTAP	58	192	4
NMTAP	58	192	6
NMTAP	58	288	4
NMTAP	58	288	5
NMHLD	59	0	6	96
NMSTR	59	96	4
BRSCR	59	96	4	96	96	5
NMTTP	59	192	6	A	0	M1
CNSXR	59	288	5	0	96	3
NMTTP	59	288	7	E	0	M1
NMTTP	60	0	0	E	0	M1
NMTAP	60	96	5
NMTAP	60	144	5
NMTAP	60	192	4
NMTAP	60	192	6
NMTAP	60	288	3
NMTAP	60	288	7
NMTAP	61	0	4
NMTAP	61	48	5
NMTAP	61	96	6
NMTAP	61	144	6
NMSTR	61	192	4
BRSCL	61	192	4	96	48	3
BRTAP	61	288	6
CNSV_	61	336	3	0	96	5
BRTAP	62	0	7
NMSTR	62	96	7
NMSI_	62	96	7	96	48	5
NMSTR	62	192	0
NMSI_	62	192	0	96	48	4
NMTAP	63	0	5
NMTAP	63	48	6
NMTAP	63	96	7
NMTAP	63	144	7
NMTAP	63	192	4
NMTAP	63	240	4
NMSTR	63	288	7
BRSI_	63	288	7	96	48	3
NMSTR	64	96	0
BRSLL	64	96	0	96	96	3
NMSTR	64	96	6
BRSLR	64	96	6	96	96	3
NMTTP	65	0	0	E	0	M1
NMTTP	65	0	7	B	1	M1
NMTTP	65	0	7	E	0	M1
NMTTP	65	96	4	B	1	M1
NMTTP	65	96	4	E	0	M1
NMTTP	65	96	5	E	0	M1
NMTTP	65	192	6	E	1	M1
BXSTR	65	288	6
NMSI_	65	288	6	96	48	4
BXSTR	65	288	7
NMSI_	65	288	7	96	48	3
NMTAP	66	0	6
NMTAP	66	0	7
NMSTR	66	96	0
NMSI_	66	96	0	96	48	4
NMSTR	66	96	1
NMSI_	66	96	1	96	48	3
NMTAP	66	192	0
NMTAP	66	192	1
NMSTR	66	288	6
NMSI_	66	288	6	96	48	4
NMSTR	66	288	7
NMSI_	66	288	7	96	48	3
NMTAP	67	0	6
NMTAP	67	0	7
NMTAP	67	96	0
NMTAP	67	96	1
NMTAP	67	192	0
NMTAP	67	192	7
NMSTR	67	288	0
BRSI_	67	288	0	96	48	4
NMSTR	67	288	1
BRSI_	67	288	1	96	48	3
BRTAP	68	0	0
BRTAP	68	0	1
NMSTR	68	96	6
BRSI_	68	96	6	96	48	4
NMSTR	68	96	7
BRSI_	68	96	7	96	48	3
BRTAP	68	192	6
BRTAP	68	192	7
NMSTR	68	288	0
BRSI_	68	288	0	96	48	4
NMSTR	68	288	1
BRSI_	68	288	1	96	48	3
BRTAP	69	0	0
BRTAP	69	0	1
NMTAP	69	96	0
NMTAP	69	96	6
BRHLD	69	192	1	96
BRHLD	69	192	5	96
EXSTR	70	0	0
BRSI_	70	0	0	96	48	4
EXSTR	70	96	7
BRSI_	70	96	7	96	48	5
EXSTR	70	192	1
BRSI_	70	192	1	96	48	3
NMSTR	70	288	4
NMSXL	70	288	4	96	192	4
NMSXR	70	288	4	96	192	4
NMTAP	71	288	3
NMSTR	71	288	5
NMSCR	71	288	5	96	48	0
NMTAP	72	0	4
NMSTR	72	96	2
NMSCL	72	96	2	96	48	7
NMTAP	72	96	4
NMTAP	72	192	3
NMTAP	72	288	3
NMSTR	72	288	5
NMSCR	72	288	5	96	48	0
NMTAP	73	0	4
NMSTR	73	96	2
NMSCL	73	96	2	96	48	7
NMTAP	73	96	4
NMTAP	73	192	3
NMHLD	73	288	5	672
NMTTP	74	0	6	E	1	M1
NMTTP	74	96	7	A	1	M1
NMTTP	74	192	0	A	1	M1
NMTTP	74	288	2	E	1	M1
NMTTP	75	0	4	E	1	M1
NMTTP	75	96	0	E	1	M1
NMTTP	75	192	0	C	1	M1
NMHLD	76	0	0	96
NMHLD	76	0	1	96
NMHLD	76	192	6	96
NMHLD	76	192	7	96
NMTAP	77	0	0
NMTAP	77	0	1
NMSTR	77	96	1
NMSI_	77	96	1	96	48	4
NMSTR	77	96	2
NMSI_	77	96	2	96	48	7
EXTAP	77	192	1
EXTAP	77	192	2
EXTAP	77	288	0
EXTAP	77	288	3
NMHLD	78	0	6	96
NMHLD	78	0	7	96
NMHLD	78	192	0	96
NMHLD	78	192	1	96
NMTAP	79	0	0
NMTAP	79	0	1
NMSTR	79	96	1
NMSI_	79	96	1	96	48	4
NMSTR	79	96	2
NMSI_	79	96	2	96	48	7
NMTAP	79	192	1
NMTAP	79	192	2
BRTAP	79	288	0
BRTAP	79	288	3

T_REC_TAP	211
T_REC_BRK	13
T_REC_XTP	7
T_REC_BXX	0
T_REC_HLD	63
T_REC_XHO	0
T_REC_BHO	3
T_REC_BXH	0
T_REC_STR	73
T_REC_BST	3
T_REC_XST	3
T_REC_XBS	2
T_REC_TTP	28
T_REC_THO	0
T_REC_SLD	55
T_REC_BSL	29
T_REC_ALL	490
T_NUM_TAP	322
T_NUM_BRK	50
T_NUM_HLD	63
T_NUM_SLD	55
T_NUM_ALL	490
T_JUDGE_TAP	340
T_JUDGE_HLD	117
T_JUDGE_SLD	84
T_JUDGE_ALL	541
TTM_EACHPAIRS	95
TTM_SCR_TAP	161000
TTM_SCR_BRK	130000
TTM_SCR_HLD	63000
TTM_SCR_SLD	82500
TTM_SCR_ALL	436500
TTM_SCR_S	418600
TTM_SCR_SS	431500
TTM_RAT_ACV	10115

