VERSION	0.00.00	1.04.00
FES_MODE	0
BPM_DEF	160.000	160.000	160.000	160.000
MET_DEF	4	4
RESOLUTION	384
CLK_DEF	384
COMPATIBLE_CODE	MA2

BPM	0	0	160.000
MET	0	0	4	4

NMTAP	1	0	1
NMTAP	1	96	1
NMTAP	1	192	1
BRTAP	1	288	1
NMHLD	2	0	2	96
NMHLD	2	0	3	96
NMTAP	2	192	2
NMTAP	2	192	3
NMTAP	2	288	2
NMTAP	2	288	3
NMHLD	3	0	1	96
NMHLD	3	0	3	96
NMTAP	3	192	1
NMTAP	3	192	3
NMTAP	3	288	1
NMTAP	3	288	3
NMHLD	4	0	0	288
NMHLD	4	0	3	288
NMTAP	5	0	0
NMTAP	5	0	2
NMTAP	5	192	0
NMTAP	5	192	2
NMHLD	6	0	0	96
NMHLD	6	0	1	96
NMTAP	6	192	0
NMTAP	6	192	1
NMTAP	6	288	0
NMTAP	6	288	1
NMHLD	7	0	1	96
NMHLD	7	0	2	96
NMTAP	7	192	1
NMTAP	7	192	2
NMTAP	7	288	1
NMTAP	7	288	2
NMHLD	8	0	2	288
NMHLD	8	0	3	288
NMSTR	9	0	1
NMSCR	9	0	1	96	96	4
BXTAP	9	240	6
BXTAP	9	288	6
BXTAP	10	0	4
NMTAP	10	96	4
NMTAP	10	96	5
NMTAP	10	192	6
NMTAP	10	288	6
NMTAP	10	288	7
NMTAP	11	0	5
NMTAP	11	96	4
NMTAP	11	96	6
NMTAP	11	192	7
NMSTR	11	288	7
BRSCL	11	288	7	96	96	4
BRSUR	11	288	7	96	96	4
NMTAP	12	192	5
NMTAP	12	288	4
NMTAP	12	288	6
NMHLD	13	0	4	144
NMHLD	13	0	6	144
NMTAP	13	240	5
NMTAP	13	336	4
NMSTR	14	0	4
BRSCR	14	0	4	96	96	7
BRSUL	14	0	4	96	96	7
NMTAP	14	288	6
NMTAP	14	288	7
NMTAP	15	0	5
NMTAP	15	96	4
NMTAP	15	96	5
NMTAP	15	192	6
NMTAP	15	288	6
NMTAP	15	288	7
NMSTR	16	0	0
BRSI_	16	0	0	96	96	4
NMSTR	16	192	7
BRSI_	16	192	7	96	48	5
NMTAP	17	0	4
NMTAP	17	96	3
NMTAP	17	96	5
BRTAP	17	192	2
BRTAP	17	192	6
NMSTR	18	0	1
NMSCR	18	0	1	96	96	4
NMSTR	18	192	5
NMSCR	18	192	5	96	96	0
NMSTR	19	0	1
NMSCR	19	0	1	96	96	4
NMSTR	19	192	5
NMSCR	19	192	5	96	96	0
NMHLD	20	0	1	96
NMTAP	20	96	3
NMTAP	20	192	3
NMTAP	20	288	2
NMTAP	20	288	4
NMHLD	21	0	5	96
NMTAP	21	96	4
NMTAP	21	192	3
NMTAP	21	192	6
NMTAP	22	0	1
NMTAP	22	0	7
NMTAP	22	96	1
NMTAP	22	96	7
NMTAP	22	192	0
NMTAP	22	192	6
NMTAP	22	288	0
NMTAP	22	288	6
NMTAP	23	0	1
NMTAP	23	0	7
NMTAP	23	96	3
NMTAP	23	96	5
BRHLD	23	192	2	96
BRHLD	23	192	6	96
NMHLD	24	0	0	192
NMTAP	24	192	2
NMTAP	24	240	2
NMTAP	24	288	1
NMHLD	25	0	1	192
NMTAP	25	192	3
NMTAP	25	240	3
NMTAP	25	288	1
NMHLD	26	0	0	192
NMTAP	26	192	2
NMTAP	26	240	2
NMTAP	26	288	1
NMHLD	27	0	1	192
NMTAP	27	192	3
NMTAP	27	288	1
NMTAP	27	288	3
NMHLD	28	0	0	192
NMTAP	28	192	2
NMTAP	28	240	2
NMTAP	28	288	1
NMHLD	29	0	1	192
NMTAP	29	192	3
NMTAP	29	240	3
NMTAP	29	288	1
NMHLD	30	0	0	192
NMTAP	30	192	2
NMTAP	30	240	2
NMTAP	30	288	1
NMSTR	31	0	1
NMSCR	31	0	1	96	96	4
EXTAP	31	240	6
BXHLD	31	288	6	576
BXHLD	32	0	4	480
NMTAP	33	192	7
NMSTR	33	288	7
BRSI_	33	288	7	96	192	3
BRSLL	33	288	7	96	192	3
EXTAP	34	288	4
EXTAP	34	288	5
NMTAP	35	0	6
NMTAP	35	96	4
NMTAP	35	96	6
NMTAP	35	192	5
NMSTR	35	288	5
BRSXR	35	288	5	96	192	5
NMTAP	37	0	6
NMTAP	37	0	7
NMTAP	37	96	6
NMTAP	37	96	7
NMTAP	37	192	4
NMTAP	37	192	5
NMTAP	37	288	4
NMTAP	37	288	5
NMSTR	38	0	6
BRSI_	38	0	6	96	96	4
CNSI_	38	192	4	0	96	7
CNSI_	38	288	7	0	96	3
NMTAP	39	192	3
NMTAP	39	192	4
NMTAP	39	288	3
NMTAP	39	288	4
NMSTR	40	0	5
NMSCR	40	0	5	96	96	0
NMSTR	40	192	1
NMSCR	40	192	1	96	96	4
NMSTR	41	0	5
NMSCR	41	0	5	96	96	0
NMSTR	41	192	1
NMSCR	41	192	1	96	96	4
NMTAP	42	0	5
NMTAP	42	96	6
NMTAP	42	192	6
NMTAP	42	192	7
NMTAP	42	288	6
NMTAP	42	288	7
NMTAP	43	0	1
NMTAP	43	96	0
NMTAP	43	96	1
NMTAP	43	192	0
NMTAP	43	192	1
BRTAP	44	0	1
BRTAP	44	0	7
BRTAP	44	96	0
BRTAP	44	96	6
BRTAP	44	192	1
BRTAP	44	192	7
BRTAP	44	288	0
BRSTR	44	288	6
NMSUL	44	288	6	96	288	3
EXTAP	46	0	1
EXTAP	46	0	3
EXTAP	46	96	1
EXTAP	46	96	3
NMTAP	46	192	5
NMTAP	46	240	5
NMTAP	46	288	3
NMTAP	47	0	4
NMTAP	47	0	6
NMTAP	47	96	7
NMTAP	47	192	0
NMTAP	47	288	1
NMTAP	47	288	3
NMTAP	48	0	3
NMTAP	48	0	5
NMTAP	48	96	3
NMTAP	48	96	5
NMHLD	48	192	6	96
NMHLD	48	288	4	96
NMHLD	49	0	3	96
NMHLD	49	96	1	96
BRTAP	49	192	0
EXTAP	50	48	2
EXTAP	50	96	2
NMHLD	50	192	1	96
NMTAP	50	288	3
NMTAP	51	0	2
NMTAP	51	0	3
NMTAP	51	96	2
NMTAP	51	96	3
NMTAP	51	192	1
NMTAP	51	192	2
NMSTR	51	288	0
NMSXL	51	288	0	96	384	3
NMTAP	51	288	1
NMTAP	53	192	1
NMTAP	53	192	3
NMTAP	53	288	1
NMTAP	53	288	3
NMTAP	54	48	2
NMTAP	54	96	2
NMHLD	54	192	1	96
NMTAP	54	288	3
NMTAP	55	0	2
NMTAP	55	0	3
NMTAP	55	96	2
NMTAP	55	96	3
NMTAP	55	192	1
NMTAP	55	192	2
NMSTR	55	288	0
NMSXL	55	288	0	96	384	4
NMTAP	55	288	1
EXTAP	57	240	6
EXTAP	57	288	6
EXSTR	58	0	7
BRSXR	58	0	7	96	144	6
NMTAP	59	0	5
NMTAP	59	96	4
NMTAP	59	96	5
NMTAP	59	192	6
NMSTR	59	288	6
BRSCL	59	288	6	96	96	4
CNSUL	60	96	4	0	96	7
NMTAP	60	288	7
NMTAP	61	0	6
NMTAP	61	96	4
NMTAP	61	96	5
NMHLD	61	192	4	96
NMHLD	61	192	6	96
BRHLD	62	0	5	96
BRHLD	62	0	7	96
NMTAP	62	192	4
NMTAP	62	192	6
NMTAP	62	288	4
NMTAP	62	288	6
NMTAP	63	0	5
NMTAP	63	96	4
NMTAP	63	96	5
NMTAP	63	192	4
NMTAP	63	192	6
NMTAP	63	288	4
NMTAP	63	288	6
NMSTR	64	0	7
BRSI_	64	0	7	96	48	5
NMSTR	64	192	0
BRSI_	64	192	0	96	96	4
NMTAP	65	0	6
NMTAP	65	96	0
NMTAP	65	96	7
NMTAP	65	192	0
NMTAP	65	192	7
BRTAP	65	288	0
BRTAP	65	288	7
NMHLD	66	0	0	96
NMHLD	66	0	1	96
NMHLD	66	192	6	96
NMHLD	66	192	7	96
NMHLD	67	0	0	96
NMHLD	67	0	1	96
NMHLD	67	192	6	96
NMHLD	67	192	7	96
BRTAP	68	0	0
NMTAP	68	192	7
NMTAP	68	288	7
NMTAP	69	0	0
NMTAP	69	0	6
NMTAP	69	96	2
NMTAP	69	96	4
BRTAP	69	192	1
BRTAP	69	192	5
NMTAP	70	0	6
NMTAP	70	96	6
NMTAP	70	192	5
NMTAP	70	192	7
NMTAP	70	288	5
NMTAP	70	288	7
NMTAP	71	0	0
NMTAP	71	96	0
NMTAP	71	96	2
NMTAP	71	192	0
NMTAP	71	192	2
NMSTR	72	0	1
NMSCL	72	0	1	96	96	6
NMSTR	72	192	5
NMSCL	72	192	5	96	96	2
NMSTR	73	0	1
NMSCL	73	0	1	96	96	6
NMSTR	73	192	5
NMSCL	73	192	5	96	96	2
NMTAP	74	0	1
NMTAP	74	96	1
NMTAP	74	192	0
NMTAP	74	288	7
NMTAP	75	0	4
NMTAP	75	0	6
NMTAP	75	96	3
NMTAP	75	96	4
NMTAP	75	192	1
NMTAP	75	192	3
NMSTR	76	0	5
NMSCL	76	0	5	96	96	2
NMSTR	76	192	1
NMSCL	76	192	1	96	96	6
NMSTR	77	0	5
NMSCL	77	0	5	96	96	2
BRTAP	77	192	0
NMSTR	78	0	1
NMSI_	78	0	1	96	96	4
NMSTR	78	192	5
NMSI_	78	192	5	96	96	0
NMTAP	79	0	3
NMTAP	79	96	2
NMTAP	79	96	4
NMTAP	79	192	0
NMTAP	79	192	6
BRTAP	79	288	1
BRTAP	79	288	5

T_REC_TAP	207
T_REC_BRK	19
T_REC_XTP	11
T_REC_BXX	3
T_REC_HLD	39
T_REC_XHO	0
T_REC_BHO	4
T_REC_BXH	2
T_REC_STR	31
T_REC_BST	1
T_REC_XST	1
T_REC_XBS	0
T_REC_TTP	0
T_REC_THO	0
T_REC_SLD	22
T_REC_BSL	14
T_REC_ALL	354
T_NUM_TAP	250
T_NUM_BRK	43
T_NUM_HLD	39
T_NUM_SLD	22
T_NUM_ALL	354
T_JUDGE_TAP	273
T_JUDGE_HLD	140
T_JUDGE_SLD	36
T_JUDGE_ALL	449
TTM_EACHPAIRS	97
TTM_SCR_TAP	125000
TTM_SCR_BRK	111800
TTM_SCR_HLD	39000
TTM_SCR_SLD	33000
TTM_SCR_ALL	308800
TTM_SCR_S	295400
TTM_SCR_SS	304500
TTM_RAT_ACV	10141

