VERSION	0.00.00	1.04.00
FES_MODE	0
BPM_DEF	160.000	160.000	160.000	160.000
MET_DEF	4	4
RESOLUTION	384
CLK_DEF	384
COMPATIBLE_CODE	MA2

BPM	0	0	160.000
MET	0	0	4	4

NMTAP	2	0	2
NMTAP	2	96	2
NMTAP	2	192	1
NMTAP	2	288	1
NMTAP	3	0	0
NMTAP	3	96	0
NMTAP	3	192	6
NMTAP	3	192	7
NMTAP	4	0	5
NMTAP	4	96	5
NMTAP	4	192	6
NMTAP	4	288	6
NMTAP	5	0	7
NMTAP	5	96	7
NMTAP	5	192	0
NMTAP	5	192	1
NMTAP	6	0	1
NMTAP	6	96	1
NMTAP	6	192	2
NMTAP	6	288	2
NMTAP	7	0	3
NMTAP	7	96	3
NMTAP	7	192	4
NMTAP	7	192	5
NMTAP	8	0	6
NMTAP	8	96	6
NMTAP	8	192	5
NMTAP	8	288	5
NMTAP	9	0	4
NMTAP	9	96	4
NMTAP	9	192	2
NMTAP	9	192	3
NMHLD	10	0	2	192
NMHLD	10	192	3	192
NMHLD	11	0	4	192
NMTAP	11	192	5
NMHLD	12	0	5	192
NMHLD	12	192	4	192
NMHLD	13	0	3	192
NMTAP	13	192	2
NMHLD	14	0	1	192
NMHLD	14	192	0	192
NMHLD	15	0	7	192
NMTAP	15	192	6
NMHLD	16	0	6	192
NMHLD	16	192	7	192
NMHLD	17	0	0	192
NMTAP	17	192	1
NMTAP	18	0	6
NMTAP	18	0	7
NMTAP	18	96	6
NMTAP	18	96	7
NMTAP	18	192	5
NMTAP	18	288	5
NMTAP	19	0	3
NMTAP	19	0	4
NMTAP	19	96	3
NMTAP	19	96	4
NMTAP	19	192	2
NMTAP	19	288	2
NMTAP	20	0	0
NMTAP	20	0	1
NMTAP	20	96	0
NMTAP	20	96	1
NMTAP	20	192	2
NMTAP	20	288	2
NMTAP	21	0	3
NMTAP	21	0	4
NMTAP	21	96	3
NMTAP	21	96	4
NMTAP	21	192	2
NMTAP	21	192	5
NMTAP	22	0	3
NMTAP	22	96	2
NMTAP	22	192	1
NMTAP	22	288	0
NMTAP	23	0	7
NMTAP	23	96	6
NMTAP	23	192	4
NMTAP	23	192	5
NMTAP	24	0	4
NMTAP	24	96	4
NMTAP	24	192	5
NMTAP	25	0	6
NMTAP	25	96	6
NMTAP	25	192	7
NMTAP	26	0	0
NMTAP	26	96	0
NMTAP	26	192	1
NMTAP	27	0	2
NMTAP	27	96	2
NMTAP	27	192	2
NMTAP	27	192	3
NMTAP	28	0	3
NMTAP	28	96	3
NMTAP	28	192	2
NMTAP	29	0	1
NMTAP	29	96	1
NMTAP	29	192	0
NMTAP	30	0	7
NMTAP	30	96	7
NMTAP	30	192	6
NMTAP	31	0	5
NMTAP	31	96	5
NMTAP	31	192	4
NMTAP	31	192	5
NMSTR	32	0	6
NMSI_	32	0	6	96	192	3
NMSTR	33	0	1
NMSI_	33	0	1	96	192	4
NMSTR	34	0	6
NMSI_	34	0	6	96	192	2
NMSTR	35	0	1
NMSI_	35	0	1	96	192	5
NMSTR	36	0	7
NMSI_	36	0	7	96	192	4
NMSTR	37	0	3
NMSI_	37	0	3	96	192	0
NMSTR	38	0	7
NMSXR	38	0	7	96	480	2
NMTAP	40	0	0
NMTAP	40	0	1
NMTAP	40	96	0
NMTAP	40	96	1
NMTAP	40	192	2
NMTAP	40	288	2
NMTAP	41	0	3
NMTAP	41	0	4
NMTAP	41	96	3
NMTAP	41	96	4
NMTAP	41	192	5
NMTAP	41	288	5
NMTAP	42	0	6
NMTAP	42	0	7
NMTAP	42	96	6
NMTAP	42	96	7
NMTAP	42	192	5
NMTAP	42	288	5
NMTAP	43	0	3
NMTAP	43	0	4
NMTAP	43	96	3
NMTAP	43	96	4
NMTAP	43	192	2
NMTAP	43	192	5
NMTAP	44	0	4
NMTAP	44	96	5
NMTAP	44	192	6
NMTAP	44	288	7
NMTAP	45	0	0
NMTAP	45	96	1
NMTAP	45	192	2
NMTAP	45	192	3
NMTAP	46	0	3
NMTAP	46	96	3
NMTAP	46	192	2
NMTAP	46	288	2
NMTAP	47	0	1
NMTAP	47	96	1
NMTAP	47	192	0
NMTAP	47	288	0
NMTAP	48	0	7
NMTAP	48	96	7
NMTAP	48	192	6
NMTAP	48	288	6
NMTAP	49	0	5
NMTAP	49	96	5
NMTAP	49	192	3
NMTAP	49	192	4
NMTAP	50	0	5
NMTAP	50	96	5
NMTAP	50	192	4
NMTAP	50	192	5
NMTAP	51	0	6
NMTAP	51	96	6
NMTAP	51	192	6
NMTAP	51	192	7
NMTAP	52	0	0
NMTAP	52	96	0
NMTAP	52	192	0
NMTAP	52	192	1
NMTAP	53	0	2
NMTAP	53	0	3
NMTAP	53	96	2
NMTAP	53	96	3
NMTAP	53	192	2
NMTAP	53	192	3
NMTAP	54	0	2
NMTAP	54	96	2
NMTAP	54	192	2
NMTAP	54	192	3
NMTAP	55	0	1
NMTAP	55	96	1
NMTAP	55	192	0
NMTAP	55	192	1
NMTAP	56	0	7
NMTAP	56	96	7
NMTAP	56	192	6
NMTAP	56	192	7
NMTAP	57	0	4
NMTAP	57	0	5
NMTAP	57	96	4
NMTAP	57	96	5
NMTAP	57	192	4
NMTAP	57	192	5
NMTTP	58	0	6	B	0	L1
NMTTP	58	96	5	B	0	L1
NMTTP	58	192	4	B	0	L1
NMTTP	59	0	1	B	0	L1
NMTTP	59	96	2	B	0	L1
NMTTP	59	192	3	B	0	L1
NMTTP	60	0	6	B	0	L1
NMTTP	60	96	5	B	0	L1
NMTTP	60	192	4	B	0	L1
NMTTP	60	288	3	B	0	L1
NMTTP	61	0	2	B	0	L1
NMTTP	61	96	1	B	0	L1
NMTTP	61	192	0	C	0	L1
NMTTP	62	0	0	B	0	L1
NMTTP	62	96	1	B	0	L1
NMTTP	62	192	2	B	0	L1
NMTTP	62	192	3	B	0	L1
NMTTP	63	0	7	B	0	L1
NMTTP	63	96	6	B	0	L1
NMTTP	63	192	4	B	0	L1
NMTTP	63	192	5	B	0	L1
NMTTP	64	0	1	B	0	L1
NMTTP	64	96	2	B	0	L1
NMTTP	64	192	3	B	0	L1
NMTTP	64	288	4	B	0	L1
NMTTP	65	0	5	B	0	L1
NMTTP	65	96	6	B	0	L1
NMTTP	65	192	0	C	0	L1
NMTAP	66	0	0
NMTAP	66	0	7
NMTAP	66	96	0
NMTAP	66	96	7
NMTAP	66	192	1
NMTAP	66	288	1
NMTAP	67	0	2
NMTAP	67	0	3
NMTAP	67	96	2
NMTAP	67	96	3
NMTAP	67	192	1
NMTAP	67	288	1
NMTAP	68	0	0
NMTAP	68	0	7
NMTAP	68	96	0
NMTAP	68	96	7
NMTAP	68	192	6
NMTAP	68	288	6
NMTAP	69	0	4
NMTAP	69	0	5
NMTAP	69	96	4
NMTAP	69	96	5
NMTAP	69	192	3
NMTAP	69	192	6
NMSTR	70	0	4
NMSXR	70	0	4	96	480	1
NMSTR	70	0	5
NMSXL	70	0	5	96	480	0
NMTAP	72	0	0
NMTAP	72	0	7
NMTAP	72	96	0
NMTAP	72	96	7
NMTAP	72	192	6
NMTAP	72	288	6
NMTAP	73	0	4
NMTAP	73	0	5
NMTAP	73	96	4
NMTAP	73	96	5
NMTAP	73	192	6
NMTAP	73	288	6
NMTAP	74	0	0
NMTAP	74	0	7
NMTAP	74	96	0
NMTAP	74	96	7
NMTAP	74	192	1
NMTAP	74	288	1
NMTAP	75	0	2
NMTAP	75	0	3
NMTAP	75	96	2
NMTAP	75	96	3
NMTAP	75	192	1
NMTAP	75	192	4
NMTAP	76	0	2
NMTAP	76	96	1
NMTAP	76	192	0
NMTAP	76	288	7
NMTAP	77	0	6
NMTAP	77	96	5
BRTAP	77	192	3
BRTAP	77	192	4
NMTAP	78	0	5
NMTAP	78	96	6
NMTAP	78	192	7
NMTAP	78	288	0
NMTAP	79	0	1
NMTAP	79	96	2
BRTAP	79	192	3
BRTAP	79	192	4
BXTAP	79	288	3
BXTAP	79	288	4

T_REC_TAP	238
T_REC_BRK	4
T_REC_XTP	0
T_REC_BXX	2
T_REC_HLD	12
T_REC_XHO	0
T_REC_BHO	0
T_REC_BXH	0
T_REC_STR	9
T_REC_BST	0
T_REC_XST	0
T_REC_XBS	0
T_REC_TTP	28
T_REC_THO	0
T_REC_SLD	9
T_REC_BSL	0
T_REC_ALL	302
T_NUM_TAP	275
T_NUM_BRK	6
T_NUM_HLD	12
T_NUM_SLD	9
T_NUM_ALL	302
T_JUDGE_TAP	281
T_JUDGE_HLD	48
T_JUDGE_SLD	9
T_JUDGE_ALL	338
TTM_EACHPAIRS	61
TTM_SCR_TAP	137500
TTM_SCR_BRK	15600
TTM_SCR_HLD	12000
TTM_SCR_SLD	13500
TTM_SCR_ALL	178600
TTM_SCR_S	172700
TTM_SCR_SS	178000
TTM_RAT_ACV	10033

