VERSION	0.00.00	1.04.00
FES_MODE	0
BPM_DEF	160.000	160.000	160.000	160.000
MET_DEF	4	4
RESOLUTION	384
CLK_DEF	384
COMPATIBLE_CODE	MA2

BPM	0	0	160.000
MET	0	0	4	4

NMTAP	2	0	0
NMTAP	2	192	0
NMTAP	3	0	1
NMTAP	4	0	2
NMTAP	4	192	2
NMTAP	5	0	2
NMTAP	5	0	3
NMTAP	6	0	4
NMTAP	6	192	4
NMTAP	7	0	5
NMTAP	8	0	6
NMTAP	8	192	6
NMTAP	9	0	6
NMTAP	9	0	7
NMHLD	10	0	6	384
NMHLD	10	0	7	384
NMHLD	12	0	4	384
NMHLD	12	0	5	384
NMHLD	14	0	2	384
NMHLD	14	0	3	384
NMHLD	16	0	0	384
NMHLD	16	0	1	384
BRTAP	18	0	7
NMTAP	18	96	7
NMTAP	18	192	7
NMTAP	19	0	6
NMTAP	19	0	7
NMTAP	20	0	0
NMTAP	20	96	0
NMTAP	20	192	0
NMTAP	21	0	0
NMTAP	21	0	1
NMTAP	22	0	7
NMTAP	22	96	7
NMTAP	22	192	7
BXTAP	23	0	0
BXTAP	23	0	7
NMTAP	24	0	0
NMTAP	24	192	0
NMTAP	25	0	1
NMTAP	25	192	1
NMTAP	26	0	2
NMTAP	26	192	2
NMTAP	27	0	2
NMTAP	27	0	3
NMTAP	28	0	4
NMTAP	28	192	4
NMTAP	29	0	5
NMTAP	29	192	5
NMTAP	30	0	6
NMTAP	30	192	6
NMTAP	31	0	6
NMTAP	31	0	7
NMSTR	32	0	6
NMSI_	32	0	6	96	288	2
NMSTR	34	0	0
NMSI_	34	0	0	96	288	4
NMSTR	36	0	7
NMSI_	36	0	7	96	288	3
NMSTR	38	0	1
NMSI_	38	0	1	96	288	5
BRTAP	40	0	6
NMTAP	40	96	6
NMTAP	40	192	6
NMTAP	41	0	6
NMTAP	41	0	7
NMTAP	42	0	1
NMTAP	42	96	1
NMTAP	42	192	1
NMTAP	43	0	0
NMTAP	43	0	1
NMTAP	44	0	7
NMTAP	44	96	7
NMTAP	44	192	7
BXTAP	45	0	0
BXTAP	45	0	7
NMSTR	46	0	1
NMSI_	46	0	1	96	288	5
NMSTR	48	0	6
NMSI_	48	0	6	96	288	2
NMTAP	50	0	1
NMTAP	50	192	1
NMTAP	51	0	0
NMTAP	51	0	1
NMTAP	51	192	0
NMTAP	51	192	1
NMTAP	52	0	2
NMTAP	52	192	2
NMTAP	53	0	2
NMTAP	53	0	3
NMTAP	53	192	2
NMTAP	53	192	3
NMTAP	54	0	4
NMTAP	54	192	4
NMTAP	55	0	4
NMTAP	55	0	5
NMTAP	55	192	4
NMTAP	55	192	5
NMTAP	56	0	6
NMTAP	56	192	6
NMTAP	57	0	6
NMTAP	57	0	7
NMTTP	58	0	7	B	0	L1
NMTTP	59	0	0	B	0	L1
NMTTP	60	0	6	B	0	L1
NMTTP	61	0	1	B	0	L1
NMTTP	62	0	5	B	0	L1
NMTTP	63	0	2	B	0	L1
NMTHO	64	0	0	384	C	1	L1
BXTAP	66	0	7
NMTAP	66	96	7
NMTAP	66	192	7
NMTAP	67	0	6
NMTAP	67	0	7
NMTAP	67	192	6
NMTAP	67	192	7
NMTAP	68	0	0
NMTAP	68	96	0
NMTAP	68	192	0
NMTAP	69	0	0
NMTAP	69	0	1
NMTAP	69	192	0
NMTAP	69	192	1
NMTAP	70	0	7
NMTAP	70	96	7
NMTAP	70	192	7
BXTAP	71	0	0
BXTAP	71	0	7
BRTAP	72	0	0
NMTAP	72	96	0
NMTAP	72	192	1
NMTAP	72	288	1
NMTAP	73	0	2
NMTAP	73	96	2
NMTAP	73	192	2
NMTAP	73	192	3
NMTAP	74	0	4
NMTAP	74	96	4
NMTAP	74	192	5
NMTAP	74	288	5
NMTAP	75	0	6
NMTAP	75	96	6
NMTAP	75	192	6
NMTAP	75	192	7
NMTAP	76	0	6
NMTAP	76	0	7
NMTAP	76	96	6
NMTAP	76	96	7
NMTAP	76	192	6
NMTAP	76	192	7
NMTAP	77	0	0
NMTAP	77	0	1
NMTAP	77	96	0
NMTAP	77	96	1
NMTAP	77	192	0
NMTAP	77	192	1
NMTAP	78	0	0
NMTAP	78	0	7
NMTAP	78	96	0
NMTAP	78	96	7
NMTAP	78	192	0
NMTAP	78	192	7
EXHLD	79	0	1	288
EXHLD	79	0	6	288

T_REC_TAP	125
T_REC_BRK	3
T_REC_XTP	0
T_REC_BXX	7
T_REC_HLD	8
T_REC_XHO	2
T_REC_BHO	0
T_REC_BXH	0
T_REC_STR	6
T_REC_BST	0
T_REC_XST	0
T_REC_XBS	0
T_REC_TTP	6
T_REC_THO	1
T_REC_SLD	6
T_REC_BSL	0
T_REC_ALL	164
T_NUM_TAP	137
T_NUM_BRK	10
T_NUM_HLD	11
T_NUM_SLD	6
T_NUM_ALL	164
T_JUDGE_TAP	147
T_JUDGE_HLD	84
T_JUDGE_SLD	6
T_JUDGE_ALL	237
TTM_EACHPAIRS	38
TTM_SCR_TAP	68500
TTM_SCR_BRK	26000
TTM_SCR_HLD	11000
TTM_SCR_SLD	9000
TTM_SCR_ALL	114500
TTM_SCR_S	110100
TTM_SCR_SS	113500
TTM_RAT_ACV	10088

