VERSION	0.00.00	1.04.00
FES_MODE	0
BPM_DEF	176.000	176.000	176.000	176.000
MET_DEF	4	4
RESOLUTION	384
CLK_DEF	384
COMPATIBLE_CODE	MA2

BPM	0	0	176.000
MET	0	0	4	4

NMTTP	1	0	0	B	0	M1
NMTTP	1	0	0	C	1	M1
NMTTP	1	0	1	B	0	M1
NMTTP	1	0	2	B	0	M1
NMTTP	1	0	3	B	0	M1
NMTTP	1	0	4	B	0	M1
NMTTP	1	0	5	B	0	M1
NMTTP	1	0	6	B	0	M1
NMTTP	1	0	7	B	0	M1
NMTAP	2	48	4
NMTAP	2	96	5
NMTAP	2	144	6
NMTAP	2	192	7
NMTAP	2	240	0
NMTAP	2	288	1
NMTAP	2	336	2
NMTAP	3	0	3
NMTAP	3	0	4
NMTAP	3	96	6
NMTAP	3	144	6
NMTAP	3	144	7
NMTAP	3	240	1
NMTAP	3	288	0
NMTAP	3	288	1
NMTTP	4	0	2	B	0	M1
NMTTP	4	0	2	E	0	M1
NMTTP	4	0	2	A	0	M1
EXTAP	4	0	7
EXTAP	4	96	0
NMTTP	4	96	5	B	0	M1
NMTTP	4	96	5	A	0	M1
NMTTP	4	96	6	E	0	M1
NMTTP	4	192	3	B	0	M1
NMTTP	4	192	3	E	0	M1
NMTTP	4	192	3	A	0	M1
EXTAP	4	192	6
BRSTR	4	288	0
NMSI_	4	288	0	96	48	3
EXSTR	5	0	4
NMSI_	5	0	4	96	48	7
EXSTR	5	96	1
NMSI_	5	96	1	96	48	6
EXSTR	5	192	5
NMSI_	5	192	5	96	48	2
EXSTR	5	288	0
NMSI_	5	288	0	96	48	3
EXSTR	6	0	4
NMSI_	6	0	4	96	48	7
EXSTR	6	96	1
NMSI_	6	96	1	96	48	6
EXSTR	6	192	5
NMSI_	6	192	5	96	48	2
EXSTR	6	288	0
NMSI_	6	288	0	96	48	4
EXSTR	7	0	7
NMSI_	7	0	7	96	48	3
EXSTR	7	96	1
NMSI_	7	96	1	96	48	4
EXTAP	7	192	5
EXTAP	7	288	3
NMTAP	7	288	6
NMTAP	8	0	4
EXTAP	8	0	5
NMTAP	8	48	6
NMTAP	8	96	0
EXTAP	8	96	7
NMTAP	8	144	1
EXTAP	8	192	2
NMTAP	8	192	3
BRSTR	8	288	1
NMSI_	8	288	1	96	48	4
BXTAP	8	288	5
EXSTR	9	0	5
NMSI_	9	0	5	96	48	0
EXSTR	9	96	2
NMSI_	9	96	2	96	48	7
EXSTR	9	192	6
NMSI_	9	192	6	96	48	3
EXSTR	9	288	1
NMSI_	9	288	1	96	48	4
EXSTR	10	0	5
NMSI_	10	0	5	96	48	0
EXSTR	10	96	2
NMSI_	10	96	2	96	48	7
EXTAP	10	192	6
EXTAP	10	288	0
NMTAP	10	288	6
NMTAP	11	0	6
EXTAP	11	0	7
NMTAP	11	48	5
NMTAP	11	96	3
EXTAP	11	96	4
NMTAP	11	144	2
NMTAP	11	192	0
EXTAP	11	192	1
EXSTR	11	288	0
NMSCR	11	288	0	96	48	3
NMSTR	11	288	7
NMSCL	11	288	7	96	48	4
NMSTR	12	0	0
NMSI_	12	0	0	96	48	4
EXSTR	12	0	7
NMSI_	12	0	7	96	48	3
EXTAP	12	96	0
NMTAP	12	96	7
BXHLD	12	192	0	48
BXHLD	12	192	7	96
NMHLD	13	0	1	144
NMTAP	13	144	3
NMHLD	13	192	4	144
NMTAP	13	336	3
NMHLD	14	0	2	144
NMTAP	14	144	3
NMTAP	14	240	2
NMTAP	14	240	4
NMTAP	14	288	2
NMTAP	14	288	4
NMHLD	15	0	6	144
NMTAP	15	144	4
NMHLD	15	192	3	144
NMTAP	15	336	4
NMHLD	16	0	5	144
NMHLD	16	144	4	96
NMTTP	16	240	6	A	0	M1
NMTTP	16	288	7	A	0	M1
NMHLD	17	0	2	144
NMTAP	17	144	0
NMHLD	17	192	7	144
NMTAP	17	336	0
NMHLD	18	0	1	144
NMTAP	18	144	0
NMTAP	18	240	1
NMTAP	18	240	7
NMTAP	18	288	1
NMTAP	18	288	7
NMHLD	19	0	6	144
NMTAP	19	144	7
NMTAP	19	192	0
NMTAP	19	288	1
NMTAP	19	288	5
NMSTR	19	336	1
NMSI_	19	336	1	96	48	4
NMSTR	19	336	5
NMSI_	19	336	5	96	48	0
BRTAP	20	144	3
BRTAP	20	144	7
EXTAP	20	240	0
EXTAP	20	288	0
NMTAP	21	0	2
NMTAP	21	0	7
NMTAP	21	72	0
NMSTR	21	96	1
NMSLR	21	96	1	96	96	7
NMTAP	21	144	7
NMTAP	21	192	1
NMTAP	21	336	5
NMTAP	22	0	0
NMTAP	22	0	5
NMTAP	22	72	7
NMSTR	22	96	6
NMSI_	22	96	6	96	48	2
NMTAP	22	144	0
NMSTR	22	192	1
NMSI_	22	192	1	96	48	5
NMTAP	22	192	6
NMTAP	22	288	1
NMTAP	23	48	6
NMTAP	23	72	7
NMTAP	23	96	6
NMTAP	23	144	5
NMTAP	23	192	4
NMTAP	23	192	5
NMTAP	23	240	6
NMTAP	23	288	0
NMTAP	23	288	7
NMTAP	23	336	1
NMSTR	24	0	2
NMSCL	24	0	2	96	48	0
NMTAP	24	24	3
NMTAP	24	48	2
NMTAP	24	72	3
NMSTR	24	96	2
NMSCR	24	96	2	96	48	4
NMTAP	24	192	2
BRTAP	24	288	3
BRTAP	24	288	6
NMTAP	25	0	3
NMTAP	25	0	6
NMTAP	25	72	4
NMSTR	25	96	5
NMSLR	25	96	5	96	96	3
NMTAP	25	144	3
NMTAP	25	192	5
NMTAP	25	336	1
NMTAP	26	0	1
NMTAP	26	0	4
NMTAP	26	72	3
NMTAP	26	96	2
NMTAP	26	144	4
NMTAP	26	192	1
NMTAP	26	192	5
NMTAP	26	288	0
NMTAP	26	288	7
NMSTR	27	0	2
NMSXR	27	0	2	96	48	0
NMSTR	27	0	6
NMSXR	27	0	6	96	48	4
NMTTP	27	192	1	E	0	M1
NMTTP	27	192	1	A	1	M1
NMTTP	27	192	2	E	0	M1
NMTTP	27	240	6	E	0	M1
NMTTP	27	240	6	A	1	M1
NMTTP	27	240	7	E	0	M1
NMTTP	27	288	3	B	0	M1
NMTTP	27	288	4	B	0	M1
NMTTP	27	288	4	E	1	M1
NMTTP	27	288	4	D	0	M1
NMTTP	27	336	0	C	1	M1
NMTAP	28	192	0
NMTAP	28	216	7
NMTAP	28	240	0
NMTAP	28	264	7
NMSTR	28	288	0
NMSI_	28	288	0	96	48	3
BRSTR	29	0	0
NMSI_	29	0	0	96	48	5
NMSTR	29	96	0
NMSI_	29	96	0	96	48	4
NMTAP	29	192	0
NMTAP	29	288	2
NMTAP	29	288	6
NMTAP	30	0	3
NMTAP	30	0	5
NMSTR	30	48	3
NMSXL	30	48	3	96	96	3
NMSXR	30	48	3	96	96	3
NMTAP	30	48	5
NMSTR	30	336	1
NMSI_	30	336	1	96	48	5
NMTAP	31	0	1
NMSTR	31	48	7
NMSI_	31	48	7	96	48	4
NMTAP	31	96	7
NMSTR	31	144	0
NMSI_	31	144	0	96	48	4
NMTAP	31	192	0
NMTAP	31	240	5
NMTAP	31	288	5
NMSTR	32	0	3
NMSI_	32	0	3	96	48	6
NMSI_	32	0	3	96	48	7
BRTAP	32	96	3
NMSTR	32	192	4
NMSI_	32	192	4	96	48	0
NMSI_	32	192	4	96	48	1
BRTAP	32	288	4
NMSTR	33	0	7
NMSCL	33	0	7	96	48	4
NMTAP	33	96	2
NMSTR	33	96	7
NMSCR	33	96	7	96	48	2
NMTAP	33	192	4
NMTAP	33	192	7
NMTAP	33	288	1
NMTAP	33	288	5
NMTAP	34	0	2
NMTAP	34	0	4
NMSTR	34	48	2
NMSV_	34	48	2	96	48	7
NMSTR	34	48	4
NMSV_	34	48	4	96	48	7
NMTAP	34	144	2
NMTAP	34	144	4
EXTAP	34	240	0
EXTAP	34	240	6
EXTAP	34	288	0
EXSTR	34	288	6
NMSLL	34	288	6	96	96	1
NMSTR	35	0	1
NMSLR	35	0	1	96	96	6
NMTAP	35	96	6
NMTAP	35	192	1
NMTAP	35	288	0
NMTAP	35	288	7
NMSTR	36	0	1
NMSI_	36	0	1	96	48	4
NMSTR	36	0	6
NMSI_	36	0	6	96	48	3
NMTAP	36	96	1
NMTAP	36	96	6
BRTAP	36	192	2
BRTAP	36	192	5
NMTAP	36	288	3
NMTAP	36	288	4
NMSTR	37	0	0
NMSI_	37	0	0	96	96	2
NMTAP	37	96	6
NMTAP	37	144	6
CNSI_	37	192	2	0	96	7
NMTAP	37	192	6
NMTAP	37	240	6
NMTAP	37	288	6
CNSI_	37	288	7	0	96	3
NMTAP	37	336	6
NMTAP	38	0	6
NMTAP	38	96	4
NMSTR	38	96	5
NMSI_	38	96	5	96	48	1
NMSTR	38	192	4
NMSI_	38	192	4	96	48	0
NMTAP	38	192	5
NMTAP	38	288	4
NMSTR	39	0	7
BRSI_	39	0	7	96	96	1
NMTAP	39	96	2
NMTAP	39	144	2
CNSI_	39	192	1	0	96	5
NMTAP	39	192	2
NMTAP	39	240	2
NMTAP	39	288	2
CNSI_	39	288	5	0	96	3
NMTAP	39	336	2
NMTAP	40	0	2
NMSTR	40	96	2
NMSI_	40	96	2	96	48	6
NMTAP	40	96	3
NMTAP	40	192	2
NMSTR	40	192	3
NMSI_	40	192	3	96	48	7
NMTAP	40	288	3
NMHLD	41	0	1	192
NMTAP	41	96	0
NMTAP	41	144	7
NMHLD	41	192	6	192
NMTAP	41	288	0
NMTAP	41	336	1
NMHLD	42	0	2	192
NMTAP	42	96	0
NMTAP	42	144	7
NMTAP	42	192	6
NMTAP	42	288	2
NMTAP	42	288	6
NMHLD	43	0	0	96
NMHLD	43	0	5	96
NMTAP	43	144	2
NMTAP	43	144	7
NMHLD	43	192	2	96
NMHLD	43	192	7	96
BRTAP	44	0	2
BRTAP	44	0	7
NMTAP	44	16	1
NMTAP	44	16	6
NMHLD	44	32	0	64
NMHLD	44	32	5	64
BRTAP	44	192	0
BRTAP	44	192	5
NMTAP	44	208	1
NMTAP	44	208	6
NMHLD	44	224	2	64
NMHLD	44	224	7	64
BRTAP	45	0	3
BRTAP	45	0	7
NMTAP	45	16	2
NMTAP	45	16	6
NMTAP	45	32	1
NMTAP	45	32	5
NMSTR	45	48	0
NMSXR	45	48	0	96	432	1
NMSTR	45	48	4
NMSXR	45	48	4	96	432	5
NMHLD	47	0	2	768
NMTTP	47	96	4	D	0	M1
NMTTP	47	144	3	A	0	M1
NMTTP	47	288	4	E	0	M1
NMTTP	48	96	4	D	0	M1
NMTTP	48	144	3	A	0	M1
NMTTP	48	288	4	E	0	M1
NMHLD	49	0	5	768
NMTTP	49	96	4	D	0	M1
NMTTP	49	144	4	A	0	M1
NMTTP	49	288	4	E	0	M1
NMTTP	50	96	4	D	0	M1
NMTTP	50	144	4	A	0	M1
NMTTP	50	288	4	E	0	M1
NMHLD	51	0	2	768
NMTTP	51	96	4	D	0	M1
NMTTP	51	144	3	A	0	M1
NMTTP	51	288	4	E	0	M1
NMTTP	52	96	4	D	0	M1
NMTTP	52	144	3	A	0	M1
NMTTP	52	288	4	E	0	M1
NMTAP	53	0	5
NMTAP	53	48	4
NMTAP	53	96	3
NMTAP	53	144	2
NMTAP	53	192	3
NMTAP	53	240	4
NMTAP	53	288	3
BRTAP	53	336	2
BRTAP	53	336	5
NMTAP	54	192	7
NMTAP	54	216	0
NMTAP	54	240	7
NMTAP	54	264	0
NMSTR	54	288	7
NMSI_	54	288	7	96	48	4
NMSCL	54	288	7	96	48	4
BRSTR	55	0	7
NMSI_	55	0	7	96	48	2
NMSCR	55	0	7	96	48	2
NMSTR	55	96	7
NMSI_	55	96	7	96	48	4
NMSCL	55	96	7	96	48	4
NMTAP	55	192	7
EXTAP	55	288	3
EXTAP	55	288	5
NMTAP	56	0	2
NMTAP	56	0	4
NMTAP	56	48	2
NMSTR	56	48	4
NMSXL	56	48	4	96	96	4
NMSXR	56	48	4	96	96	4
NMSTR	56	336	6
NMSUL	56	336	6	96	48	2
NMTAP	57	0	6
NMSTR	57	48	0
NMSCR	57	48	0	96	48	3
NMTAP	57	96	0
NMSTR	57	144	7
NMSUL	57	144	7	96	48	3
NMTAP	57	192	7
NMTAP	57	240	2
NMTAP	57	288	2
NMSTR	58	0	4
NMSV_	58	0	4	96	48	1
NMSTR	58	0	5
NMSCR	58	0	5	96	48	0
BRTAP	58	96	4
BRTAP	58	96	5
NMSTR	58	192	2
NMSCL	58	192	2	96	48	7
NMSTR	58	192	3
NMSV_	58	192	3	96	48	6
BRTAP	58	288	2
BRTAP	58	288	3
NMSTR	59	0	5
BRSI_	59	0	5	96	48	1
NMSTR	59	96	0
BRSI_	59	96	0	96	48	4
NMTTP	59	96	5	A	1	M1
NMTTP	59	192	0	A	1	M1
NMSTR	59	192	3
BRSI_	59	192	3	96	48	7
NMTTP	59	288	3	A	1	M1
NMTAP	60	0	0
NMSTR	60	48	0
BRSF_	60	48	0	96	48	4
NMTTP	60	144	0	A	1	M1
EXTAP	60	240	2
EXTAP	60	240	6
EXSTR	60	288	2
NMSCL	60	288	2	96	96	6
EXTAP	60	288	6
NMSTR	61	0	6
NMSCL	61	0	6	96	96	2
NMTAP	61	96	2
NMTAP	61	192	6
NMTAP	61	288	0
NMTAP	61	288	7
NMSTR	62	0	1
NMSI_	62	0	1	96	48	4
NMSTR	62	0	5
NMSV_	62	0	5	96	48	0
NMTAP	62	96	1
NMTAP	62	96	5
NMHLD	62	192	3	96
NMHLD	62	192	7	96
BRTAP	63	0	0
BRSTR	63	0	1
NMSI_	63	0	1	96	48	4
NMTAP	63	96	1
NMTAP	63	96	7
NMSTR	63	144	6
NMSI_	63	144	6	96	48	3
NMTAP	63	240	0
NMTAP	63	240	6
NMSTR	63	288	1
NMSCR	63	288	1	96	48	4
NMTAP	64	0	1
NMTAP	64	0	7
NMSTR	64	48	6
NMSCL	64	48	6	96	48	3
NMTAP	64	144	0
NMTAP	64	144	6
NMTAP	64	192	1
NMTAP	64	288	0
NMTAP	64	288	1
NMSTR	65	0	2
NMSI_	65	0	2	96	48	7
NMTAP	65	0	7
NMTAP	65	96	2
NMTAP	65	96	6
NMSTR	65	144	5
NMSI_	65	144	5	96	48	0
NMTAP	65	240	0
NMTAP	65	240	5
NMTAP	65	288	1
NMSTR	66	0	0
NMSV_	66	0	0	96	48	3
NMSV_	66	0	0	96	48	5
NMTAP	66	96	0
NMTAP	66	192	2
NMTAP	66	192	6
NMSTR	66	288	3
NMSI_	66	288	3	96	48	0
NMSCL	66	288	3	96	48	0
BRSTR	67	0	3
NMSI_	67	0	3	96	48	6
NMSCR	67	0	3	96	48	6
NMSTR	67	96	3
NMSI_	67	96	3	96	48	0
NMSCL	67	96	3	96	48	0
NMTAP	67	192	3
EXTAP	67	288	1
EXTAP	67	288	7
NMTAP	68	0	3
NMTAP	68	0	5
NMSTR	68	48	3
NMSXR	68	48	3	96	120	4
NMSTR	68	48	5
NMSXL	68	48	5	96	120	4
NMTAP	68	336	5
NMTAP	69	0	6
NMTAP	69	48	7
NMTAP	69	96	0
NMTAP	69	144	1
NMTAP	69	144	3
NMTAP	69	240	0
NMTAP	69	240	4
NMTAP	69	288	0
NMTAP	69	288	4
NMTTP	70	0	2	B	0	M1
NMTTP	70	0	2	E	0	M1
NMTTP	70	0	2	A	0	M1
NMTAP	70	0	7
NMTAP	70	96	1
NMTTP	70	96	5	B	0	M1
NMTTP	70	96	5	A	0	M1
NMTTP	70	96	6	E	0	M1
NMTTP	70	192	3	B	0	M1
NMTTP	70	192	3	E	0	M1
NMTTP	70	192	3	A	0	M1
NMTAP	70	192	6
BRSTR	70	288	0
NMSI_	70	288	0	96	48	3
NMTAP	71	0	0
EXSTR	71	0	4
NMSI_	71	0	4	96	48	7
EXSTR	71	96	2
NMSI_	71	96	2	96	48	5
NMTAP	71	96	4
NMTAP	71	192	2
EXSTR	71	192	6
NMSI_	71	192	6	96	48	1
EXSTR	71	288	0
NMSI_	71	288	0	96	48	3
NMTAP	71	288	6
EXTAP	71	336	0
EXTAP	72	0	0
EXSTR	72	0	4
NMSI_	72	0	4	96	48	7
EXTAP	72	96	2
NMTAP	72	96	4
BRTAP	72	192	0
BXTAP	72	192	1
BXSTR	72	288	6
NMSI_	72	288	6	96	48	3
BRTAP	72	288	7
EXSTR	73	0	1
NMSI_	73	0	1	96	48	4
NMTAP	73	0	6
NMTAP	73	96	1
EXSTR	73	96	5
NMSI_	73	96	5	96	48	0
EXSTR	73	192	2
NMSI_	73	192	2	96	48	7
NMTAP	73	192	5
NMTAP	73	288	2
EXSTR	73	288	6
NMSI_	73	288	6	96	48	3
EXTAP	73	336	6
EXSTR	74	0	1
NMSI_	74	0	1	96	48	4
EXTAP	74	0	6
NMTAP	74	96	1
EXTAP	74	96	5
BXTAP	74	192	4
BRTAP	74	192	5
BRSTR	74	288	3
NMSCL	74	288	3	96	48	0
BXTAP	74	288	7
NMTAP	75	0	3
EXSTR	75	0	6
NMSI_	75	0	6	96	48	2
EXSTR	75	96	1
NMSI_	75	96	1	96	48	5
NMTAP	75	96	6
NMTAP	75	192	1
EXSTR	75	192	4
NMSCR	75	192	4	96	48	7
EXSTR	75	288	2
NMSI_	75	288	2	96	48	6
NMTAP	75	288	4
EXTAP	75	336	2
EXTAP	76	0	2
EXSTR	76	0	5
NMSI_	76	0	5	96	48	1
EXTAP	76	96	0
NMTAP	76	96	5
BRTAP	76	192	0
BXTAP	76	192	1
BRTAP	76	288	2
BXTAP	76	288	7
EXTAP	77	0	6
NMTAP	77	0	7
NMTAP	77	48	5
NMTAP	77	96	0
EXTAP	77	96	1
NMTAP	77	144	2
NMTAP	77	192	0
EXTAP	77	192	7
EXSTR	77	288	0
NMSI_	77	288	0	96	48	5
NMSTR	77	288	7
NMSI_	77	288	7	96	48	5
NMTAP	77	336	1
NMTAP	77	336	6
NMSTR	78	0	0
NMSI_	78	0	0	96	48	2
EXSTR	78	0	7
NMSI_	78	0	7	96	48	2
EXSTR	78	96	0
NMSI_	78	96	0	96	48	5
NMSTR	78	96	7
NMSI_	78	96	7	96	48	5
NMTAP	78	192	0
EXTAP	78	192	7
BRTAP	78	288	3
BRSTR	78	288	7
NMSCL	78	288	7	96	48	5
EXTAP	79	0	2
NMSTR	79	0	7
NMSCR	79	0	7	96	48	1
EXTAP	79	96	3
NMSTR	79	96	7
NMSI_	79	96	7	96	48	5
EXTAP	79	192	4
NMSTR	79	192	7
NMSI_	79	192	7	96	48	1
EXTAP	79	288	3
NMSTR	79	288	7
BRSXR	79	288	7	96	144	3
EXTAP	79	336	3
EXSTR	80	0	2
BRSV_	80	0	2	96	48	0
NMTAP	80	0	7
EXTAP	80	96	2
BRTAP	80	192	1
BXTAP	80	192	4
BXSTR	80	288	0
NMSCL	80	288	0	96	48	6
BRTAP	80	288	5
NMSTR	81	0	0
NMSCR	81	0	0	96	48	2
EXTAP	81	0	3
NMSTR	81	96	0
NMSI_	81	96	0	96	48	6
EXTAP	81	96	4
NMSTR	81	192	0
NMSI_	81	192	0	96	48	2
EXTAP	81	192	5
NMTAP	81	288	0
EXSTR	81	288	4
BRSXL	81	288	4	96	144	0
EXTAP	81	336	4
NMSTR	82	0	1
BRSV_	82	0	1	96	48	3
EXTAP	82	0	4
EXTAP	82	96	1
BXTAP	82	192	0
BRTAP	82	192	1
BXTAP	82	288	2
BRSTR	82	288	7
NMSI_	82	288	7	96	48	5
EXTAP	83	0	4
NMSTR	83	0	7
NMSCR	83	0	7	96	48	1
EXTAP	83	96	3
NMSTR	83	96	7
NMSCL	83	96	7	96	48	5
EXTAP	83	192	2
NMSTR	83	192	7
NMSI_	83	192	7	96	48	1
EXTAP	83	288	3
NMSTR	83	288	7
BRSXR	83	288	7	96	144	3
EXTAP	83	336	3
EXSTR	84	0	2
BRSV_	84	0	2	96	48	0
NMTAP	84	0	7
EXTAP	84	96	2
BRTAP	84	192	1
BXTAP	84	192	4
BXTAP	84	288	0
BRTAP	84	288	5
EXTAP	85	0	2
NMTAP	85	0	3
NMTAP	85	48	1
NMTAP	85	96	4
EXTAP	85	96	5
NMTAP	85	144	6
EXTAP	85	192	0
NMTAP	85	192	7
NMSTR	85	288	0
NMSCR	85	288	0	96	48	2
EXSTR	85	288	7
NMSI_	85	288	7	96	48	2
NMTAP	85	336	1
NMTAP	85	336	6
EXSTR	86	0	0
NMSI_	86	0	0	96	48	5
NMSTR	86	0	7
NMSCL	86	0	7	96	48	5
NMSTR	86	96	0
NMSI_	86	96	0	96	48	4
EXSTR	86	96	7
NMSI_	86	96	7	96	48	3
EXTAP	86	192	0
NMTAP	86	192	7
BRHLD	86	288	1	96
BRHLD	86	288	6	96
NMTTP	88	0	0	A	0	M1
NMTTP	88	0	1	A	0	M1
NMTTP	88	0	1	D	0	M1
NMTTP	88	0	4	B	0	M1
NMTTP	88	0	5	B	0	M1
NMTTP	88	0	6	E	0	M1
NMTTP	88	96	2	B	0	M1
NMTTP	88	96	2	E	0	M1
NMTTP	88	96	3	B	0	M1
NMTTP	88	96	6	A	0	M1
NMTTP	88	96	7	A	0	M1
NMTTP	88	96	7	D	0	M1
NMTTP	88	192	0	E	0	M1
NMTHO	88	192	0	96	C	0	M1
NMTTP	88	192	4	E	0	M1

T_REC_TAP	257
T_REC_BRK	32
T_REC_XTP	61
T_REC_BXX	11
T_REC_HLD	27
T_REC_XHO	0
T_REC_BHO	2
T_REC_BXH	2
T_REC_STR	80
T_REC_BST	10
T_REC_XST	44
T_REC_XBS	2
T_REC_TTP	76
T_REC_THO	1
T_REC_SLD	136
T_REC_BSL	11
T_REC_ALL	752
T_NUM_TAP	518
T_NUM_BRK	70
T_NUM_HLD	28
T_NUM_SLD	136
T_NUM_ALL	752
T_JUDGE_TAP	573
T_JUDGE_HLD	121
T_JUDGE_SLD	147
T_JUDGE_ALL	841
TTM_EACHPAIRS	161
TTM_SCR_TAP	259000
TTM_SCR_BRK	182000
TTM_SCR_HLD	28000
TTM_SCR_SLD	204000
TTM_SCR_ALL	673000
TTM_SCR_S	646050
TTM_SCR_SS	666000
TTM_RAT_ACV	10105

