VERSION	0.00.00	1.04.00
FES_MODE	0
BPM_DEF	176.000	176.000	176.000	176.000
MET_DEF	4	4
RESOLUTION	384
CLK_DEF	384
COMPATIBLE_CODE	MA2

BPM	0	0	176.000
MET	0	0	4	4

NMTTP	1	0	0	C	1	M1
EXHLD	3	0	3	288
EXHLD	3	144	4	144
EXTAP	4	0	2
EXTAP	4	0	5
EXTAP	4	96	2
EXTAP	4	96	5
EXTAP	4	192	2
EXTAP	4	192	5
NMTAP	5	0	2
NMTAP	5	0	3
NMTAP	5	96	2
NMTAP	5	96	3
NMTAP	5	192	0
NMTAP	5	192	1
NMTAP	5	288	0
NMTAP	5	288	1
NMTAP	6	0	6
NMTAP	6	0	7
NMTAP	6	96	6
NMTAP	6	96	7
NMTAP	6	192	4
NMTAP	6	192	5
NMTAP	6	288	4
NMTAP	6	288	5
NMTAP	7	0	6
NMTAP	7	0	7
NMTAP	7	96	6
NMTAP	7	96	7
NMTAP	7	192	0
NMTAP	7	192	1
NMTAP	7	288	0
NMTAP	7	288	1
NMTAP	8	0	2
NMTAP	8	0	3
NMTAP	8	96	2
NMTAP	8	96	3
EXTAP	8	192	1
EXTAP	8	192	4
NMTAP	9	0	2
NMTAP	9	0	3
NMTAP	9	96	2
NMTAP	9	96	3
NMTAP	9	192	0
NMTAP	9	192	1
NMTAP	9	288	0
NMTAP	9	288	1
NMTAP	10	0	6
NMTAP	10	0	7
NMTAP	10	96	6
NMTAP	10	96	7
NMTAP	10	192	4
NMTAP	10	192	5
NMTAP	10	288	4
NMTAP	10	288	5
NMTAP	11	0	6
NMTAP	11	0	7
NMTAP	11	96	6
NMTAP	11	96	7
NMTAP	11	192	0
NMTAP	11	192	1
NMTAP	11	288	0
NMTAP	11	288	1
NMTAP	12	0	0
NMTAP	12	0	7
NMTAP	12	96	0
NMTAP	12	96	7
BRTAP	12	192	1
BRTAP	12	192	6
NMTAP	13	0	2
NMTAP	13	48	2
NMTAP	13	96	3
NMTAP	13	192	2
NMTAP	13	192	4
NMTAP	13	288	5
NMHLD	13	336	5	96
NMTAP	14	48	4
NMTAP	14	96	4
NMTAP	14	192	4
NMTAP	14	192	6
NMTAP	14	288	3
NMTAP	14	288	5
NMTAP	15	0	2
NMTAP	15	0	4
NMTAP	15	144	1
NMHLD	15	192	1	96
NMTAP	15	288	0
NMSTR	15	336	0
NMSF_	15	336	0	96	96	4
NMTAP	16	240	2
NMTAP	16	240	6
NMTAP	16	288	2
NMTAP	16	288	6
NMTAP	17	0	5
NMTAP	17	48	5
NMTAP	17	96	4
NMTAP	17	192	3
NMTAP	17	192	5
NMTAP	17	288	2
NMHLD	17	336	2	96
NMTAP	18	48	3
NMTAP	18	96	3
NMTAP	18	192	1
NMTAP	18	192	3
NMTAP	18	288	2
NMTAP	18	288	4
NMTAP	19	0	3
NMTAP	19	0	5
NMTAP	19	144	6
NMHLD	19	192	6	96
NMTAP	19	288	7
NMTAP	19	336	7
NMTAP	20	48	1
NMTAP	20	96	1
NMTAP	20	144	0
BXTAP	20	240	0
BXTAP	20	240	7
BXTAP	20	288	0
BXTAP	20	288	7
NMSTR	21	0	6
NMSLL	21	0	6	96	192	2
NMTAP	21	288	1
NMSTR	22	0	1
NMSLR	22	0	1	96	192	5
NMTAP	22	288	6
NMTTP	23	0	1	E	0	M1
NMTTP	23	96	2	E	0	M1
NMTTP	23	192	7	E	0	M1
NMTTP	23	288	6	E	0	M1
NMTTP	24	0	3	E	0	M1
NMTTP	24	96	5	E	0	M1
NMTTP	24	192	0	C	0	M1
NMSTR	25	0	1
NMSCR	25	0	1	96	192	6
NMTAP	25	288	7
NMSTR	26	0	7
NMSSR	26	0	7	96	192	3
NMTAP	26	288	2
NMHLD	27	0	1	96
NMHLD	27	96	0	96
NMTAP	27	192	7
NMTAP	27	288	0
NMTAP	27	288	6
BRTAP	27	336	0
BRTAP	27	336	6
EXTAP	28	240	1
EXTAP	28	288	1
NMTAP	29	0	2
NMTAP	29	0	3
NMTAP	29	96	0
NMTAP	29	96	6
NMTAP	29	192	4
NMTAP	29	192	5
NMTAP	29	288	1
NMTAP	29	288	7
NMTAP	30	0	2
NMTAP	30	0	3
NMTAP	30	48	2
NMTAP	30	48	3
NMTAP	30	144	0
NMTAP	30	144	6
NMTAP	30	240	1
NMTAP	30	240	7
NMTAP	30	288	1
NMTAP	30	288	7
NMHLD	31	0	6	96
NMHLD	31	96	4	96
NMHLD	31	192	3	96
NMTAP	31	288	1
NMTAP	32	0	2
NMTAP	32	96	1
NMTAP	32	96	7
NMTAP	32	192	5
NMTAP	32	288	0
NMTAP	32	288	6
EXTAP	33	0	1
NMTAP	33	96	0
NMTAP	33	96	1
NMTAP	33	192	3
NMTAP	33	192	5
NMTAP	33	288	6
NMTAP	33	288	7
NMTAP	34	0	1
NMTAP	34	0	3
NMTAP	34	48	1
NMTAP	34	48	3
NMTAP	34	144	4
NMTAP	34	144	6
NMTAP	34	240	0
NMTAP	34	240	7
NMTAP	34	288	0
NMTAP	34	288	7
NMHLD	35	0	1	96
NMHLD	35	96	3	96
NMHLD	35	192	4	96
NMTAP	35	288	6
NMTAP	36	0	6
NMTAP	36	0	7
NMTAP	36	96	3
NMTAP	36	96	4
BRTAP	36	192	1
BRTAP	36	192	7
NMSTR	37	0	0
NMSCR	37	0	0	96	192	4
NMHLD	38	0	4	96
NMHLD	38	0	5	96
EXTAP	38	192	3
EXTAP	38	192	6
BXTAP	38	288	3
BXTAP	38	288	6
NMSTR	39	0	7
NMSCL	39	0	7	96	192	3
NMHLD	40	0	2	96
NMHLD	40	0	3	96
EXTAP	40	192	1
EXTAP	40	192	4
BXTAP	40	288	1
BXTAP	40	288	4
NMSTR	41	0	2
NMSI_	41	0	2	96	96	4
NMSTR	41	192	6
NMSI_	41	192	6	96	96	3
NMSTR	42	0	0
NMSI_	42	0	0	96	96	4
NMTAP	42	192	5
NMTAP	42	288	5
NMSTR	43	0	4
NMSI_	43	0	4	96	96	1
NMSTR	43	0	5
NMSI_	43	0	5	96	96	7
NMSTR	44	0	2
NMSI_	44	0	2	96	96	0
NMSTR	44	0	3
NMSI_	44	0	3	96	96	6
NMSTR	45	0	4
NMSXR	45	0	4	96	480	1
NMSTR	45	0	5
NMSXL	45	0	5	96	480	0
EXHLD	47	0	1	480
NMTTP	47	96	0	E	0	M1
NMTTP	47	288	1	E	0	M1
NMTTP	48	96	2	E	0	M1
NMTTP	48	288	3	B	0	M1
NMTTP	48	288	3	E	0	M1
EXHLD	49	0	6	576
NMTTP	49	96	0	E	0	M1
NMTTP	49	288	7	E	0	M1
NMTTP	50	96	6	E	0	M1
NMTTP	50	288	4	B	0	M1
NMTTP	50	288	5	E	0	M1
EXHLD	51	0	2	480
NMTTP	51	96	0	E	0	M1
NMTTP	51	288	1	E	0	M1
NMTTP	52	96	2	E	0	M1
NMTTP	52	288	3	B	0	M1
NMTTP	52	288	3	E	0	M1
NMTTP	52	288	4	E	0	M1
NMTAP	53	0	5
NMTAP	53	96	5
NMTAP	53	192	4
NMTAP	53	288	3
NMTAP	53	288	5
EXTAP	53	336	3
EXTAP	53	336	5
NMTAP	54	240	0
NMTAP	54	288	0
NMTAP	55	0	2
NMTAP	55	0	3
NMTAP	55	96	4
NMTAP	55	96	6
NMTAP	55	192	0
NMTAP	55	192	1
NMTAP	55	288	6
NMTAP	55	336	6
NMTAP	56	0	7
NMTAP	56	48	5
BRHLD	56	144	1	96
BRHLD	56	144	7	96
NMTAP	56	336	2
NMTAP	57	0	2
NMTAP	57	48	3
NMTAP	57	144	4
NMTAP	57	144	5
NMTAP	57	240	6
NMTAP	57	240	7
NMTAP	57	288	6
NMTAP	57	288	7
NMTAP	58	0	0
NMSTR	58	0	1
NMSCR	58	0	1	96	96	4
NMSTR	58	192	5
NMSCR	58	192	5	96	96	0
NMTAP	59	0	1
NMTAP	59	96	3
NMTAP	59	96	4
NMTAP	59	192	6
NMTAP	59	192	7
NMTAP	59	288	1
NMTAP	59	336	1
NMTAP	60	0	0
NMTAP	60	48	2
BRHLD	60	144	0	96
BRHLD	60	144	6	96
NMTAP	60	336	7
NMTAP	61	0	7
NMTAP	61	48	1
NMTAP	61	96	1
NMHLD	61	144	3	96
NMTAP	61	240	2
NMTAP	61	288	2
NMTAP	62	0	1
NMTAP	62	0	4
NMTAP	62	96	3
NMTAP	62	96	6
BRTAP	62	192	0
BRTAP	62	192	7
NMTAP	63	0	3
NMTAP	63	0	4
NMTAP	63	96	2
EXTAP	63	144	2
EXTAP	63	144	3
NMTAP	63	240	5
EXTAP	63	288	4
EXTAP	63	288	5
NMTAP	64	0	1
EXTAP	64	48	1
EXTAP	64	48	3
NMTAP	64	144	6
EXTAP	64	192	4
EXTAP	64	192	6
NMTAP	64	288	0
NMTAP	64	288	7
NMTAP	65	0	1
NMTAP	65	0	3
NMTAP	65	96	0
NMTAP	65	96	1
EXTAP	65	144	0
EXTAP	65	144	1
NMTAP	65	240	6
NMTAP	65	240	7
EXTAP	65	288	6
EXTAP	65	288	7
NMTAP	66	0	0
NMTAP	66	0	5
NMTAP	66	96	0
NMTAP	66	96	5
BRTAP	66	192	2
BRTAP	66	192	6
NMTAP	67	0	0
NMTAP	67	0	1
NMTAP	67	96	4
NMTAP	67	96	6
NMTAP	67	192	1
NMTAP	67	192	3
NMTAP	67	288	6
NMTAP	67	336	6
NMTAP	68	0	7
NMTAP	68	48	5
EXTAP	68	144	1
EXTAP	68	144	7
NMTAP	68	240	2
NMTAP	68	240	6
NMTAP	68	288	2
NMTAP	68	288	6
NMHLD	69	0	5	96
NMHLD	69	96	4	96
NMTAP	69	192	3
NMSTR	69	288	2
NMSXR	69	288	2	96	192	4
NMSTR	69	288	5
NMSXL	69	288	5	96	192	3
NMTAP	71	0	0
NMTAP	71	0	1
NMTAP	71	96	0
NMTAP	71	96	1
NMTAP	71	192	6
NMTAP	71	192	7
NMTAP	71	288	6
NMTAP	71	288	7
NMTAP	72	0	2
NMTAP	72	0	3
NMTAP	72	96	2
NMTAP	72	96	3
NMTAP	72	192	4
NMTAP	72	192	5
BRTAP	72	288	1
BRTAP	72	288	7
NMTAP	73	0	6
NMTAP	73	0	7
NMTAP	73	96	6
NMTAP	73	96	7
NMTAP	73	192	0
NMTAP	73	192	1
NMTAP	73	288	0
NMTAP	73	288	1
NMTAP	74	0	4
NMTAP	74	0	5
NMTAP	74	96	4
NMTAP	74	96	5
NMTAP	74	192	2
NMTAP	74	192	3
BRTAP	74	288	0
BRTAP	74	288	6
NMTAP	75	0	6
NMTAP	75	0	7
NMTAP	75	96	6
NMTAP	75	96	7
NMTAP	75	192	0
NMTAP	75	192	1
NMTAP	75	288	0
NMTAP	75	288	1
NMTAP	76	0	4
NMTAP	76	0	6
NMTAP	76	96	4
NMTAP	76	96	6
NMTAP	76	192	1
NMTAP	76	192	3
BXTAP	76	288	0
BXTAP	76	288	6
NMTAP	77	0	1
NMTAP	77	0	7
NMTAP	77	96	1
NMTAP	77	96	7
NMTAP	77	192	0
NMTAP	77	192	6
NMTAP	77	288	0
NMTAP	77	288	6
NMTAP	78	0	4
NMTAP	78	0	5
NMTAP	78	96	2
NMTAP	78	96	3
BRTAP	78	192	1
BRTAP	78	192	6
NMTAP	79	0	4
NMTAP	79	0	5
NMTAP	79	96	4
NMTAP	79	96	5
NMTAP	79	192	0
NMTAP	79	192	1
NMTAP	79	288	0
NMTAP	79	288	1
NMTAP	80	0	2
NMTAP	80	0	3
NMTAP	80	96	2
NMTAP	80	96	3
NMTAP	80	192	6
NMTAP	80	192	7
BRTAP	80	288	0
BRTAP	80	288	4
NMTAP	81	0	2
NMTAP	81	0	3
NMTAP	81	96	2
NMTAP	81	96	3
NMTAP	81	192	6
NMTAP	81	192	7
NMTAP	81	288	6
NMTAP	81	288	7
NMTAP	82	0	4
NMTAP	82	0	5
NMTAP	82	96	4
NMTAP	82	96	5
NMTAP	82	192	0
NMTAP	82	192	1
BRTAP	82	288	3
BRTAP	82	288	7
NMTAP	83	0	4
NMTAP	83	0	6
NMTAP	83	96	4
NMTAP	83	96	6
NMTAP	83	192	0
NMTAP	83	192	1
NMTAP	83	288	0
NMTAP	83	288	1
NMTAP	84	0	1
NMTAP	84	0	3
NMTAP	84	96	1
NMTAP	84	96	3
NMTAP	84	192	6
NMTAP	84	192	7
BRTAP	84	288	1
BRTAP	84	288	5
NMHLD	85	0	6	96
NMHLD	85	96	4	96
NMHLD	85	192	3	96
NMTAP	85	288	1
NMTAP	86	0	0
NMTAP	86	0	7
NMTAP	86	96	0
NMTAP	86	96	7
NMTAP	86	192	1
NMTAP	86	192	6
NMTAP	87	0	3
NMSTR	87	0	4
NMSUL	87	0	4	96	192	3
NMTAP	88	0	1
NMTAP	88	0	3
NMTAP	88	96	4
NMTAP	88	96	6
NMSTR	88	192	0
BRSI_	88	192	0	96	48	3
NMSTR	88	192	7
BRSI_	88	192	7	96	48	4

T_REC_TAP	338
T_REC_BRK	22
T_REC_XTP	31
T_REC_BXX	10
T_REC_HLD	22
T_REC_XHO	5
T_REC_BHO	4
T_REC_BXH	0
T_REC_STR	23
T_REC_BST	0
T_REC_XST	0
T_REC_XBS	0
T_REC_TTP	24
T_REC_THO	0
T_REC_SLD	21
T_REC_BSL	2
T_REC_ALL	502
T_NUM_TAP	416
T_NUM_BRK	38
T_NUM_HLD	27
T_NUM_SLD	21
T_NUM_ALL	502
T_JUDGE_TAP	448
T_JUDGE_HLD	93
T_JUDGE_SLD	23
T_JUDGE_ALL	564
TTM_EACHPAIRS	177
TTM_SCR_TAP	208000
TTM_SCR_BRK	98800
TTM_SCR_HLD	27000
TTM_SCR_SLD	31500
TTM_SCR_ALL	365300
TTM_SCR_S	350700
TTM_SCR_SS	361500
TTM_RAT_ACV	10105

