VERSION	0.00.00	1.04.00
FES_MODE	0
BPM_DEF	150.000	150.000	150.000	150.000
MET_DEF	4	4
RESOLUTION	384
CLK_DEF	384
COMPATIBLE_CODE	MA2

BPM	0	0	150.000
MET	0	0	4	4

NMTHO	1	0	0	192	C	1	M1
EXHLD	2	0	5	768
NMTAP	2	96	4
NMTAP	2	144	4
NMTAP	2	192	3
NMTAP	2	288	2
NMTAP	2	336	2
NMTAP	3	0	3
NMTAP	3	96	4
NMTAP	3	144	4
NMTAP	3	192	3
NMTAP	3	288	2
NMTAP	3	336	2
EXHLD	4	0	1	672
NMTAP	4	96	3
NMTAP	4	144	3
NMTAP	4	192	2
NMTAP	4	288	3
NMTAP	4	336	3
NMTAP	5	0	4
NMSTR	5	96	5
NMSCL	5	96	5	96	96	2
NMTAP	6	0	0
NMTAP	6	0	7
NMHLD	6	96	2	672
NMSTR	6	192	6
NMSV_	6	192	6	96	96	5
NMTAP	7	96	4
NMTAP	7	144	4
NMTAP	7	192	3
NMTAP	7	288	5
NMTAP	7	336	5
EXHLD	8	0	6	384
NMTAP	8	96	4
NMTAP	8	144	4
NMTAP	8	192	3
NMTAP	8	240	3
NMTAP	8	288	2
NMTAP	8	336	2
NMTAP	9	0	1
NMTAP	9	96	0
NMTAP	9	96	4
NMTAP	9	144	0
NMSTR	9	144	4
NMSCR	9	144	4	96	96	7
EXTAP	9	240	1
EXTAP	9	288	1
NMHLD	10	0	2	72
NMHLD	10	72	3	72
NMSTR	10	144	4
NMSUL	10	144	4	96	96	0
NMTAP	10	240	6
EXTAP	10	288	6
NMHLD	11	0	5	72
NMHLD	11	72	4	72
NMSTR	11	144	3
NMSUR	11	144	3	96	96	7
NMTAP	11	240	1
EXTAP	11	288	1
NMHLD	12	0	2	72
NMHLD	12	72	3	72
NMSTR	12	144	4
NMSUL	12	144	4	96	96	0
NMTAP	12	240	6
EXTAP	12	288	6
NMTAP	13	0	5
NMTAP	13	0	7
NMTAP	13	72	3
NMTAP	13	72	4
NMTAP	13	144	0
NMTAP	13	144	2
BRTAP	13	240	1
BRTAP	13	240	7
BRTAP	13	288	1
BRTAP	13	288	7
EXTAP	14	0	0
EXSTR	14	0	6
NMSI_	14	0	6	96	48	2
NMTAP	14	72	7
NMTAP	14	96	6
NMTAP	14	144	1
NMSTR	14	192	1
NMSI_	14	192	1	96	48	5
NMTAP	14	264	0
NMTAP	14	288	1
NMTAP	14	336	6
NMSTR	15	0	6
NMSI_	15	0	6	96	48	2
NMTAP	15	72	7
NMTAP	15	96	6
NMSTR	15	144	0
BRSI_	15	144	0	96	48	4
NMSTR	15	192	4
BRSI_	15	192	4	96	48	1
NMTAP	15	240	0
NMTAP	15	336	6
NMSTR	16	0	6
NMSI_	16	0	6	96	48	2
NMTAP	16	72	7
NMTAP	16	96	6
NMTAP	16	144	1
NMSTR	16	192	1
NMSI_	16	192	1	96	48	5
NMTAP	16	264	0
NMTAP	16	288	1
NMTAP	16	336	6
EXTAP	17	0	4
EXTAP	17	0	6
EXTAP	17	72	3
EXTAP	17	72	4
EXTAP	17	144	1
EXTAP	17	144	3
NMTAP	17	240	0
NMTAP	17	240	1
NMSTR	17	288	0
NMSCL	17	288	0	96	96	3
NMSTR	17	288	1
NMSUL	17	288	1	96	96	2
BRTAP	18	144	0
BRTAP	18	144	1
NMTAP	18	240	6
NMTAP	18	240	7
NMSTR	18	288	6
NMSUR	18	288	6	96	96	5
NMSTR	18	288	7
NMSCR	18	288	7	96	96	4
BRTAP	19	144	6
BRTAP	19	144	7
NMTAP	19	240	0
NMTAP	19	240	1
NMTAP	19	288	2
NMTAP	19	336	3
NMTAP	20	0	4
NMSTR	20	0	6
NMSCL	20	0	6	96	96	2
NMTAP	20	96	1
NMTAP	20	144	1
NMSTR	20	192	0
NMSI_	20	192	0	96	48	4
NMTAP	20	240	0
NMTAP	20	288	5
NMTAP	20	336	6
NMSTR	21	48	7
BRSI_	21	48	7	96	48	5
NMSTR	21	96	0
BRSI_	21	96	0	96	48	2
NMTAP	21	288	3
NMTAP	21	288	4
EXTAP	22	0	0
EXTAP	22	0	6
NMTAP	22	48	1
NMTAP	22	48	7
NMSTR	22	96	0
NMSCR	22	96	0	96	48	3
NMTAP	22	96	6
NMTAP	22	144	1
NMTAP	22	144	7
NMSTR	22	192	0
NMSCL	22	192	0	96	48	5
NMTAP	22	192	6
NMTAP	22	288	0
NMTAP	23	0	2
NMTAP	23	0	4
NMTAP	23	72	0
NMTAP	23	72	7
NMTAP	23	144	3
NMSTR	23	144	5
NMSLL	23	144	5	96	96	6
NMTAP	23	240	0
NMTAP	23	288	0
NMTAP	23	336	0
EXTAP	24	0	1
EXTAP	24	0	7
NMTAP	24	48	0
NMTAP	24	48	6
NMTAP	24	96	1
NMSTR	24	96	7
NMSCL	24	96	7	96	48	4
NMTAP	24	144	0
NMTAP	24	144	6
NMTAP	24	192	1
NMSTR	24	192	7
NMSCR	24	192	7	96	48	2
NMTAP	24	288	7
NMTAP	25	0	3
NMTAP	25	0	5
NMTAP	25	72	0
NMTAP	25	72	7
NMTAP	25	144	2
NMTAP	25	144	4
NMTAP	25	240	0
NMTAP	25	240	1
NMSTR	25	288	0
NMSCL	25	288	0	96	96	3
NMSTR	25	288	1
NMSUL	25	288	1	96	96	2
BRTAP	26	144	0
BRTAP	26	144	1
NMTAP	26	240	6
NMTAP	26	240	7
NMSTR	26	288	6
NMSUR	26	288	6	96	96	5
NMSTR	26	288	7
NMSCR	26	288	7	96	96	4
BRTAP	27	144	6
BRTAP	27	144	7
NMTAP	27	240	0
NMTAP	27	240	1
NMTAP	27	288	0
NMTAP	27	288	1
NMSTR	28	0	3
NMSI_	28	0	3	96	48	7
NMTAP	28	0	4
NMSTR	28	96	5
NMSI_	28	96	5	96	48	1
NMTAP	28	144	5
NMSTR	28	192	2
NMSI_	28	192	2	96	48	6
NMTAP	28	240	2
NMTAP	28	288	7
NMTAP	28	336	7
NMSTR	29	48	5
BRSCR	29	48	5	96	48	1
NMSTR	29	96	1
BRSV_	29	96	1	96	48	3
NMHLD	30	0	1	96
NMHLD	30	96	0	96
NMHLD	30	192	7	96
NMHLD	30	288	6	384
NMSTR	31	0	5
NMSXR	31	0	5	96	192	1
NMHLD	32	0	2	96
NMHLD	32	96	3	96
NMHLD	32	192	4	96
NMHLD	32	288	5	96
NMSTR	33	0	6
NMSXL	33	0	6	96	240	2
NMSTR	33	192	5
NMSCL	33	192	5	96	48	2
EXHLD	34	0	1	96
NMTAP	34	96	2
NMHLD	34	120	2	72
NMTAP	34	192	3
NMHLD	34	216	3	72
NMTAP	34	288	4
NMHLD	34	312	4	72
NMTAP	35	0	5
NMHLD	35	24	5	72
NMTAP	35	96	6
NMHLD	35	120	6	72
NMSTR	35	192	7
NMSCR	35	192	7	96	96	3
NMTAP	35	288	5
BRTAP	36	0	6
NMTAP	36	96	7
NMHLD	36	120	7	72
NMTAP	36	192	6
NMHLD	36	216	6	72
NMSTR	36	288	5
NMSI_	36	288	5	96	48	1
NMTAP	37	0	4
NMTAP	37	96	3
NMHLD	37	120	3	72
NMTAP	37	192	2
NMHLD	37	216	2	72
NMSTR	37	288	1
NMSSL	37	288	1	96	144	5
EXTAP	38	192	6
NMHLD	38	216	6	72
NMTAP	38	288	7
NMHLD	38	312	7	72
NMTAP	39	0	0
NMHLD	39	24	0	72
NMTAP	39	96	1
NMHLD	39	120	1	72
NMSTR	39	192	2
NMSCR	39	192	2	96	96	6
NMTAP	39	288	7
BRTAP	40	0	0
NMTAP	40	96	1
NMHLD	40	120	1	72
NMTAP	40	192	0
NMHLD	40	216	0	72
NMTAP	40	288	7
NMHLD	40	312	7	72
NMSTR	41	0	6
NMSI_	41	0	6	96	96	3
NMSCR	41	0	6	96	96	3
NMHLD	41	288	5	768
EXSTR	42	0	4
NMSI_	42	0	4	96	48	7
NMSTR	42	192	0
NMSI_	42	192	0	96	48	3
NMTAP	43	0	4
NMTAP	43	96	4
NMTAP	43	192	7
BRTAP	43	288	7
NMTAP	44	0	1
NMTAP	44	0	4
NMTAP	44	48	4
NMTAP	44	96	2
NMTAP	44	96	5
NMTAP	44	144	5
NMTAP	44	192	3
NMTAP	44	192	6
NMTAP	44	240	6
NMTAP	44	288	4
NMTAP	44	288	7
NMTAP	45	0	6
NMTAP	45	24	0
NMTAP	45	48	6
NMTAP	45	72	0
NMTAP	45	96	7
NMTAP	45	120	1
NMSTR	45	144	7
NMSI_	45	144	7	96	48	3
EXTAP	45	240	2
EXTAP	45	264	1
EXTAP	45	288	0
EXSTR	46	0	1
NMSUR	46	0	1	96	48	5
EXTAP	46	0	6
NMTAP	46	72	0
NMTAP	46	96	1
NMTAP	46	144	6
NMSTR	46	192	6
NMSUL	46	192	6	96	48	2
NMTAP	46	264	7
NMTAP	46	288	6
NMTAP	46	336	1
NMSTR	47	0	1
NMSUR	47	0	1	96	48	5
NMTAP	47	72	0
NMTAP	47	96	1
NMSTR	47	144	7
BRSI_	47	144	7	96	48	3
NMSTR	47	192	3
BRSI_	47	192	3	96	48	6
NMTAP	47	240	7
NMTAP	47	336	1
NMSTR	48	0	1
NMSUR	48	0	1	96	48	5
NMTAP	48	72	0
NMTAP	48	96	1
NMTAP	48	144	6
NMSTR	48	192	6
NMSUL	48	192	6	96	48	2
NMTAP	48	264	7
NMTAP	48	288	6
NMTAP	48	336	1
EXTAP	49	0	1
EXTAP	49	0	3
EXTAP	49	72	3
EXTAP	49	72	4
EXTAP	49	144	4
EXTAP	49	144	6
NMTAP	49	240	6
NMTAP	49	240	7
NMSTR	49	288	6
NMSXR	49	288	6	96	96	5
NMSTR	49	288	7
NMSCR	49	288	7	96	96	4
BRTAP	50	144	6
BRTAP	50	144	7
NMTAP	50	240	0
NMTAP	50	240	1
NMSTR	50	288	0
NMSCL	50	288	0	96	96	3
NMSTR	50	288	1
NMSXL	50	288	1	96	96	2
BRTAP	51	144	0
BRTAP	51	144	1
NMTAP	51	240	6
NMTAP	51	240	7
NMTAP	51	288	0
NMTAP	51	336	1
NMTAP	52	0	2
NMSTR	52	0	5
NMSCR	52	0	5	96	96	1
NMTAP	52	96	4
NMTAP	52	144	4
NMSTR	52	192	3
NMSI_	52	192	3	96	48	7
NMTAP	52	240	3
NMTAP	52	288	6
NMTAP	52	336	5
NMSTR	53	48	0
BRSI_	53	48	0	96	48	2
NMSTR	53	96	7
BRSI_	53	96	7	96	48	5
NMTAP	53	288	3
NMTAP	53	288	4
EXTAP	54	0	2
EXTAP	54	0	7
NMTAP	54	48	0
NMTAP	54	48	5
NMTAP	54	96	2
NMSTR	54	96	7
NMSCL	54	96	7	96	48	4
NMTAP	54	144	0
NMTAP	54	144	5
NMTAP	54	192	2
NMSTR	54	192	7
NMSCR	54	192	7	96	48	2
NMTAP	54	288	7
NMTAP	55	0	3
NMTAP	55	0	5
NMTAP	55	72	0
NMTAP	55	72	7
NMSTR	55	144	2
NMSLR	55	144	2	96	96	1
NMTAP	55	144	4
NMTAP	55	240	7
NMTAP	55	288	7
NMTAP	55	336	7
EXTAP	56	0	0
EXTAP	56	0	5
NMTAP	56	48	2
NMTAP	56	48	7
NMSTR	56	96	0
NMSCR	56	96	0	96	48	3
NMTAP	56	96	5
NMTAP	56	144	2
NMTAP	56	144	7
NMSTR	56	192	0
NMSCL	56	192	0	96	48	5
NMTAP	56	192	5
NMTAP	56	288	0
NMTAP	57	0	2
NMTAP	57	0	4
NMTAP	57	72	0
NMTAP	57	72	7
NMTAP	57	144	3
NMTAP	57	144	5
NMTAP	57	240	6
NMTAP	57	240	7
NMSTR	57	288	6
NMSXR	57	288	6	96	96	5
NMSTR	57	288	7
NMSCR	57	288	7	96	96	4
BRTAP	58	144	6
BRTAP	58	144	7
NMTAP	58	240	0
NMTAP	58	240	1
NMSTR	58	288	0
NMSCL	58	288	0	96	96	3
NMSTR	58	288	1
NMSXL	58	288	1	96	96	2
BRTAP	59	144	0
BRTAP	59	144	1
NMTAP	59	240	6
NMTAP	59	240	7
NMTAP	59	288	6
NMTAP	59	288	7
NMSTR	60	0	3
NMSI_	60	0	3	96	48	7
NMTAP	60	0	4
NMSTR	60	96	5
NMSI_	60	96	5	96	48	1
NMTAP	60	144	5
NMSTR	60	192	2
NMSI_	60	192	2	96	48	6
NMTAP	60	240	2
NMTAP	60	288	7
NMTAP	60	336	7
NMSTR	61	48	5
BRSCR	61	48	5	96	48	1
NMSTR	61	96	1
BRSV_	61	96	1	96	48	3
EXHLD	62	0	0	96
NMHLD	62	192	1	96
NMHLD	62	192	7	96
NMTTP	63	0	0	C	1	M1
NMHLD	63	0	6	96
NMHLD	63	192	3	96
NMHLD	63	192	5	96
NMHLD	64	0	0	96
NMHLD	64	0	6	96
NMHLD	64	192	2	96
NMHLD	64	192	4	96
NMTTP	65	0	0	C	1	M1
NMHLD	65	0	1	96
NMHLD	65	192	0	96
NMHLD	65	192	7	96
EXSTR	66	0	6
NMSUL	66	0	6	96	192	2
NMTAP	66	96	0
NMTAP	66	128	0
NMTAP	66	160	0
NMHLD	66	192	0	96
EXSTR	67	0	1
NMSUR	67	0	1	96	192	5
NMTAP	67	96	7
NMTAP	67	128	7
NMTAP	67	160	7
NMHLD	67	192	7	96
NMHLD	68	0	3	192
NMTAP	68	96	0
NMHLD	68	192	4	192
NMTAP	68	288	7
NMHLD	69	0	2	96
NMHLD	69	96	0	96
NMHLD	69	192	7	96
NMHLD	69	288	5	96
NMSTR	70	0	3
NMSF_	70	0	3	96	192	7
NMTTP	71	0	0	B	0	M1
NMTTP	71	0	0	C	1	M1
NMTTP	71	0	1	B	0	M1
NMTTP	71	0	2	B	0	M1
NMTTP	71	0	3	B	0	M1
NMTTP	71	0	4	B	0	M1
NMTTP	71	0	5	B	0	M1
NMTTP	71	0	6	B	0	M1
NMTTP	71	0	7	B	0	M1
NMTAP	72	288	1
NMTAP	72	288	6
NMSTR	72	336	0
NMSI_	72	336	0	96	48	4
NMSTR	72	336	7
NMSI_	72	336	7	96	48	3
NMSTR	73	48	0
NMSCL	73	48	0	96	48	5
NMSTR	73	48	7
NMSCR	73	48	7	96	48	2
NMTAP	73	144	0
NMTAP	73	144	7
NMTAP	73	240	3
NMTAP	73	240	4
BRTAP	73	288	0
BRTAP	73	288	1
NMSTR	73	336	0
NMSI_	73	336	0	96	48	4
NMTAP	73	336	1
NMTAP	74	48	0
NMTAP	74	48	7
NMTAP	74	96	6
NMTAP	74	144	5
NMSTR	74	192	6
NMSI_	74	192	6	96	48	2
NMSTR	74	240	7
NMSI_	74	240	7	96	48	1
EXTAP	75	0	3
EXTAP	75	72	3
EXTAP	75	72	4
EXTAP	75	144	4
EXTAP	75	144	6
NMTAP	75	240	6
NMTAP	75	240	7
NMSTR	75	288	6
NMSUL	75	288	6	96	96	4
NMSTR	75	288	7
NMSCR	75	288	7	96	96	4
BRTAP	76	144	2
BRTAP	76	144	6
NMTAP	76	240	0
NMTAP	76	240	1
NMSTR	76	288	0
NMSCL	76	288	0	96	96	3
NMSTR	76	288	1
NMSUR	76	288	1	96	96	3
BRTAP	77	144	1
BRTAP	77	144	5
NMTAP	77	240	6
NMTAP	77	240	7
NMTAP	77	288	5
NMTAP	77	336	4
NMSTR	78	0	2
NMSCL	78	0	2	96	96	6
NMTAP	78	0	3
NMTAP	78	96	5
NMTAP	78	144	5
NMSTR	78	192	4
NMSI_	78	192	4	96	48	0
NMTAP	78	240	4
NMTAP	78	288	1
NMTAP	78	336	2
NMSTR	79	48	6
BRSI_	79	48	6	96	48	4
NMSTR	79	96	7
BRSI_	79	96	7	96	48	1
NMTAP	79	288	2
NMTAP	79	288	3
EXTAP	80	0	0
EXTAP	80	0	4
NMTAP	80	48	3
NMTAP	80	48	7
NMSTR	80	96	0
NMSCR	80	96	0	96	48	3
NMTAP	80	96	4
NMTAP	80	144	3
NMTAP	80	144	7
NMSTR	80	192	0
NMSCL	80	192	0	96	48	5
NMTAP	80	192	4
NMTAP	80	288	0
NMTAP	81	0	2
NMTAP	81	0	3
NMTAP	81	72	0
NMTAP	81	72	7
NMSTR	81	144	4
NMSI_	81	144	4	96	48	0
NMTAP	81	144	5
NMTAP	81	240	6
CNSI_	81	288	0	0	48	2
NMTAP	81	288	6
NMTAP	81	336	6
EXTAP	82	0	3
EXTAP	82	0	7
NMTAP	82	48	0
NMTAP	82	48	4
NMTAP	82	96	3
NMSTR	82	96	7
NMSCL	82	96	7	96	48	4
NMTAP	82	144	0
NMTAP	82	144	4
NMTAP	82	192	3
NMSTR	82	192	7
NMSCR	82	192	7	96	48	2
NMTAP	82	288	7
NMTAP	83	0	4
NMTAP	83	0	5
NMTAP	83	72	0
NMTAP	83	72	7
NMTAP	83	144	2
NMTAP	83	144	3
NMTAP	83	240	0
NMTAP	83	240	1
NMSTR	83	288	0
NMSCL	83	288	0	96	96	3
NMSTR	83	288	1
NMSUR	83	288	1	96	96	3
BRTAP	84	144	1
BRTAP	84	144	5
NMTAP	84	240	6
NMTAP	84	240	7
NMSTR	84	288	6
NMSUL	84	288	6	96	96	4
NMSTR	84	288	7
NMSCR	84	288	7	96	96	4
BRTAP	85	144	2
BRTAP	85	144	6
NMTAP	85	240	0
NMTAP	85	240	1
NMTAP	85	288	2
NMTAP	85	336	3
NMSTR	86	0	4
NMSI_	86	0	4	96	48	0
NMTAP	86	0	5
NMSTR	86	96	6
NMSI_	86	96	6	96	48	1
NMTAP	86	144	6
NMSTR	86	192	2
NMSI_	86	192	2	96	48	6
NMTAP	86	240	2
NMTAP	86	288	4
NMTAP	86	336	4
NMSTR	87	48	5
BRSI_	87	48	5	96	48	1
NMSTR	87	96	1
BRSI_	87	96	1	96	48	5
NMTAP	87	288	3
NMTAP	87	288	7
EXTAP	88	0	6
NMTAP	88	24	4
NMTAP	88	48	6
NMTAP	88	72	4
NMTAP	88	96	6
NMTAP	88	120	4
NMTAP	88	144	6
NMTAP	88	192	3
NMTAP	88	192	5
NMTAP	88	240	1
NMTAP	88	240	6
NMTAP	88	288	2
NMTAP	88	288	4
NMTAP	88	336	1
NMTAP	88	336	3
NMTAP	89	0	1
NMTAP	89	24	3
NMTAP	89	48	1
NMTAP	89	72	3
NMTAP	89	96	1
NMTAP	89	120	3
NMTAP	89	144	1
NMTAP	89	192	2
NMTAP	89	192	4
NMTAP	89	240	1
NMTAP	89	240	6
NMTAP	89	288	3
NMTAP	89	288	5
BRTAP	89	336	4
BRSTR	89	336	6
NMSCR	89	336	6	96	48	1
NMSTR	90	48	2
NMSCR	90	48	2	96	48	5
NMTAP	90	144	0
NMSTR	90	192	7
NMSI_	90	192	7	96	48	4
NMTAP	90	288	4
NMTAP	90	336	3
NMSTR	91	0	2
BRSI_	91	0	2	96	48	7
NMSTR	91	96	5
BRSI_	91	96	5	96	48	0
NMTAP	91	192	1
EXSTR	91	288	2
NMSXR	91	288	2	96	96	1
EXSTR	91	288	3
NMSCR	91	288	3	96	96	0
BRTAP	92	144	2
BRTAP	92	144	3
NMTAP	92	240	4
NMTAP	92	240	5
NMSTR	92	288	4
NMSCL	92	288	4	96	96	7
NMSTR	92	288	5
NMSXL	92	288	5	96	96	6
BRTAP	93	144	4
BRTAP	93	144	5
NMTAP	93	240	2
NMTAP	93	240	3
NMTAP	93	288	1
NMTAP	93	336	0
NMTAP	94	0	6
NMSTR	94	0	7
NMSI_	94	0	7	96	48	3
NMSTR	94	96	5
NMSI_	94	96	5	96	48	1
NMTAP	94	144	5
NMSTR	94	192	2
NMSI_	94	192	2	96	48	6
NMTAP	94	240	2
NMTAP	94	288	7
NMTAP	94	336	7
NMTAP	95	48	5
NMTAP	95	72	3
NMTAP	95	96	5
NMTAP	95	120	3
NMTAP	95	144	4
NMTAP	95	168	2
NMSTR	95	192	3
NMSF_	95	192	3	96	48	7
NMHLD	96	0	1	96
NMHLD	96	0	5	96
NMHLD	96	192	2	96
NMHLD	96	192	6	96
NMTAP	97	0	1
NMTAP	97	0	7
NMTAP	97	72	3
NMTAP	97	72	4
NMTAP	97	144	0
NMTAP	97	144	6

T_REC_TAP	359
T_REC_BRK	38
T_REC_XTP	41
T_REC_BXX	0
T_REC_HLD	56
T_REC_XHO	5
T_REC_BHO	0
T_REC_BXH	0
T_REC_STR	112
T_REC_BST	1
T_REC_XST	7
T_REC_XBS	0
T_REC_TTP	11
T_REC_THO	1
T_REC_SLD	103
T_REC_BSL	18
T_REC_ALL	752
T_NUM_TAP	530
T_NUM_BRK	57
T_NUM_HLD	62
T_NUM_SLD	103
T_NUM_ALL	752
T_JUDGE_TAP	569
T_JUDGE_HLD	194
T_JUDGE_SLD	121
T_JUDGE_ALL	884
TTM_EACHPAIRS	157
TTM_SCR_TAP	265000
TTM_SCR_BRK	148200
TTM_SCR_HLD	62000
TTM_SCR_SLD	154500
TTM_SCR_ALL	629700
TTM_SCR_S	605300
TTM_SCR_SS	624000
TTM_RAT_ACV	10091

