VERSION	0.00.00	1.04.00
FES_MODE	0
BPM_DEF	150.000	150.000	150.000	150.000
MET_DEF	4	4
RESOLUTION	384
CLK_DEF	384
COMPATIBLE_CODE	MA2

BPM	0	0	150.000
MET	0	0	4	4

NMHLD	2	0	5	672
NMTAP	2	96	3
NMTAP	2	192	3
NMTAP	2	288	4
NMTAP	3	0	4
NMTAP	3	96	3
NMTAP	3	192	4
NMTAP	3	288	3
EXHLD	4	0	1	768
NMTAP	4	96	4
NMTAP	4	192	4
NMTAP	4	288	3
NMTAP	5	0	3
NMTAP	5	96	4
NMTAP	5	192	3
NMTAP	5	288	4
NMHLD	6	0	5	672
NMTAP	6	96	3
NMTAP	6	192	3
NMTAP	6	288	4
NMTAP	7	0	4
NMTAP	7	96	3
NMTAP	7	192	4
NMTAP	7	288	3
EXHLD	8	0	1	288
NMTAP	8	96	3
NMTAP	8	192	3
NMSTR	8	288	4
NMSXL	8	288	4	96	192	3
NMHLD	10	0	0	96
NMHLD	10	0	1	96
NMTAP	10	192	2
NMTAP	10	192	3
NMTAP	10	288	4
NMTAP	10	288	5
NMHLD	11	0	6	96
NMHLD	11	0	7	96
NMTAP	11	192	4
NMTAP	11	192	5
NMTAP	11	288	2
NMTAP	11	288	3
NMHLD	12	0	0	96
NMHLD	12	0	1	96
NMTAP	12	192	2
NMTAP	12	192	4
NMTAP	12	288	3
NMTAP	12	288	5
NMHLD	13	0	0	192
NMHLD	13	0	7	192
EXTAP	13	288	0
EXTAP	13	288	7
NMTAP	14	0	0
NMTAP	14	0	1
NMTAP	14	96	4
NMTAP	14	96	6
NMTAP	14	192	6
NMTAP	14	192	7
NMTAP	14	288	1
NMHLD	14	336	1	96
NMTAP	15	48	3
NMTAP	15	144	3
NMTAP	15	144	5
NMTAP	15	240	6
NMTAP	15	288	6
NMTAP	15	336	4
NMTAP	16	48	6
NMTAP	16	48	7
NMTAP	16	96	6
NMTAP	16	96	7
NMTAP	16	192	4
NMTAP	16	192	6
NMTAP	16	288	1
NMTAP	16	288	3
EXTAP	17	0	0
EXTAP	17	0	1
EXTAP	17	72	0
EXTAP	17	72	7
EXTAP	17	144	6
EXTAP	17	144	7
NMTAP	17	240	0
NMTAP	17	240	5
NMTAP	17	288	0
NMTAP	17	288	5
NMSTR	18	0	2
NMSCL	18	0	2	96	96	7
NMSTR	18	0	3
NMSUL	18	0	3	96	96	6
NMTAP	18	288	4
NMTAP	18	288	5
NMSTR	19	0	4
NMSUR	19	0	4	96	96	1
NMSTR	19	0	5
NMSCR	19	0	5	96	96	0
NMTAP	19	288	2
NMTAP	19	288	3
NMHLD	20	0	1	96
NMHLD	20	96	3	96
NMHLD	20	192	4	96
NMHLD	20	288	6	96
NMHLD	21	0	0	96
NMSTR	21	96	3
NMSI_	21	96	3	96	96	7
NMTAP	22	0	0
NMTAP	22	0	6
NMTAP	22	96	0
NMTAP	22	96	6
NMTAP	22	192	1
NMTAP	22	192	7
NMTAP	22	288	1
NMTAP	22	288	7
NMTAP	23	0	3
NMTAP	23	0	5
NMTAP	23	72	2
NMTAP	23	72	6
NMTAP	23	144	2
NMTAP	23	144	6
NMTAP	23	240	4
NMTAP	23	288	4
NMTAP	24	0	3
NMTAP	24	0	5
NMTAP	24	96	3
NMTAP	24	96	5
NMTAP	24	192	2
NMTAP	24	192	4
NMTAP	24	288	2
NMTAP	24	288	4
NMTAP	25	0	0
NMTAP	25	0	6
NMTAP	25	72	1
NMTAP	25	72	5
NMTAP	25	144	1
NMTAP	25	144	5
NMTAP	25	240	7
NMTAP	25	288	7
NMSTR	26	0	0
NMSUR	26	0	0	96	96	5
NMSTR	26	0	1
NMSCR	26	0	1	96	96	4
NMTAP	26	288	6
NMTAP	26	288	7
NMSTR	27	0	6
NMSCL	27	0	6	96	96	3
NMSTR	27	0	7
NMSUL	27	0	7	96	96	2
NMTAP	27	288	0
NMTAP	27	288	1
NMHLD	28	0	1	96
NMHLD	28	0	3	96
NMHLD	28	192	4	96
NMHLD	28	192	6	96
NMTAP	29	0	1
NMTAP	29	0	3
NMSTR	29	96	4
NMSI_	29	96	4	96	96	0
NMSTR	29	96	6
NMSI_	29	96	6	96	96	2
NMHLD	30	0	1	192
NMHLD	30	192	3	192
NMHLD	31	0	5	192
NMTAP	31	192	7
NMHLD	32	0	6	192
NMHLD	32	192	4	192
EXHLD	33	0	2	192
NMTAP	33	192	0
NMTAP	34	0	1
NMTAP	34	0	7
NMHLD	34	96	6	96
NMTAP	34	192	4
NMHLD	34	288	1	96
NMTAP	35	0	3
NMHLD	35	96	5	96
NMTAP	35	192	7
NMTAP	35	288	0
NMTAP	35	288	6
NMTAP	36	0	0
NMTAP	36	0	6
NMHLD	36	96	1	96
NMTAP	36	192	3
NMHLD	36	288	6	96
NMTAP	37	0	4
NMHLD	37	96	2	96
NMTAP	37	192	0
NMTAP	37	288	2
NMTAP	37	288	4
NMTAP	38	0	2
NMTAP	38	0	4
NMHLD	38	96	5	96
NMTAP	38	192	7
NMHLD	38	288	2	96
NMTAP	39	0	0
NMHLD	39	96	6	96
NMTAP	39	192	4
NMTAP	39	288	3
NMTAP	39	288	5
NMTAP	40	0	3
NMTAP	40	0	5
NMHLD	40	96	2	96
NMTAP	40	192	0
NMHLD	40	288	5	96
NMTAP	41	0	7
NMHLD	41	96	1	96
NMTAP	41	192	3
NMTAP	41	288	2
NMTAP	41	288	4
NMHLD	42	0	4	96
NMSTR	42	0	5
NMSI_	42	0	5	96	96	0
NMTAP	42	288	2
NMTAP	42	288	3
NMSTR	43	0	2
NMSV_	43	0	2	96	96	7
NMHLD	43	0	3	96
NMTAP	43	288	4
NMTAP	43	288	5
NMHLD	44	0	4	96
NMSTR	44	0	5
NMSI_	44	0	5	96	96	1
NMTAP	44	288	2
NMTAP	44	288	3
NMSTR	45	0	3
NMSI_	45	0	3	96	96	0
NMSTR	45	0	4
NMSI_	45	0	4	96	96	7
EXTAP	45	288	0
EXTAP	45	288	7
NMTAP	46	0	6
NMTAP	46	0	7
NMTAP	46	96	1
NMTAP	46	96	3
NMTAP	46	192	0
NMTAP	46	192	1
NMTAP	46	288	6
NMHLD	46	336	6	96
NMTAP	47	48	4
NMTAP	47	96	4
NMTAP	47	144	5
NMTAP	47	240	3
NMTAP	47	240	6
NMTAP	47	336	1
NMTAP	47	336	4
NMTAP	48	48	0
NMTAP	48	96	0
NMTAP	48	192	1
NMTAP	48	192	3
NMTAP	48	288	4
NMTAP	48	288	6
EXTAP	49	0	6
EXTAP	49	0	7
EXTAP	49	72	0
EXTAP	49	72	7
EXTAP	49	144	0
EXTAP	49	144	1
NMTAP	49	240	2
NMTAP	49	240	7
NMTAP	49	288	2
NMTAP	49	288	7
NMSTR	50	0	1
NMSUL	50	0	1	96	96	4
NMSTR	50	0	5
NMSCR	50	0	5	96	96	0
NMTAP	50	288	1
NMTAP	50	288	7
NMSTR	51	0	2
NMSCL	51	0	2	96	96	7
NMSTR	51	0	6
NMSUR	51	0	6	96	96	3
NMTAP	51	288	0
NMTAP	51	288	6
NMHLD	52	0	5	96
NMHLD	52	96	7	96
NMHLD	52	192	0	96
NMHLD	52	288	2	96
NMHLD	53	0	4	96
NMSTR	53	96	7
NMSUL	53	96	7	96	96	3
NMTAP	54	0	1
NMTAP	54	0	7
NMTAP	54	48	1
NMTAP	54	48	7
NMTAP	54	96	1
NMTAP	54	96	7
NMTAP	54	192	0
NMTAP	54	192	6
NMTAP	54	240	0
NMTAP	54	240	6
NMTAP	54	288	0
NMTAP	54	288	6
NMTAP	55	0	2
NMTAP	55	0	4
NMTAP	55	72	1
NMTAP	55	72	5
NMTAP	55	144	1
NMTAP	55	144	5
NMTAP	55	240	3
NMTAP	55	288	3
NMTAP	56	0	2
NMTAP	56	0	4
NMTAP	56	48	2
NMTAP	56	48	4
NMTAP	56	96	2
NMTAP	56	96	4
NMTAP	56	192	3
NMTAP	56	192	5
NMTAP	56	240	3
NMTAP	56	240	5
NMTAP	56	288	3
NMTAP	56	288	5
NMTAP	57	0	1
NMTAP	57	0	7
NMTAP	57	72	2
NMTAP	57	72	6
NMTAP	57	144	2
NMTAP	57	144	6
NMTAP	57	240	0
NMTAP	57	288	0
NMSTR	58	0	2
NMSUR	58	0	2	96	96	7
NMSTR	58	0	6
NMSCL	58	0	6	96	96	3
NMTAP	58	288	2
NMTAP	58	288	4
NMSTR	59	0	1
NMSCR	59	0	1	96	96	4
NMSTR	59	0	5
NMSUL	59	0	5	96	96	0
NMTAP	59	288	3
NMTAP	59	288	5
NMHLD	60	0	4	96
NMHLD	60	0	6	96
NMHLD	60	192	1	96
NMHLD	60	192	3	96
NMTAP	61	0	3
NMTAP	61	0	5
NMTAP	61	96	2
NMTAP	61	96	4
NMTTP	61	192	3	E	0	M1
NMTTP	61	192	4	E	1	M1
NMTTP	61	192	5	E	0	M1
NMSTR	62	0	4
NMSLR	62	0	4	96	192	0
NMHLD	62	0	5	288
NMHLD	63	0	2	288
NMSTR	63	0	3
NMSLL	63	0	3	96	192	6
NMSTR	64	0	4
NMSI_	64	0	4	96	96	7
NMHLD	64	0	5	288
CNSI_	64	192	7	0	96	2
NMHLD	65	0	2	288
NMSTR	65	0	3
NMSI_	65	0	3	96	96	7
CNSI_	65	192	7	0	96	4
NMHLD	66	0	5	768
NMTTP	66	96	5	E	0	M1
NMTTP	66	192	6	E	0	M1
NMTTP	66	288	7	E	0	M1
NMTTP	67	0	0	E	0	M1
NMTTP	67	96	1	E	0	M1
NMTTP	67	192	2	E	0	M1
NMTTP	67	288	3	E	0	M1
NMHLD	68	0	2	768
NMTTP	68	96	3	B	0	M1
NMTTP	68	192	2	B	0	M1
NMTTP	68	288	1	B	0	M1
NMTTP	69	0	0	B	0	M1
NMTTP	69	96	7	B	0	M1
NMTTP	69	192	6	B	0	M1
NMTTP	69	288	5	B	0	M1
NMTHO	70	0	0	384	C	1	M1
NMTAP	72	288	0
NMTAP	72	288	7
NMTAP	72	336	0
NMTAP	72	336	7
NMTAP	73	48	1
NMTAP	73	48	3
NMTAP	73	144	4
NMTAP	73	144	6
EXTAP	73	240	0
EXTAP	73	240	7
BXTAP	73	288	0
BXTAP	73	288	7
NMHLD	74	0	6	96
NMHLD	74	96	4	96
NMHLD	74	192	3	96
NMHLD	74	288	1	96
NMTAP	75	0	0
NMTAP	75	72	2
NMTAP	75	72	7
NMTAP	75	144	3
NMTAP	75	144	6
NMTAP	75	240	1
NMTAP	75	240	4
NMTAP	75	288	1
NMTAP	75	288	4
NMSTR	76	0	2
NMSCR	76	0	2	96	96	5
NMSTR	76	0	6
NMSCR	76	0	6	96	96	1
EXTAP	76	288	2
EXTAP	76	288	4
NMSTR	77	0	1
NMSCL	77	0	1	96	96	6
NMSTR	77	0	5
NMSCL	77	0	5	96	96	2
EXTAP	77	288	3
EXTAP	77	288	5
NMHLD	78	0	6	96
NMTAP	78	96	7
NMHLD	78	192	1	96
NMTAP	78	288	0
NMTAP	79	0	3
NMTAP	79	0	4
NMSTR	79	96	0
NMSI_	79	96	0	96	48	2
NMSTR	79	96	7
NMSI_	79	96	7	96	48	5
NMTAP	80	0	1
NMTAP	80	0	3
NMTAP	80	48	1
NMTAP	80	48	3
NMTAP	80	96	1
NMTAP	80	96	3
NMTAP	80	192	4
NMTAP	80	192	6
NMTAP	80	240	4
NMTAP	80	240	6
NMTAP	80	288	4
NMTAP	80	288	6
NMSTR	81	0	3
NMSCL	81	0	3	96	96	0
NMSTR	81	0	7
NMSCL	81	0	7	96	96	4
NMTAP	81	288	1
NMTAP	81	288	5
NMTAP	82	0	4
NMTAP	82	0	6
NMTAP	82	48	4
NMTAP	82	48	6
NMTAP	82	96	4
NMTAP	82	96	6
NMTAP	82	192	1
NMTAP	82	192	3
NMTAP	82	240	1
NMTAP	82	240	3
NMTAP	82	288	1
NMTAP	82	288	3
NMSTR	83	0	0
NMSCR	83	0	0	96	96	3
NMSTR	83	0	4
NMSCR	83	0	4	96	96	7
NMTAP	83	288	2
NMTAP	83	288	6
NMSTR	84	0	2
NMSI_	84	0	2	96	96	5
NMSTR	84	0	6
NMSCR	84	0	6	96	96	1
EXTAP	84	288	2
EXTAP	84	288	4
NMSTR	85	0	1
NMSCL	85	0	1	96	96	6
NMSTR	85	0	5
NMSI_	85	0	5	96	96	2
EXTAP	85	288	3
EXTAP	85	288	5
NMTAP	86	0	1
NMTAP	86	96	0
NMTAP	86	96	2
NMTAP	86	192	6
NMTAP	86	288	5
NMTAP	86	288	7
NMTAP	87	0	4
NMTAP	87	0	5
NMSTR	87	96	4
BRSLL	87	96	4	96	96	0
NMSTR	87	96	5
BRSV_	87	96	5	96	96	7
NMTAP	88	0	1
NMTAP	88	48	1
NMTAP	88	96	0
NMTAP	88	192	2
NMTAP	88	240	2
NMTAP	88	288	1
NMTAP	88	288	3
NMTAP	89	0	6
NMTAP	89	48	6
NMTAP	89	96	7
NMTAP	89	192	5
NMTAP	89	240	5
NMTAP	89	288	4
NMTAP	89	288	6
EXTAP	89	336	4
EXTAP	89	336	6
NMHLD	90	48	7	96
NMTAP	90	144	5
NMHLD	90	192	5	96
NMHLD	90	288	3	96
NMHLD	91	0	1	96
NMSTR	91	96	7
BRSF_	91	96	7	96	96	3
NMSTR	92	0	1
NMSCL	92	0	1	96	96	6
NMSTR	92	0	5
NMSUR	92	0	5	96	96	2
EXTAP	92	288	3
EXTAP	92	288	5
NMSTR	93	0	2
NMSUL	93	0	2	96	96	5
NMSTR	93	0	6
NMSCR	93	0	6	96	96	1
EXTAP	93	288	2
EXTAP	93	288	4
NMHLD	94	0	1	96
NMTAP	94	96	0
NMHLD	94	192	6	96
NMTAP	94	288	7
NMTAP	95	0	4
NMTAP	95	0	5
NMSTR	95	96	4
NMSCL	95	96	4	96	96	1
NMSTR	95	96	5
NMSV_	95	96	5	96	96	0
NMHLD	96	0	0	96
NMHLD	96	0	1	96
NMHLD	96	192	6	96
NMHLD	96	192	7	96
NMTAP	97	0	0
NMTAP	97	0	6
NMTAP	97	72	2
NMTAP	97	72	4
BRTAP	97	144	1
BRTAP	97	144	5

T_REC_TAP	294
T_REC_BRK	2
T_REC_XTP	32
T_REC_BXX	2
T_REC_HLD	72
T_REC_XHO	3
T_REC_BHO	0
T_REC_BXH	0
T_REC_STR	53
T_REC_BST	0
T_REC_XST	0
T_REC_XBS	0
T_REC_TTP	17
T_REC_THO	1
T_REC_SLD	50
T_REC_BSL	3
T_REC_ALL	529
T_NUM_TAP	396
T_NUM_BRK	7
T_NUM_HLD	76
T_NUM_SLD	50
T_NUM_ALL	529
T_JUDGE_TAP	400
T_JUDGE_HLD	260
T_JUDGE_SLD	53
T_JUDGE_ALL	713
TTM_EACHPAIRS	166
TTM_SCR_TAP	198000
TTM_SCR_BRK	18200
TTM_SCR_HLD	76000
TTM_SCR_SLD	75000
TTM_SCR_ALL	367200
TTM_SCR_S	355550
TTM_SCR_SS	366500
TTM_RAT_ACV	10019

