VERSION	0.00.00	1.04.00
FES_MODE	0
BPM_DEF	150.000	150.000	150.000	150.000
MET_DEF	4	4
RESOLUTION	384
CLK_DEF	384
COMPATIBLE_CODE	MA2

BPM	0	0	150.000
MET	0	0	4	4

NMTAP	2	0	0
NMTAP	2	96	0
NMTAP	2	192	1
NMTAP	3	0	2
NMTAP	3	96	2
NMTAP	3	192	3
NMTAP	4	0	4
NMTAP	4	96	4
NMTAP	4	192	5
NMTAP	5	0	6
NMTAP	5	96	6
NMTAP	5	192	6
NMTAP	5	192	7
NMTAP	6	0	7
NMTAP	6	96	7
NMTAP	6	192	6
NMTAP	7	0	5
NMTAP	7	96	5
NMTAP	7	192	4
NMTAP	8	0	3
NMTAP	8	96	3
NMTAP	8	192	2
NMTAP	9	0	1
NMTAP	9	96	1
NMTAP	9	192	0
NMTAP	9	192	1
NMHLD	10	0	1	192
NMTAP	10	192	0
NMHLD	11	0	2	192
NMTAP	11	192	3
NMHLD	12	0	5	192
NMTAP	12	192	4
NMHLD	13	0	6	192
NMTAP	13	192	7
NMTAP	14	0	5
NMTAP	14	96	5
NMTAP	14	192	5
NMTAP	15	0	6
NMTAP	15	96	6
NMTAP	15	192	6
NMTAP	16	0	7
NMTAP	16	96	7
NMTAP	16	192	7
NMTAP	17	0	0
NMTAP	17	0	1
NMTAP	17	192	0
NMTAP	17	192	1
NMTAP	18	0	2
NMTAP	18	96	2
NMTAP	18	192	2
NMTAP	19	0	1
NMTAP	19	96	1
NMTAP	19	192	1
NMTAP	20	0	0
NMTAP	20	96	0
NMTAP	20	192	0
NMTAP	21	0	6
NMTAP	21	0	7
NMTAP	21	192	6
NMTAP	21	192	7
NMTAP	22	0	6
NMTAP	22	96	6
NMTAP	22	192	6
NMTAP	23	0	5
NMTAP	23	96	5
NMTAP	23	192	5
NMTAP	24	0	4
NMTAP	24	96	4
NMTAP	24	192	4
NMTAP	25	0	2
NMTAP	25	0	3
NMTAP	25	192	2
NMTAP	25	192	3
NMTAP	26	0	1
NMTAP	26	96	1
NMTAP	26	192	1
NMTAP	27	0	2
NMTAP	27	96	2
NMTAP	27	192	2
NMTAP	28	0	3
NMTAP	28	96	3
NMTAP	28	192	3
NMTAP	29	0	4
NMTAP	29	0	5
NMTAP	29	192	4
NMTAP	29	192	5
NMSTR	30	0	6
NMSUL	30	0	6	96	480	3
NMSTR	32	0	1
NMSUR	32	0	1	96	480	4
NMSTR	34	0	5
NMSI_	34	0	5	96	192	2
NMSTR	35	0	1
NMSI_	35	0	1	96	192	4
NMSTR	36	0	6
NMSI_	36	0	6	96	192	2
NMTAP	37	0	1
NMTAP	37	192	0
NMTAP	37	192	1
NMSTR	38	0	7
NMSI_	38	0	7	96	192	3
NMSTR	39	0	1
NMSI_	39	0	1	96	192	5
NMSTR	40	0	6
NMSI_	40	0	6	96	192	3
NMSTR	41	0	1
NMSI_	41	0	1	96	192	4
NMTTP	42	0	6	B	0	L1
NMTTP	42	96	5	B	0	L1
NMTTP	42	192	4	B	0	L1
NMTTP	43	0	1	B	0	L1
NMTTP	43	96	2	B	0	L1
NMTTP	43	192	3	B	0	L1
NMTTP	44	0	6	B	0	L1
NMTTP	44	96	5	B	0	L1
NMTTP	44	192	4	B	0	L1
NMTTP	44	288	3	B	0	L1
NMTTP	45	0	0	C	0	L1
NMTAP	46	0	1
NMTAP	46	96	1
NMTAP	46	192	0
NMTAP	46	288	0
NMTAP	47	0	7
NMTAP	47	96	7
NMTAP	47	192	6
NMTAP	47	192	7
NMTAP	48	0	5
NMTAP	48	96	5
NMTAP	48	192	6
NMTAP	48	288	6
NMTAP	49	0	7
NMTAP	49	96	7
NMTAP	49	192	0
NMTAP	49	192	1
NMTAP	50	0	1
NMTAP	50	96	1
NMTAP	50	192	2
NMTAP	50	288	2
NMTAP	51	0	3
NMTAP	51	96	3
NMTAP	51	192	4
NMTAP	51	192	5
NMTAP	52	0	6
NMTAP	52	96	6
NMTAP	52	192	5
NMTAP	52	288	5
NMTAP	53	0	4
NMTAP	53	96	4
BXTAP	53	192	2
BXTAP	53	192	3
NMTAP	54	0	2
NMTAP	54	96	2
NMTAP	54	192	1
NMTAP	54	288	1
NMTAP	55	0	0
NMTAP	55	96	0
NMTAP	55	192	6
NMTAP	55	192	7
NMTAP	56	0	5
NMTAP	56	96	5
NMTAP	56	192	6
NMTAP	56	288	6
NMTAP	57	0	7
NMTAP	57	96	7
NMTAP	57	192	0
NMTAP	57	192	1
NMTAP	58	0	1
NMTAP	58	96	1
NMTAP	58	192	2
NMTAP	58	288	2
NMTAP	59	0	3
NMTAP	59	96	3
NMTAP	59	192	4
NMTAP	59	192	5
NMTAP	60	0	6
NMTAP	60	96	6
NMTAP	60	192	5
NMTAP	60	288	5
NMTAP	61	0	4
NMTAP	61	96	4
NMTAP	61	192	2
NMTAP	61	192	3
NMHLD	62	0	2	192
NMHLD	62	192	3	192
NMHLD	63	0	4	192
NMTAP	63	192	5
NMHLD	64	0	5	192
NMHLD	64	192	4	192
NMHLD	65	0	3	192
NMTAP	65	192	2
NMHLD	66	0	1	192
NMHLD	66	192	0	192
NMHLD	67	0	7	192
NMTAP	67	192	6
NMHLD	68	0	6	192
NMHLD	68	192	7	192
NMHLD	69	0	0	192
NMTAP	69	192	1
NMHLD	70	0	0	384
NMHLD	70	0	7	384
EXSTR	72	0	0
NMSCR	72	0	0	96	288	3
EXSTR	72	0	7
NMSCL	72	0	7	96	288	4
NMTAP	74	0	5
NMTAP	74	96	5
NMTAP	74	192	6
NMTAP	74	192	7
NMTAP	74	288	6
NMTAP	74	288	7
NMTAP	75	0	0
NMTAP	75	96	0
NMTAP	75	192	0
NMTAP	75	192	1
NMTAP	76	0	1
NMTAP	76	96	1
NMTAP	76	192	2
NMTAP	76	192	3
NMTAP	76	288	2
NMTAP	76	288	3
NMTAP	77	0	4
NMTAP	77	96	4
NMTAP	77	192	4
NMTAP	77	192	5
NMTAP	78	0	6
NMTAP	78	96	6
NMTAP	78	192	4
NMTAP	78	192	5
NMTAP	78	288	4
NMTAP	78	288	5
NMTAP	79	0	3
NMTAP	79	96	3
NMTAP	79	192	2
NMTAP	79	192	3
NMTAP	80	0	2
NMTAP	80	96	2
NMTAP	80	192	0
NMTAP	80	192	1
NMTAP	80	288	0
NMTAP	80	288	1
NMTAP	81	0	7
NMTAP	81	96	7
NMTAP	81	192	6
NMTAP	81	192	7
NMTAP	81	288	6
NMTAP	81	288	7
NMTAP	82	0	5
NMTAP	82	96	5
NMTAP	82	192	6
NMTAP	82	192	7
NMTAP	82	288	6
NMTAP	82	288	7
NMTAP	83	0	0
NMTAP	83	96	0
NMTAP	83	192	0
NMTAP	83	192	1
NMTAP	84	0	1
NMTAP	84	96	1
NMTAP	84	192	2
NMTAP	84	192	3
NMTAP	84	288	2
NMTAP	84	288	3
NMTAP	85	0	4
NMTAP	85	96	4
NMTAP	85	192	4
NMTAP	85	192	5
NMTAP	85	288	4
NMTAP	85	288	5
NMTAP	86	0	6
NMTAP	86	96	6
NMTAP	86	192	4
NMTAP	86	192	5
NMTAP	86	288	4
NMTAP	86	288	5
NMTAP	87	0	3
NMTAP	87	96	3
BRTAP	87	192	2
BRTAP	87	192	3
NMTAP	88	0	0
NMTAP	88	0	1
NMTAP	88	96	0
NMTAP	88	96	1
NMTAP	88	192	2
NMTAP	88	192	7
NMTAP	89	0	2
NMTAP	89	0	3
NMTAP	89	96	2
NMTAP	89	96	3
NMTAP	89	192	1
NMTAP	89	192	4
NMTAP	90	0	4
NMTAP	90	0	5
NMTAP	90	96	4
NMTAP	90	96	5
NMTAP	90	192	3
NMTAP	90	192	6
NMTAP	91	0	6
NMTAP	91	0	7
NMTAP	91	96	6
NMTAP	91	96	7
NMTAP	91	192	0
NMTAP	91	192	5
NMTAP	92	0	6
NMTAP	92	0	7
NMTAP	92	96	6
NMTAP	92	96	7
NMTAP	92	192	0
NMTAP	92	192	5
NMTAP	93	0	4
NMTAP	93	0	5
NMTAP	93	96	4
NMTAP	93	96	5
NMTAP	93	192	3
NMTAP	93	192	6
NMTAP	94	0	2
NMTAP	94	0	3
NMTAP	94	96	2
NMTAP	94	96	3
NMTAP	94	192	1
NMTAP	94	192	4
NMTAP	95	0	0
NMTAP	95	0	1
NMTAP	95	96	0
NMTAP	95	96	1
NMTAP	95	192	2
NMTAP	95	192	7
NMSTR	96	0	0
NMSXR	96	0	0	96	480	5
NMSTR	96	0	1
NMSXL	96	0	1	96	480	4

T_REC_TAP	271
T_REC_BRK	2
T_REC_XTP	0
T_REC_BXX	2
T_REC_HLD	18
T_REC_XHO	0
T_REC_BHO	0
T_REC_BXH	0
T_REC_STR	11
T_REC_BST	0
T_REC_XST	2
T_REC_XBS	0
T_REC_TTP	11
T_REC_THO	0
T_REC_SLD	13
T_REC_BSL	0
T_REC_ALL	330
T_NUM_TAP	295
T_NUM_BRK	4
T_NUM_HLD	18
T_NUM_SLD	13
T_NUM_ALL	330
T_JUDGE_TAP	299
T_JUDGE_HLD	80
T_JUDGE_SLD	13
T_JUDGE_ALL	392
TTM_EACHPAIRS	69
TTM_SCR_TAP	147500
TTM_SCR_BRK	10400
TTM_SCR_HLD	18000
TTM_SCR_SLD	19500
TTM_SCR_ALL	195400
TTM_SCR_S	189150
TTM_SCR_SS	195000
TTM_RAT_ACV	10020

