VERSION	0.00.00	1.04.00
FES_MODE	0
BPM_DEF	150.000	150.000	150.000	150.000
MET_DEF	4	4
RESOLUTION	384
CLK_DEF	384
COMPATIBLE_CODE	MA2

BPM	0	0	150.000
MET	0	0	4	4

NMTAP	2	0	7
NMTAP	2	192	7
NMTAP	3	0	6
NMTAP	3	192	6
NMTAP	4	0	5
NMTAP	4	192	5
NMTAP	5	0	3
NMTAP	5	0	4
NMTAP	6	0	3
NMTAP	6	192	3
NMTAP	7	0	2
NMTAP	7	192	2
NMTAP	8	0	1
NMTAP	8	192	1
NMTAP	9	0	0
NMTAP	9	0	7
NMTAP	10	0	6
NMTAP	10	192	6
NMTAP	11	0	0
NMTAP	11	0	7
NMTAP	12	0	1
NMTAP	12	192	1
NMTAP	13	0	0
NMTAP	13	0	7
BXTAP	14	0	0
NMTAP	14	96	0
NMTAP	14	192	0
NMTAP	15	0	1
NMTAP	15	192	1
NMTAP	16	0	2
NMTAP	16	192	2
NMTAP	17	0	2
NMTAP	17	0	3
NMTAP	18	0	4
NMTAP	18	96	4
NMTAP	18	192	4
NMTAP	19	0	5
NMTAP	19	192	5
NMTAP	20	0	6
NMTAP	20	192	6
EXTAP	21	0	6
EXTAP	21	0	7
NMTAP	22	0	7
NMTAP	22	96	7
NMTAP	22	192	7
NMTAP	23	0	6
NMTAP	23	192	6
NMTAP	24	0	5
NMTAP	24	192	5
NMTAP	25	0	3
NMTAP	25	0	4
NMTAP	26	0	3
NMTAP	26	96	3
NMTAP	26	192	3
NMTAP	27	0	2
NMTAP	27	192	2
NMTAP	28	0	1
NMTAP	28	192	1
EXTAP	29	0	0
EXTAP	29	0	7
NMHLD	30	0	6	384
NMHLD	30	0	7	384
NMHLD	32	0	0	384
NMHLD	32	0	1	384
NMSTR	34	0	1
NMSI_	34	0	1	96	288	5
NMSTR	36	0	7
NMSI_	36	0	7	96	288	3
NMSTR	38	0	0
NMSI_	38	0	0	96	288	4
NMSTR	40	0	6
NMSI_	40	0	6	96	288	2
NMTAP	42	0	1
NMTAP	42	192	1
NMTAP	43	0	0
NMTAP	43	0	7
NMTAP	44	0	6
NMTAP	44	192	6
NMTAP	45	0	0
NMTAP	45	0	7
BRTAP	46	0	7
NMTAP	46	96	7
NMTAP	46	192	7
NMTAP	47	0	6
NMTAP	47	192	6
NMTAP	48	0	5
NMTAP	48	96	5
NMTAP	48	192	5
NMTAP	49	0	4
NMTAP	49	0	5
NMTAP	50	0	3
NMTAP	50	96	3
NMTAP	50	192	3
NMTAP	51	0	2
NMTAP	51	192	2
NMTAP	52	0	1
NMTAP	52	96	1
NMTAP	52	192	1
EXTAP	53	0	0
EXTAP	53	0	1
NMTAP	54	0	0
NMTAP	54	96	0
NMTAP	54	192	0
NMTAP	55	0	1
NMTAP	55	192	1
NMTAP	56	0	2
NMTAP	56	96	2
NMTAP	56	192	2
NMTAP	57	0	3
NMTAP	57	0	4
NMTAP	58	0	4
NMTAP	58	96	4
NMTAP	58	192	4
NMTAP	59	0	5
NMTAP	59	192	5
NMTAP	60	0	6
NMTAP	60	96	6
NMTAP	60	192	6
BXTAP	61	0	0
BXTAP	61	0	7
NMTTP	62	0	0	B	0	L1
NMTTP	63	0	7	B	0	L1
NMTTP	64	0	1	B	0	L1
NMTTP	65	0	6	B	0	L1
NMTTP	66	0	2	B	0	L1
NMTTP	67	0	5	B	0	L1
NMTTP	68	0	3	B	0	L1
NMTTP	69	0	4	B	0	L1
NMTHO	70	0	0	384	C	1	L1
NMTAP	72	0	0
NMTAP	72	0	7
NMTAP	72	192	0
NMTAP	72	192	7
EXTAP	73	0	0
EXTAP	73	0	7
EXTAP	73	192	0
EXTAP	73	192	7
BXTAP	74	0	7
NMTAP	74	96	7
NMTAP	74	192	7
NMTAP	75	0	6
NMTAP	75	96	6
NMTAP	75	192	6
NMTAP	76	0	5
NMTAP	76	96	5
NMTAP	76	192	5
NMTAP	77	0	4
NMTAP	77	96	4
NMTAP	77	192	3
NMTAP	77	192	4
NMTAP	78	0	2
NMTAP	78	96	2
NMTAP	78	192	2
NMTAP	79	0	1
NMTAP	79	96	1
NMTAP	79	192	0
NMTAP	79	192	1
NMTAP	80	0	0
NMTAP	80	96	0
NMTAP	80	192	0
NMTAP	81	0	0
NMTAP	81	0	1
NMTAP	81	192	0
NMTAP	81	192	1
NMTAP	82	0	2
NMTAP	82	96	2
NMTAP	82	192	2
NMTAP	83	0	3
NMTAP	83	0	4
NMTAP	83	192	3
NMTAP	83	192	4
NMTAP	84	0	4
NMTAP	84	96	4
NMTAP	84	192	4
NMTAP	85	0	4
NMTAP	85	0	5
NMTAP	85	192	4
NMTAP	85	192	5
NMTAP	86	0	6
NMTAP	86	96	6
NMTAP	86	192	6
BXTAP	87	0	0
BXTAP	87	0	7
NMHLD	88	0	7	192
NMTAP	89	0	6
NMTAP	89	96	6
NMTAP	89	192	6
NMHLD	90	0	5	192
NMTAP	91	0	3
NMTAP	91	0	4
NMTAP	91	96	3
NMTAP	91	96	4
NMTAP	91	192	3
NMTAP	91	192	4
NMHLD	92	0	3	192
NMTAP	93	0	2
NMTAP	93	96	2
NMTAP	93	192	2
NMHLD	94	0	1	192
NMTAP	95	0	0
NMTAP	95	0	7
NMTAP	95	96	0
NMTAP	95	96	7
BRTAP	95	192	0
BRTAP	95	192	7
NMHLD	96	0	1	528
NMHLD	96	0	6	528

T_REC_TAP	161
T_REC_BRK	3
T_REC_XTP	10
T_REC_BXX	6
T_REC_HLD	10
T_REC_XHO	0
T_REC_BHO	0
T_REC_BXH	0
T_REC_STR	4
T_REC_BST	0
T_REC_XST	0
T_REC_XBS	0
T_REC_TTP	8
T_REC_THO	1
T_REC_SLD	4
T_REC_BSL	0
T_REC_ALL	207
T_NUM_TAP	183
T_NUM_BRK	9
T_NUM_HLD	11
T_NUM_SLD	4
T_NUM_ALL	207
T_JUDGE_TAP	192
T_JUDGE_HLD	78
T_JUDGE_SLD	4
T_JUDGE_ALL	274
TTM_EACHPAIRS	36
TTM_SCR_TAP	91500
TTM_SCR_BRK	23400
TTM_SCR_HLD	11000
TTM_SCR_SLD	6000
TTM_SCR_ALL	131900
TTM_SCR_S	127100
TTM_SCR_SS	131000
TTM_RAT_ACV	10068

