VERSION	0.00.00	1.04.00
FES_MODE	0
BPM_DEF	180.000	180.000	180.000	180.000
MET_DEF	4	4
RESOLUTION	384
CLK_DEF	384
COMPATIBLE_CODE	MA2

BPM	0	0	180.000
MET	0	0	4	4

EXSTR	3	0	3
NMSSR	3	0	3	96	288	7
EXSTR	3	0	4
NMSSL	3	0	4	96	288	0
CNSCR	4	0	0	0	288	2
CNSCL	4	0	7	0	288	5
NMTAP	5	0	3
NMTAP	5	0	4
NMTAP	5	48	2
NMTAP	5	72	4
NMTAP	5	96	2
NMTAP	5	120	4
NMTAP	5	144	2
NMTAP	5	168	4
NMTAP	5	192	3
NMTAP	5	216	5
NMTAP	5	240	3
NMTAP	5	264	5
NMTAP	5	288	3
NMTAP	5	312	5
NMTAP	5	336	3
NMTAP	5	360	5
NMTAP	6	0	2
NMTAP	6	24	4
NMTAP	6	48	2
NMTAP	6	72	4
NMTAP	6	96	3
NMTAP	6	120	5
NMTAP	6	144	3
NMTAP	6	168	5
NMTAP	6	192	2
NMTAP	6	216	4
NMTAP	6	240	3
NMTAP	6	264	5
NMTAP	6	288	3
NMTAP	6	312	4
NMTAP	6	336	2
NMTAP	6	360	5
NMTAP	7	0	0
NMTHO	7	96	0	144	C	0	M1
NMTTP	7	240	1	B	0	M1
NMTTP	7	240	5	B	0	M1
NMTTP	7	256	2	B	0	M1
NMTTP	7	264	6	B	0	M1
NMTTP	7	280	3	B	0	M1
NMTTP	7	288	7	B	0	M1
BRSTR	8	0	0
NMSCR	8	0	0	96	1248	7
NMTHO	9	0	0	96	C	0	M1
NMTHO	11	0	0	96	C	0	M1
NMSTR	12	0	0
NMSCR	12	0	0	96	288	3
NMSTR	13	0	7
NMSCL	13	0	7	96	288	4
NMSTR	14	0	3
NMSI_	14	0	3	96	288	7
EXTAP	15	240	0
EXTAP	15	240	7
EXTAP	15	264	0
EXTAP	15	264	7
NMTAP	15	288	1
NMTAP	15	288	6
NMHLD	16	0	2	144
NMTAP	16	96	3
NMHLD	16	144	3	144
NMTAP	16	240	4
NMSTR	16	288	4
NMSUL	16	288	4	96	192	3
NMTAP	17	288	4
NMTAP	17	288	5
NMHLD	18	0	6	144
NMTAP	18	96	7
NMHLD	18	144	7	144
NMTAP	18	240	0
NMSTR	18	288	0
NMSUL	18	288	0	96	192	7
NMTAP	19	288	0
NMTAP	19	288	7
NMTAP	20	0	0
NMTAP	20	0	6
NMTAP	20	48	1
NMTAP	20	96	2
NMTAP	20	144	3
NMTAP	20	144	7
NMTAP	20	192	6
NMTAP	20	240	5
NMTAP	20	288	1
NMTAP	20	288	4
NMTAP	21	0	2
NMTAP	21	0	3
NMTAP	21	48	2
NMTAP	21	48	3
NMTAP	21	96	1
NMTAP	21	96	4
NMTAP	21	144	1
NMTAP	21	144	4
NMTAP	21	192	0
NMTAP	21	192	5
NMTAP	21	240	0
NMTAP	21	240	5
NMTAP	21	288	6
NMTAP	21	288	7
NMTAP	21	336	6
NMTAP	21	336	7
NMTAP	22	0	1
NMTAP	22	24	0
NMTAP	22	48	1
NMTAP	22	72	0
NMTAP	22	96	2
NMTAP	22	120	7
NMTAP	22	144	2
NMTAP	22	168	7
NMTAP	22	192	3
NMTAP	22	216	6
NMTAP	22	240	3
NMTAP	22	264	6
NMSTR	22	288	4
NMSCR	22	288	4	96	192	3
NMSUL	22	288	4	96	192	3
NMTAP	22	312	5
NMTAP	22	336	4
NMTAP	22	360	5
NMTAP	23	0	4
EXSTR	23	288	1
NMSI_	23	288	1	96	48	4
EXSTR	23	288	5
NMSI_	23	288	5	96	48	0
BRTAP	24	0	1
BRTAP	24	0	5
NMTAP	24	96	3
NMHLD	24	96	7	96
NMTAP	24	192	4
NMSTR	24	240	4
NMSI_	24	240	4	96	48	0
NMTAP	24	288	5
NMTAP	24	336	4
NMSTR	24	336	6
NMSI_	24	336	6	96	48	2
NMTAP	25	48	7
NMSTR	25	96	7
NMSLR	25	96	7	96	96	3
NMTAP	25	192	3
NMTAP	25	240	5
NMSTR	25	288	7
NMSI_	25	288	7	96	48	3
NMSTR	26	0	2
NMSI_	26	0	2	96	48	5
NMTAP	26	0	7
NMTAP	26	96	2
NMSTR	26	96	6
NMSI_	26	96	6	96	48	1
NMTAP	26	192	2
NMTAP	26	192	6
NMSTR	26	240	2
NMSI_	26	240	2	96	48	6
NMSTR	26	336	0
NMSI_	26	336	0	96	48	4
NMTAP	26	336	2
NMTAP	27	48	0
NMTAP	27	48	7
NMSTR	27	96	6
NMSI_	27	96	6	96	48	1
NMSI_	27	96	6	96	48	3
BRTAP	27	192	6
NMSTR	27	288	0
NMSI_	27	288	0	96	48	3
NMSTR	27	288	4
NMSI_	27	288	4	96	48	7
BRTAP	28	0	0
BRTAP	28	0	4
NMTAP	28	96	2
NMHLD	28	96	6	96
NMTAP	28	192	1
NMSTR	28	240	1
NMSI_	28	240	1	96	48	4
NMTAP	28	288	3
NMSTR	28	336	3
NMSI_	28	336	3	96	48	6
NMTAP	29	48	7
NMSTR	29	96	7
NMSCR	29	96	7	96	48	2
NMTAP	29	192	4
NMTAP	29	240	5
NMTAP	29	288	6
NMSTR	30	0	1
NMSI_	30	0	1	96	48	3
NMTAP	30	48	1
NMSTR	30	96	1
NMSI_	30	96	1	96	48	5
NMTAP	30	192	4
NMSTR	30	240	4
NMSI_	30	240	4	96	48	0
NMTAP	30	336	6
NMSTR	31	0	6
NMSI_	31	0	6	96	48	2
NMTAP	31	48	7
NMSTR	31	96	7
NMSI_	31	96	7	96	48	3
NMSTR	31	192	7
NMSF_	31	192	7	96	48	3
BRTAP	31	288	7
BRTAP	32	0	0
BRTAP	32	0	4
BRSTR	32	48	2
NMSCR	32	48	2	96	48	5
BRTAP	32	48	6
NMTAP	32	144	2
NMSTR	32	144	7
NMSI_	32	144	7	96	48	3
NMSTR	32	240	4
NMSI_	32	240	4	96	48	0
NMTAP	32	240	7
NMTAP	32	336	4
NMSTR	32	336	5
NMSI_	32	336	5	96	48	7
NMTAP	33	48	1
NMTAP	33	48	5
NMSTR	33	96	1
NMSCR	33	96	1	96	48	4
NMTAP	33	192	7
NMTAP	33	240	6
NMSTR	33	288	5
NMSI_	33	288	5	96	48	0
NMSTR	34	0	3
NMSI_	34	0	3	96	48	6
NMSTR	34	96	1
NMSI_	34	96	1	96	48	4
NMTAP	34	192	0
NMTAP	34	240	0
NMTAP	34	336	2
NMTAP	34	336	7
NMTAP	35	0	3
NMTAP	35	0	6
NMTAP	35	48	5
NMTAP	35	72	4
NMSTR	35	96	5
NMSI_	35	96	5	96	48	0
NMSI_	35	96	5	96	48	1
BRTAP	35	192	5
NMSTR	35	288	6
NMSI_	35	288	6	96	48	2
NMSTR	35	288	7
NMSI_	35	288	7	96	48	3
BRTAP	36	0	6
BRTAP	36	0	7
NMHLD	36	96	1	96
NMTAP	36	96	5
NMTAP	36	192	5
NMSTR	36	240	6
NMSI_	36	240	6	96	48	3
NMSTR	36	336	2
NMSI_	36	336	2	96	48	7
NMTAP	36	336	6
NMTAP	37	48	2
NMTAP	37	48	4
NMSTR	37	96	4
NMSLR	37	96	4	96	96	0
NMTAP	37	192	0
NMTAP	37	240	2
NMTAP	37	288	4
NMTAP	38	0	2
NMTAP	38	0	3
NMTAP	38	48	2
NMTAP	38	48	3
NMTAP	38	96	4
NMTAP	38	96	5
NMTAP	38	144	4
NMTAP	38	144	5
NMTAP	38	192	6
NMTAP	38	216	7
NMTAP	38	240	5
NMTAP	38	264	0
NMTAP	38	288	4
NMTAP	38	312	1
NMTAP	38	336	3
NMTAP	38	360	2
NMTHO	39	0	0	288	C	1	M1
NMHLD	40	0	0	1344
NMSTR	40	0	7
NMSCL	40	0	7	96	672	0
CNSV_	42	0	0	0	384	7
NMSTR	44	0	5
NMSLL	44	0	5	96	384	6
CNSI_	45	96	6	0	288	2
NMSTR	46	0	0
NMSI_	46	0	0	96	192	4
NMSTR	46	192	7
NMSI_	46	192	7	96	192	3
NMTAP	47	240	3
NMTAP	47	264	4
NMTAP	47	288	2
NMTAP	47	288	5
NMHLD	48	0	4	96
NMHLD	48	0	5	96
NMTAP	48	144	3
NMSTR	48	144	6
NMSCL	48	144	6	96	192	2
NMTTP	48	240	1	E	0	M1
NMSTR	48	336	2
NMSLR	48	336	2	96	192	6
NMTAP	49	144	2
NMTAP	49	240	1
NMHLD	49	336	1	72
NMHLD	50	24	3	72
NMHLD	50	96	2	72
NMHLD	50	168	4	72
NMTAP	50	240	3
NMTAP	50	288	4
NMTAP	50	336	5
NMHLD	51	0	6	72
NMHLD	51	72	4	72
NMHLD	51	144	5	72
NMHLD	51	216	3	72
NMTAP	51	288	4
NMTAP	51	336	3
NMSTR	52	0	2
NMSI_	52	0	2	96	96	5
NMHLD	52	48	2	144
NMTAP	52	240	6
NMSTR	52	288	6
NMSI_	52	288	6	96	96	3
NMHLD	52	336	6	144
NMTAP	53	144	2
NMTAP	53	240	1
NMSTR	53	336	0
NMSSL	53	336	0	96	336	4
NMHLD	54	48	0	336
NMSTR	55	192	3
BRSCL	55	192	3	96	48	0
NMSTR	55	192	7
BRSCL	55	192	7	96	48	4
BRTAP	55	288	3
BRTAP	55	288	7
NMTAP	56	0	6
NMTAP	56	24	7
NMTAP	56	48	6
NMTAP	56	72	7
NMTAP	56	96	5
NMTAP	56	144	2
NMTAP	56	168	3
NMTAP	56	192	2
NMTAP	56	216	3
NMTAP	56	240	1
NMTAP	56	288	0
NMTAP	56	288	7
NMTAP	56	336	4
NMTAP	56	336	6
NMTAP	57	0	5
NMTAP	57	24	4
NMTAP	57	48	6
NMTAP	57	72	0
NMTAP	57	96	7
NMTAP	57	120	1
NMTAP	57	144	3
NMTAP	57	168	2
NMTAP	57	192	4
NMTAP	57	216	3
NMTAP	57	240	5
NMTAP	57	264	4
BRTAP	57	288	3
BRTAP	57	288	6
NMTAP	58	0	6
NMTAP	58	24	7
NMTAP	58	48	6
NMTAP	58	72	7
NMTAP	58	96	5
NMTAP	58	144	1
NMTAP	58	168	0
NMTAP	58	192	1
NMTAP	58	216	0
NMTAP	58	240	2
NMTAP	58	288	4
NMTAP	58	288	5
NMTAP	58	336	0
NMTAP	58	336	7
NMTAP	59	0	2
NMTAP	59	24	3
NMTAP	59	48	1
NMTAP	59	72	5
NMTAP	59	96	4
NMTAP	59	120	6
NMSTR	59	144	0
NMSI_	59	144	0	96	48	5
NMTAP	59	168	7
NMSTR	59	192	1
NMSI_	59	192	1	96	48	4
NMTAP	59	240	0
NMTAP	59	288	1
BRTAP	60	0	7
NMTAP	60	24	3
NMTAP	60	48	6
NMTAP	60	72	4
NMTAP	60	96	5
NMTAP	60	144	0
NMTAP	60	168	4
NMTAP	60	192	1
NMTAP	60	216	3
NMTAP	60	240	2
NMTAP	60	288	3
NMTAP	60	288	4
NMTAP	60	336	0
NMTAP	60	336	7
EXTAP	61	0	0
EXTAP	61	0	7
NMTAP	61	24	6
NMTAP	61	48	5
EXTAP	61	72	1
EXTAP	61	72	4
NMTAP	61	96	2
NMTAP	61	120	3
EXSTR	61	144	4
NMSI_	61	144	4	96	48	0
EXSTR	61	144	7
NMSI_	61	144	7	96	48	3
EXTAP	61	192	4
EXTAP	61	192	7
BRHLD	62	0	1	24
NMHLD	62	0	2	24
BRHLD	62	72	6	24
NMHLD	62	72	7	24
NMHLD	62	144	0	24
BRHLD	62	144	1	24
NMHLD	62	216	4	24
BRHLD	62	216	5	24
NMHLD	62	288	0	60
NMHLD	62	288	7	60
NMTAP	62	360	1
NMTAP	62	360	6
NMTAP	62	372	2
NMTAP	62	372	5
NMTAP	63	0	3
NMTAP	63	0	4
NMHLD	63	72	1	24
NMHLD	63	72	2	24
NMHLD	63	144	5	24
NMHLD	63	144	6	24
NMSTR	63	192	0
NMSI_	63	192	0	96	48	4
NMSTR	63	192	7
NMSI_	63	192	7	96	48	3
NMTAP	63	240	1
NMTAP	63	240	6
BRTAP	63	288	0
BRTAP	63	288	7
NMTAP	64	0	2
NMTAP	64	0	3
NMTAP	64	48	6
NMTAP	64	48	7
NMTAP	64	96	1
NMTAP	64	96	5
NMTAP	64	144	2
NMTAP	64	168	3
NMTAP	64	192	1
NMTAP	64	216	4
NMTAP	64	240	2
NMTAP	64	264	3
NMTAP	64	288	1
NMTAP	64	336	6
NMTAP	64	360	7
NMTAP	65	0	5
NMTAP	65	24	0
NMTAP	65	48	6
NMTAP	65	72	7
NMTAP	65	96	5
NMTAP	65	144	1
NMTAP	65	168	0
NMTAP	65	192	2
NMTAP	65	216	7
NMTAP	65	240	1
NMTAP	65	264	6
NMHLD	65	288	0	48
EXTAP	65	336	7
NMTAP	65	360	6
NMTAP	66	0	4
NMTAP	66	0	5
EXTAP	66	24	3
NMTAP	66	48	2
NMTAP	66	72	1
EXTAP	66	96	6
NMTAP	66	120	5
NMTAP	66	144	4
EXTAP	66	168	2
EXTAP	66	168	3
NMTAP	66	192	1
NMTAP	66	216	0
EXTAP	66	240	6
EXTAP	66	240	7
EXTAP	66	288	0
EXTAP	66	288	5
EXTAP	66	336	1
EXTAP	66	336	4
EXTAP	67	0	2
EXTAP	67	0	3
NMTAP	67	24	4
NMTAP	67	48	5
EXTAP	67	72	0
EXTAP	67	72	6
NMTAP	67	96	1
NMTAP	67	120	2
EXTAP	67	144	3
EXTAP	67	144	5
NMTAP	67	168	6
NMTAP	67	192	7
EXTAP	67	216	0
EXTAP	67	216	1
NMTAP	67	240	2
NMTAP	67	264	3
EXTAP	67	288	4
EXTAP	67	288	7
EXTAP	67	336	4
EXTAP	67	336	7
NMTAP	68	0	0
NMTAP	68	0	6
NMTAP	68	48	1
NMTAP	68	72	3
NMTAP	68	96	2
NMTAP	68	144	5
NMTAP	68	168	4
NMTAP	68	192	6
NMTAP	68	216	4
NMTAP	68	240	7
NMTAP	68	288	0
NMTAP	68	288	1
NMTAP	68	336	2
NMTAP	68	336	7
NMHLD	69	0	4	24
NMHLD	69	0	6	24
NMHLD	69	72	1	24
NMHLD	69	72	3	24
NMTAP	69	144	0
NMTAP	69	144	6
NMTAP	69	192	1
NMTAP	69	192	7
NMTAP	69	240	3
NMTAP	69	240	5
NMTAP	69	264	3
NMTAP	69	264	5
NMTAP	69	336	2
NMTAP	69	360	3
NMTAP	70	0	1
NMTAP	70	24	4
NMTAP	70	48	0
NMTAP	70	72	5
NMTAP	70	96	7
NMTAP	70	120	6
NMTAP	70	144	4
NMTAP	70	168	5
NMTAP	70	192	3
NMTAP	70	216	6
NMTAP	70	240	2
NMTAP	70	264	7
NMSTR	70	288	1
NMSSR	70	288	1	96	144	5
NMTAP	70	312	0
NMTAP	70	336	1
NMTAP	70	360	0
CNSSR	71	144	5	0	144	1
NMHLD	72	0	6	1344
NMSTR	72	96	2
NMSI_	72	96	2	96	48	4
NMTAP	72	192	2
NMTAP	72	336	5
NMTAP	73	0	5
NMSTR	73	96	4
NMSI_	73	96	4	96	48	0
NMTAP	73	192	4
NMTAP	74	0	0
NMSTR	74	96	7
NMSI_	74	96	7	96	48	5
NMTAP	74	192	7
NMTAP	74	336	4
NMTAP	75	0	4
NMSTR	75	96	5
NMSI_	75	96	5	96	48	0
NMTAP	75	192	5
NMTAP	75	288	1
NMTAP	75	288	5
NMHLD	76	0	2	576
NMTAP	76	0	4
NMSTR	76	96	3
NMSI_	76	96	3	96	48	0
NMTAP	76	192	3
NMTAP	76	336	0
NMTAP	77	0	0
NMSTR	77	96	7
NMSI_	77	96	7	96	48	3
NMTAP	77	192	7
NMTAP	77	288	1
NMTAP	77	288	5
BRHLD	78	0	4	24
NMHLD	78	0	6	24
BRHLD	78	72	1	24
NMHLD	78	72	2	24
BRHLD	78	144	5	24
NMHLD	78	144	7	24
BRHLD	78	216	2	24
NMHLD	78	216	3	24
NMHLD	78	288	1	48
NMHLD	78	288	7	48
NMTAP	78	352	2
NMTAP	78	352	6
NMTAP	78	368	3
NMTAP	78	368	5
NMTAP	79	0	4
BRHLD	79	72	5	24
NMHLD	79	72	6	24
NMHLD	79	144	0	24
BRHLD	79	144	7	24
NMSTR	79	192	1
NMSI_	79	192	1	96	48	4
NMSTR	79	192	2
NMSI_	79	192	2	96	48	7
NMTAP	79	240	1
NMTAP	79	240	2
NMTAP	80	0	2
NMTAP	80	0	6
NMTAP	80	48	1
NMTAP	80	72	0
NMTAP	80	96	1
NMTAP	80	144	6
NMTAP	80	168	4
NMTAP	80	192	5
NMTAP	80	216	4
NMTAP	80	240	6
NMTAP	80	288	1
NMTAP	80	312	3
NMTAP	80	336	2
NMTAP	80	360	3
NMTAP	81	0	1
NMTAP	81	48	5
NMTAP	81	48	7
NMTAP	81	96	6
NMTAP	81	120	0
NMTAP	81	144	5
NMTAP	81	168	1
NMTAP	81	192	4
NMTAP	81	216	2
NMTAP	81	240	5
NMTAP	81	264	3
NMTAP	81	288	2
NMTAP	81	288	6
BXTAP	82	0	1
NMTAP	82	12	2
NMHLD	82	24	3	24
BXTAP	82	72	0
NMTAP	82	84	1
NMHLD	82	96	2	24
BXTAP	82	144	6
NMTAP	82	156	5
NMHLD	82	168	4	24
BXTAP	82	216	7
NMTAP	82	228	6
NMHLD	82	240	5	48
EXTAP	82	288	1
EXTAP	82	336	0
EXTAP	82	336	7
BXTAP	83	0	6
NMTAP	83	12	5
NMHLD	83	24	4	24
BXTAP	83	72	7
NMTAP	83	84	6
NMHLD	83	96	5	24
BXTAP	83	144	0
NMTAP	83	156	7
NMHLD	83	168	6	24
BXTAP	83	216	3
NMTAP	83	228	2
NMTAP	83	240	1
NMTAP	83	252	0
NMHLD	83	264	7	24
NMTAP	83	288	3
NMTAP	83	336	3
NMTAP	84	0	0
NMTAP	84	0	4
NMTAP	84	48	1
NMTAP	84	72	3
NMTAP	84	96	2
NMTAP	84	144	5
NMTAP	84	168	4
NMTAP	84	192	6
NMTAP	84	240	2
NMTAP	84	264	3
NMTAP	84	288	1
NMTAP	84	312	4
NMTAP	84	336	0
NMTAP	84	360	4
BXTAP	85	0	1
NMTAP	85	24	5
NMTAP	85	48	2
BXTAP	85	72	6
NMTAP	85	96	3
NMTAP	85	120	7
BXTAP	85	144	4
NMTAP	85	168	0
BXTAP	85	192	5
NMTAP	85	216	1
NMHLD	85	240	5	96
NMHLD	85	264	1	72
NMTAP	85	348	0
NMTAP	85	348	4
NMTAP	85	360	3
NMTAP	85	360	7
NMTAP	85	372	2
NMTAP	85	372	6
NMSTR	86	0	1
NMSUL	86	0	1	96	864	1
NMSTR	86	0	5
NMSUL	86	0	5	96	864	5
NMSTR	88	288	0
BRSSL	88	288	0	96	48	4

T_REC_TAP	410
T_REC_BRK	19
T_REC_XTP	36
T_REC_BXX	12
T_REC_HLD	56
T_REC_XHO	0
T_REC_BHO	10
T_REC_BXH	0
T_REC_STR	66
T_REC_BST	2
T_REC_XST	6
T_REC_XBS	0
T_REC_TTP	7
T_REC_THO	4
T_REC_SLD	74
T_REC_BSL	3
T_REC_ALL	705
T_NUM_TAP	525
T_NUM_BRK	46
T_NUM_HLD	60
T_NUM_SLD	74
T_NUM_ALL	705
T_JUDGE_TAP	558
T_JUDGE_HLD	179
T_JUDGE_SLD	77
T_JUDGE_ALL	814
TTM_EACHPAIRS	123
TTM_SCR_TAP	262500
TTM_SCR_BRK	119600
TTM_SCR_HLD	60000
TTM_SCR_SLD	111000
TTM_SCR_ALL	553100
TTM_SCR_S	532050
TTM_SCR_SS	548500
TTM_RAT_ACV	10083

