VERSION	0.00.00	1.04.00
FES_MODE	0
BPM_DEF	180.000	180.000	180.000	180.000
MET_DEF	4	4
RESOLUTION	384
CLK_DEF	384
COMPATIBLE_CODE	MA2

BPM	0	0	180.000
MET	0	0	4	4

NMSTR	3	0	0
NMSSL	3	0	0	96	384	4
NMSTR	3	0	6
BRSSR	3	0	6	96	384	2
NMTTP	5	0	2	E	0	M1
NMTTP	5	96	3	B	0	M1
NMTTP	5	192	4	A	0	M1
NMTTP	5	288	6	E	0	M1
NMTTP	6	0	4	B	0	M1
NMTTP	6	96	3	A	0	M1
NMTTP	6	192	3	E	0	M1
NMTTP	6	288	4	E	0	M1
NMSTR	7	0	4
NMSF_	7	0	4	96	96	0
BXTAP	7	288	0
NMHLD	8	0	1	144
NMHLD	8	144	2	144
NMSTR	8	288	3
NMSCL	8	288	3	96	768	4
NMTAP	12	0	2
NMTAP	12	48	2
NMTAP	12	96	3
NMHLD	12	144	4	96
NMTAP	12	240	3
NMTAP	12	288	3
NMHLD	12	336	2	96
NMTAP	13	48	3
NMTAP	13	96	3
NMTHO	13	192	0	384	C	0	M1
NMTAP	15	0	1
NMTAP	15	48	1
NMTAP	15	96	0
NMTAP	15	144	0
NMTAP	15	192	2
BRTAP	15	288	2
BRTAP	15	288	7
NMHLD	16	0	6	144
NMHLD	16	144	5	144
NMSTR	16	288	4
NMSCR	16	288	4	96	768	3
NMTAP	20	0	3
NMTAP	20	0	5
NMTAP	20	96	3
NMTAP	20	96	5
NMTAP	20	192	2
NMTAP	20	192	4
NMTAP	20	288	2
NMTAP	20	288	4
NMTAP	21	0	1
NMTAP	21	48	1
NMTAP	21	96	3
NMTAP	21	144	3
NMTAP	21	192	2
NMTAP	21	240	2
NMTAP	21	288	5
NMTAP	21	336	5
NMTAP	22	0	4
NMTAP	22	48	4
NMTAP	22	96	6
NMTAP	22	144	6
NMTAP	22	192	0
NMTAP	22	240	0
NMSTR	22	288	7
NMSXL	22	288	7	96	288	3
NMSXR	22	288	7	96	288	3
BRTAP	24	0	0
BRTAP	24	0	7
NMHLD	24	96	5	144
NMTAP	24	240	7
NMTAP	24	288	7
NMTAP	24	336	6
NMTAP	25	48	0
NMTAP	25	48	1
NMTAP	25	96	0
NMTAP	25	96	1
NMTAP	25	192	2
NMTAP	25	240	2
NMTAP	25	288	0
NMTAP	26	0	0
NMTAP	26	0	1
NMHLD	26	96	2	144
NMTAP	26	240	0
NMTAP	26	288	0
NMTAP	26	336	1
NMTAP	27	48	6
NMTAP	27	48	7
NMTAP	27	96	6
NMSTR	27	96	7
NMSCR	27	96	7	96	96	2
BRTAP	28	0	2
BRTAP	28	0	3
NMHLD	28	96	2	144
NMTAP	28	240	0
NMTAP	28	288	0
NMTAP	28	336	1
NMTAP	29	48	6
NMTAP	29	48	7
NMTAP	29	96	6
NMTAP	29	96	7
NMTAP	29	192	5
NMTAP	29	240	5
NMTAP	29	288	7
NMTAP	30	0	6
NMTAP	30	0	7
NMTAP	30	96	0
NMHLD	30	96	5	144
NMTAP	30	240	7
NMTAP	30	288	7
NMTAP	30	336	6
NMTAP	31	48	0
NMTAP	31	48	1
NMSTR	31	96	0
NMSUL	31	96	0	96	144	7
NMTAP	31	96	1
BXTAP	32	48	0
BXTAP	32	48	6
NMHLD	32	144	5	96
NMHLD	32	240	7	96
NMHLD	32	336	0	96
NMTAP	33	48	2
NMTAP	33	96	2
NMTAP	33	144	3
NMTAP	33	240	2
NMTAP	33	240	3
NMTAP	33	336	0
NMTAP	33	336	1
NMHLD	34	48	2	96
NMHLD	34	144	0	96
NMHLD	34	240	7	96
NMHLD	34	336	5	96
NMTAP	35	48	4
NMSTR	35	96	4
NMSCL	35	96	4	96	96	1
BRTAP	36	0	0
BRTAP	36	0	1
NMHLD	36	96	2	144
NMTAP	36	240	0
NMTAP	36	288	0
NMTAP	36	336	1
NMTAP	37	48	6
NMTAP	37	48	7
NMTAP	37	96	6
NMTAP	37	96	7
NMTAP	37	192	5
NMTAP	37	240	5
NMTAP	37	288	7
NMTAP	38	0	0
NMTAP	38	48	0
NMTAP	38	96	7
NMTAP	38	144	7
NMTAP	38	192	0
NMTAP	38	216	7
NMTAP	38	240	0
NMTAP	38	264	7
NMTAP	38	288	0
NMTAP	38	312	7
NMTAP	38	336	0
NMTAP	38	360	7
NMSTR	39	0	0
NMSF_	39	0	0	96	96	4
BRTAP	39	288	2
BRTAP	39	288	6
NMHLD	40	0	7	1440
NMTTP	40	288	6	A	0	M1
NMTTP	41	0	6	B	0	M1
NMTTP	41	288	5	A	0	M1
NMTTP	42	0	5	B	0	M1
NMTTP	42	288	4	A	0	M1
NMTTP	43	0	4	B	0	M1
NMTAP	43	288	0
NMHLD	44	0	0	1440
NMTTP	44	288	1	A	0	M1
NMTTP	45	0	1	B	0	M1
NMTTP	45	288	2	A	0	M1
NMTTP	46	0	2	B	0	M1
NMTTP	46	288	3	A	0	M1
NMTTP	47	0	3	B	0	M1
NMTAP	47	288	7
BRTAP	48	0	0
BRTAP	48	0	7
NMTAP	48	144	1
NMTAP	48	240	0
NMTAP	48	336	7
NMTAP	49	144	5
NMTAP	49	240	3
NMHLD	49	336	1	72
NMHLD	50	24	3	72
NMHLD	50	96	2	72
NMHLD	50	168	4	72
NMTAP	50	240	3
NMTAP	50	288	3
NMTAP	50	336	6
NMHLD	51	0	6	72
NMHLD	51	72	4	72
NMHLD	51	144	5	72
NMHLD	51	216	3	72
NMTAP	51	288	4
NMSTR	52	0	2
NMSCL	52	0	2	96	144	7
NMSTR	52	240	6
NMSCL	52	240	6	96	144	3
NMTAP	53	96	1
NMTAP	53	144	1
NMTAP	53	240	2
NMTAP	53	240	3
NMSTR	53	336	3
NMSXR	53	336	3	96	240	3
NMSTR	53	336	4
NMSXL	53	336	4	96	240	4
NMTHO	55	0	0	192	C	0	M1
BRTAP	55	288	0
BRTAP	55	288	7
NMSTR	56	0	1
NMSCL	56	0	1	96	48	6
NMTAP	56	96	5
NMHLD	56	144	5	96
NMTAP	56	240	4
NMTAP	56	336	0
NMTAP	56	336	1
NMTAP	57	48	6
NMTAP	57	48	7
NMTAP	57	144	2
NMTAP	57	144	3
NMTAP	57	240	1
NMTAP	57	240	4
NMTAP	57	336	5
NMSTR	58	0	5
NMSI_	58	0	5	96	48	0
NMTAP	58	96	1
NMSTR	58	144	1
NMSI_	58	144	1	96	48	5
NMSTR	58	240	7
NMSI_	58	240	7	96	48	3
NMTAP	59	96	2
NMTAP	59	144	2
NMTAP	59	240	1
NMTAP	59	240	4
NMTAP	59	288	1
NMTAP	59	288	4
NMSTR	60	0	6
NMSCR	60	0	6	96	48	1
NMTAP	60	96	2
NMHLD	60	144	2	96
NMTAP	60	240	3
NMTAP	60	288	3
NMHLD	61	0	1	72
NMHLD	61	72	0	72
NMTAP	61	144	7
NMTAP	61	192	7
NMTAP	61	288	0
NMTAP	61	288	6
BXTAP	62	0	6
BXTAP	62	0	7
BXTAP	62	72	4
BXTAP	62	72	5
BXTAP	62	144	2
BXTAP	62	144	3
BXTAP	62	216	0
BXTAP	62	216	1
BXTAP	62	288	2
BXTAP	62	288	7
BXTAP	63	0	4
BXTAP	63	0	5
BXTAP	63	72	2
BXTAP	63	72	3
BXTAP	63	144	0
BXTAP	63	144	7
BXTAP	63	192	0
BXTAP	63	192	7
BXTAP	63	288	1
BXTAP	63	288	6
NMSTR	64	0	5
NMSCL	64	0	5	96	48	2
NMTAP	64	96	1
NMHLD	64	144	1	96
NMTAP	64	240	0
NMTAP	64	336	4
NMTAP	64	336	5
NMTAP	65	48	6
NMTAP	65	48	7
NMTAP	65	144	2
NMTAP	65	144	3
NMTAP	65	240	1
NMTAP	65	240	4
NMHLD	65	336	5	72
NMHLD	66	24	7	72
NMHLD	66	96	0	72
NMHLD	66	168	2	72
NMTAP	66	240	7
NMTAP	66	288	7
NMTAP	66	336	2
NMHLD	67	0	2	72
NMHLD	67	72	0	72
NMHLD	67	144	7	72
NMHLD	67	216	5	72
NMTAP	67	288	0
NMTAP	67	336	0
NMSTR	68	0	7
NMSLL	68	0	7	96	144	3
NMTAP	68	48	7
NMSTR	68	240	0
NMSLR	68	240	0	96	192	4
NMTAP	68	288	0
NMHLD	69	144	7	96
NMHLD	69	240	5	96
NMSTR	69	336	3
NMSCL	69	336	3	96	240	4
NMHLD	71	0	3	192
NMHLD	71	0	4	192
NMTAP	71	288	3
NMTAP	71	288	4
BRTAP	72	0	2
BRHLD	72	0	5	384
NMTTP	72	192	4	B	0	M1
NMHLD	73	0	2	384
NMTTP	73	192	3	B	0	M1
NMHLD	74	0	6	384
NMTTP	74	192	5	E	0	M1
NMHLD	75	0	1	384
NMTTP	75	192	3	E	0	M1
NMHLD	76	0	5	384
NMTTP	76	192	0	E	0	M1
NMHLD	77	0	2	192
NMTAP	77	192	7
NMTAP	77	288	2
NMTAP	77	288	7
BRTAP	78	0	0
BRTAP	78	0	1
BRTAP	78	72	2
BRTAP	78	72	3
BRTAP	78	144	4
BRTAP	78	144	5
BRTAP	78	216	6
BRTAP	78	216	7
BRTAP	78	288	0
BRTAP	78	288	5
BRTAP	79	0	2
BRTAP	79	0	3
BRTAP	79	72	4
BRTAP	79	72	5
BRTAP	79	144	0
BRTAP	79	144	7
BRTAP	79	192	0
BRTAP	79	192	7
BRTAP	79	288	1
BRTAP	79	288	6
NMSTR	80	0	2
NMSCR	80	0	2	96	48	5
NMTAP	80	96	6
NMHLD	80	144	6	96
NMTAP	80	240	7
NMTAP	80	336	2
NMTAP	80	336	3
NMTAP	81	48	0
NMTAP	81	48	1
NMTAP	81	144	4
NMTAP	81	144	5
NMTAP	81	240	3
NMTAP	81	240	6
NMTAP	81	336	7
NMHLD	82	0	7	72
NMHLD	82	72	5	72
NMHLD	82	144	3	72
NMHLD	82	216	1	72
NMTAP	82	288	7
NMTAP	82	336	7
NMHLD	83	0	0	72
NMHLD	83	72	2	72
NMHLD	83	144	4	72
NMHLD	83	216	6	72
NMTAP	83	288	0
NMTAP	83	336	0
NMSTR	84	0	7
NMSI_	84	0	7	96	48	3
NMSTR	84	96	2
NMSI_	84	96	2	96	48	6
NMSTR	84	192	4
NMSI_	84	192	4	96	48	0
NMTAP	84	288	1
NMTAP	85	0	1
NMTAP	85	0	7
NMTAP	85	72	4
NMTAP	85	72	6
NMTAP	85	144	2
NMTAP	85	144	3
NMTAP	85	192	2
NMTAP	85	192	3
NMTAP	85	240	1
NMTAP	85	240	4
BRHLD	85	336	0	768
BRSTR	85	336	6
NMSSL	85	336	6	96	336	2
CNSCL	87	0	2	0	576	3
NMTHO	88	192	0	192	C	0	M1

T_REC_TAP	189
T_REC_BRK	35
T_REC_XTP	0
T_REC_BXX	23
T_REC_HLD	59
T_REC_XHO	0
T_REC_BHO	2
T_REC_BXH	0
T_REC_STR	27
T_REC_BST	1
T_REC_XST	0
T_REC_XBS	0
T_REC_TTP	25
T_REC_THO	3
T_REC_SLD	28
T_REC_BSL	1
T_REC_ALL	393
T_NUM_TAP	241
T_NUM_BRK	62
T_NUM_HLD	62
T_NUM_SLD	28
T_NUM_ALL	393
T_JUDGE_TAP	300
T_JUDGE_HLD	253
T_JUDGE_SLD	29
T_JUDGE_ALL	582
TTM_EACHPAIRS	75
TTM_SCR_TAP	120500
TTM_SCR_BRK	161200
TTM_SCR_HLD	62000
TTM_SCR_SLD	42000
TTM_SCR_ALL	385700
TTM_SCR_S	368150
TTM_SCR_SS	379500
TTM_RAT_ACV	10163

