VERSION	0.00.00	1.04.00
FES_MODE	0
BPM_DEF	143.000	143.000	143.000	143.000
MET_DEF	4	4
RESOLUTION	384
CLK_DEF	384
COMPATIBLE_CODE	MA2

BPM	0	0	143.000
MET	0	0	4	4

BRTAP	2	0	3
BRHLD	2	0	7	144
NMTAP	2	144	4
NMTAP	2	160	5
NMTAP	2	176	4
NMTAP	2	192	6
NMTAP	2	336	2
NMTAP	2	336	3
NMHLD	3	0	0	144
NMTAP	3	0	4
NMTAP	3	144	3
NMTAP	3	160	2
NMTAP	3	176	3
NMHLD	3	192	1	72
NMHLD	3	264	3	72
NMTAP	3	336	4
NMTAP	4	0	2
NMTAP	4	0	6
NMTAP	4	96	4
NMTAP	4	96	5
NMTAP	4	144	3
NMTAP	4	144	4
NMTAP	4	192	1
NMTAP	4	216	3
NMTAP	4	240	2
NMTAP	4	264	4
NMTAP	4	288	3
NMTAP	4	312	5
NMTAP	4	336	4
NMTAP	4	360	6
NMTAP	5	0	0
NMTAP	5	16	7
NMTAP	5	32	0
NMTAP	5	48	7
NMTAP	5	64	0
NMTAP	5	80	7
NMTAP	5	96	0
NMTAP	5	112	7
NMTAP	5	128	0
NMTAP	5	144	7
NMTAP	5	160	0
NMTAP	5	176	7
EXTAP	5	192	1
EXTAP	5	192	6
NMTTP	5	240	5	D	0	M1
NMTTP	5	256	4	D	0	M1
NMTTP	5	272	3	D	0	M1
NMTTP	5	288	2	D	0	M1
NMTTP	5	304	1	D	0	M1
NMTTP	5	320	0	D	0	M1
NMTTP	5	336	7	D	0	M1
NMTTP	5	352	6	D	0	M1
NMTTP	5	368	5	D	0	M1
EXTAP	6	0	1
NMTTP	6	0	4	D	0	M1
EXTAP	6	96	1
EXTAP	6	192	1
NMTAP	6	216	3
NMTAP	6	240	2
NMTAP	6	264	3
EXTAP	6	288	1
NMTAP	6	312	4
NMTAP	6	336	3
NMTAP	6	360	4
EXTAP	7	0	2
NMTAP	7	24	5
NMTAP	7	48	4
NMTAP	7	72	5
EXTAP	7	96	3
NMTAP	7	120	6
NMTAP	7	144	4
NMTAP	7	168	5
EXTAP	7	192	2
NMTAP	7	216	4
NMTAP	7	240	3
NMTAP	7	264	4
EXTAP	7	288	1
NMTAP	7	312	3
NMTAP	7	336	2
NMTAP	7	360	3
EXTAP	8	0	0
NMTAP	8	16	1
NMTAP	8	32	2
EXTAP	8	48	5
NMTAP	8	72	5
EXTAP	8	96	1
NMTAP	8	112	2
NMTAP	8	128	3
EXTAP	8	144	6
NMTAP	8	168	6
EXTAP	8	192	2
NMTAP	8	208	3
NMTAP	8	224	4
EXTAP	8	240	7
NMTAP	8	256	6
NMTAP	8	272	5
EXTAP	8	288	1
NMTAP	8	300	2
NMTAP	8	312	3
NMTAP	8	324	4
NMTAP	8	336	5
NMTAP	8	348	6
NMTAP	8	360	7
NMTAP	8	372	0
BRTAP	9	0	1
BRTAP	9	0	5
NMSTR	9	192	3
NMSCL	9	192	3	96	32	0
NMSTR	9	192	7
NMSCL	9	192	7	96	32	4
NMSTR	9	288	3
BRSI_	9	288	3	96	32	7
NMTAP	9	288	7
NMTTP	10	0	0	C	1	M1
NMTAP	10	144	0
NMTAP	10	144	6
NMHLD	10	240	5	72
NMHLD	10	312	4	72
NMTAP	11	0	3
NMTAP	11	144	1
NMTAP	11	144	5
NMHLD	11	240	2	72
NMHLD	11	312	3	72
NMTAP	12	0	4
NMTAP	12	96	5
NMTAP	12	128	5
NMTAP	12	144	4
NMTAP	12	176	6
NMHLD	12	240	6	72
NMHLD	12	312	4	72
NMTAP	13	0	5
NMTAP	13	48	3
NMTAP	13	96	2
NMTAP	13	128	2
NMTAP	13	144	3
NMTAP	13	176	1
NMTAP	13	224	0
NMTAP	13	224	1
NMSTR	13	288	3
NMSI_	13	288	3	96	32	7
NMSTR	13	288	6
NMSI_	13	288	6	96	32	4
EXTAP	14	0	3
EXTAP	14	0	6
NMTAP	14	96	1
NMTAP	14	128	1
NMTAP	14	144	0
NMTAP	14	176	2
NMHLD	14	240	1	72
NMHLD	14	312	3	72
NMTAP	15	0	2
NMTAP	15	48	4
NMTAP	15	96	6
NMTAP	15	128	6
NMTAP	15	144	7
NMTAP	15	176	5
NMTAP	15	240	6
NMTAP	15	240	7
NMTAP	15	288	0
NMTAP	15	288	7
NMTAP	15	336	0
NMSTR	15	336	1
NMSUR	15	336	1	96	32	5
NMTAP	16	48	1
NMSTR	16	48	6
NMSCL	16	48	6	96	32	3
NMTAP	16	144	6
NMTAP	16	144	7
NMTAP	16	240	0
NMTAP	16	240	1
NMTAP	16	288	0
NMTAP	16	288	7
NMSTR	16	336	6
NMSUL	16	336	6	96	32	2
NMTAP	16	336	7
NMSTR	17	48	1
NMSCR	17	48	1	96	32	4
NMTAP	17	48	6
NMTAP	17	144	0
NMTAP	17	144	1
NMTAP	17	240	4
NMTAP	17	240	5
NMTAP	17	288	3
EXTAP	17	288	7
EXTAP	17	304	6
EXTAP	17	320	5
NMTAP	17	336	0
EXTAP	17	336	4
BRTAP	18	0	2
BRTAP	18	0	6
NMHLD	18	96	1	48
NMTAP	18	96	3
NMTAP	18	144	5
NMHLD	18	192	2	48
NMTAP	18	192	3
NMTAP	18	240	6
NMHLD	18	288	1	48
NMTAP	18	288	3
NMTAP	18	336	7
NMTAP	19	0	2
NMHLD	19	0	3	48
NMTAP	19	48	0
NMTAP	19	96	5
NMTAP	19	128	5
NMTAP	19	144	4
NMTAP	19	176	6
NMTAP	19	240	0
NMHLD	19	240	1	80
NMTAP	19	320	3
NMTAP	19	336	2
NMTAP	20	0	1
NMTAP	20	0	5
NMTAP	20	96	0
NMHLD	20	96	7	48
NMTAP	20	144	2
NMHLD	20	192	0	48
NMTAP	20	192	7
NMTAP	20	240	5
NMTAP	20	288	1
NMHLD	20	288	7	48
NMTAP	20	336	3
NMHLD	21	0	0	48
NMTAP	21	0	6
NMTAP	21	48	2
NMTAP	21	96	1
NMHLD	21	96	7	48
NMTAP	21	144	5
NMSTR	21	192	0
NMSV_	21	192	0	96	48	3
NMSTR	21	192	6
NMSV_	21	192	6	96	48	3
NMTAP	21	216	1
NMTAP	21	216	5
EXTAP	21	288	0
EXTAP	21	288	6
BRTAP	22	0	1
BRTAP	22	0	5
NMTAP	22	96	4
NMHLD	22	96	6	48
NMTAP	22	144	2
NMTAP	22	192	4
NMHLD	22	192	5	48
NMTAP	22	240	1
NMTAP	22	288	4
NMHLD	22	288	6	48
NMTAP	22	336	0
NMHLD	23	0	4	48
NMTAP	23	0	5
NMTAP	23	48	7
NMTAP	23	96	2
NMTAP	23	128	2
NMTAP	23	144	3
NMTAP	23	176	1
NMSTR	23	240	6
NMSCL	23	240	6	96	32	3
NMTAP	23	240	7
NMTAP	23	288	0
NMSTR	23	336	1
NMSCL	23	336	1	96	32	6
NMTAP	23	336	6
NMTAP	24	48	1
NMSTR	24	48	4
NMSCL	24	48	4	96	32	1
NMTAP	24	144	4
NMTAP	24	144	5
NMTAP	24	240	0
NMSTR	24	240	6
NMSI_	24	240	6	96	32	3
NMTAP	24	288	1
NMSTR	24	336	2
NMSI_	24	336	2	96	32	7
NMTAP	24	336	6
NMTAP	25	48	2
NMSTR	25	48	4
NMSCR	25	48	4	96	96	2
NMTAP	25	144	3
EXTAP	25	192	3
NMSTR	25	288	7
NMSF_	25	288	7	96	32	3
NMTAP	25	336	1
NMTAP	25	336	5
BRTAP	26	0	7
NMTAP	26	96	2
NMTAP	26	96	4
NMTAP	26	144	1
NMTAP	26	192	2
NMTAP	26	192	3
NMTAP	26	288	3
NMTAP	26	288	5
EXTAP	26	336	6
EXTAP	27	0	4
EXTAP	27	0	5
NMTAP	27	48	2
NMTAP	27	80	3
NMSTR	27	96	1
NMSUR	27	96	1	96	96	3
NMTAP	27	144	7
NMTAP	27	192	5
NMTAP	27	288	6
NMTAP	27	336	4
NMTAP	28	0	3
NMTAP	28	0	5
NMTAP	28	48	1
NMTAP	28	80	3
NMTAP	28	96	2
NMSTR	28	144	4
NMSI_	28	144	4	96	32	0
NMTAP	28	144	5
NMTAP	28	192	3
NMTAP	28	240	6
NMTAP	28	272	6
NMTAP	28	336	7
NMTAP	28	368	7
NMSTR	29	0	1
NMSI_	29	0	1	96	24	3
NMTAP	29	48	0
NMSTR	29	96	6
NMSLL	29	96	6	96	64	0
NMTAP	29	144	7
NMTAP	29	192	2
NMTAP	29	288	1
NMTAP	29	288	7
NMTAP	29	336	5
NMTAP	29	368	4
NMTAP	30	0	5
NMSTR	30	48	2
NMSI_	30	48	2	96	24	4
NMSTR	30	96	6
NMSI_	30	96	6	96	32	2
NMTAP	30	144	2
NMTAP	30	192	6
NMTTP	30	240	1	E	0	M1
NMTTP	30	240	1	D	0	M1
NMTTP	30	288	5	E	0	M1
NMTTP	30	288	5	D	0	M1
NMTAP	30	336	2
NMTAP	30	368	3
NMTAP	31	0	2
NMSTR	31	48	5
NMSI_	31	48	5	96	24	3
NMSTR	31	96	1
NMSI_	31	96	1	96	32	5
NMTAP	31	144	5
NMTAP	31	192	1
NMTTP	31	240	7	E	0	M1
NMTTP	31	240	7	D	0	M1
NMTTP	31	288	3	E	0	M1
NMTTP	31	288	3	D	0	M1
NMTTP	31	336	5	E	0	M1
NMTTP	31	336	5	D	0	M1
NMTAP	32	0	0
NMTAP	32	0	1
NMTAP	32	48	2
NMTAP	32	80	3
NMTAP	32	96	1
NMTAP	32	144	5
NMTAP	32	176	4
NMTAP	32	192	6
NMTAP	32	240	3
NMTAP	32	272	3
NMTAP	32	288	4
NMTAP	32	336	2
NMTAP	32	336	5
NMSTR	33	0	0
NMSI_	33	0	0	96	32	4
NMTAP	33	0	7
NMTAP	33	48	1
NMTAP	33	96	0
NMSTR	33	96	7
NMSI_	33	96	7	96	32	3
NMTAP	33	144	6
NMTAP	33	192	0
NMTAP	33	192	7
EXTAP	33	288	0
NMTAP	33	288	4
EXTAP	33	304	1
EXTAP	33	320	2
EXTAP	33	336	3
NMTAP	33	336	7
BRTAP	34	0	1
BRTAP	34	0	5
NMTAP	34	48	6
NMTAP	34	72	4
NMTAP	34	128	4
NMTAP	34	144	5
NMTAP	34	192	2
NMTAP	34	192	6
NMTAP	34	240	1
NMTAP	34	264	3
NMTAP	34	320	3
NMTAP	34	336	2
NMSTR	35	0	0
NMSCR	35	0	0	96	32	3
NMTAP	35	0	6
NMSTR	35	48	3
NMSI_	35	48	3	96	32	7
NMSTR	35	96	7
NMSCL	35	96	7	96	32	4
EXTAP	35	144	4
EXHLD	35	192	0	96
NMTAP	35	288	4
NMTAP	35	336	2
NMTAP	35	336	6
EXTAP	36	0	0
EXTAP	36	0	4
NMTAP	36	48	1
NMTAP	36	72	4
NMTAP	36	128	4
NMTAP	36	144	3
NMTAP	36	192	3
NMTAP	36	216	6
NMHLD	36	264	3	56
NMHLD	36	264	7	56
NMTAP	36	336	1
NMTAP	36	336	5
NMTAP	37	0	4
NMTAP	37	0	6
NMTAP	37	48	0
NMTAP	37	96	1
NMTAP	37	96	3
NMSTR	37	144	7
NMSI_	37	144	7	96	24	1
BRTAP	37	192	2
CNSV_	37	264	1	0	48	2
CNSI_	37	312	2	0	24	4
NMTAP	38	0	1
NMTAP	38	0	5
NMTAP	38	48	4
NMTAP	38	80	3
NMTAP	38	96	6
NMTAP	38	128	4
NMTAP	38	144	5
NMTAP	38	192	2
NMTAP	38	192	6
NMTAP	38	240	3
NMTAP	38	272	4
NMSTR	38	288	1
BRSI_	38	288	1	96	32	5
NMTAP	38	320	3
NMTAP	38	336	2
NMSTR	39	0	1
BRSI_	39	0	1	96	32	6
NMSTR	39	192	1
BRSI_	39	192	1	96	32	6
NMTAP	39	224	1
NMTAP	39	240	1
NMTAP	39	272	1
NMTAP	40	0	5
NMTAP	40	32	5
NMTAP	40	48	6
NMTAP	40	80	6
NMTAP	40	96	7
NMTAP	40	128	7
NMTAP	40	144	0
NMTAP	40	168	0
NMTAP	40	192	1
NMTAP	40	224	1
NMTAP	40	240	2
NMTAP	40	272	2
EXTAP	40	288	3
EXTAP	40	288	4
NMTTP	41	144	5	A	0	M1
NMTTP	41	156	5	E	0	M1
NMTTP	41	168	4	E	0	M1
NMTTP	41	180	3	E	0	M1
NMTTP	41	192	2	A	0	M1
NMTAP	41	288	2
NMTAP	41	312	4
NMTAP	41	336	3
NMTAP	41	360	5
NMTAP	42	0	4
NMSTR	42	72	3
NMSCR	42	72	3	96	120	5
NMTAP	42	144	2
NMTAP	42	336	2
NMTAP	42	360	3
NMTAP	43	0	1
NMTAP	43	192	1
NMTAP	43	224	1
NMTAP	43	256	3
NMTAP	43	288	2
NMTAP	43	320	2
NMTAP	43	352	4
NMTAP	44	0	3
NMSTR	44	72	4
NMSCL	44	72	4	96	120	2
NMTAP	44	144	5
NMHLD	44	336	5	12
NMHLD	44	360	4	12
NMTAP	45	0	6
NMTAP	45	192	3
NMTAP	45	192	4
NMTAP	45	240	2
NMTAP	45	288	5
NMTAP	45	320	5
NMTAP	45	336	3
NMTAP	45	368	3
NMTAP	46	0	4
NMTAP	46	48	2
NMTAP	46	80	2
NMTAP	46	96	3
NMTAP	46	144	1
NMTAP	46	144	4
NMSTR	46	192	0
NMSCR	46	192	0	96	32	3
NMTAP	46	288	6
NMTAP	46	336	5
NMTAP	46	368	5
NMTAP	47	0	4
NMTAP	47	48	1
NMTAP	47	80	1
NMTAP	47	96	0
NMTAP	47	144	2
NMTAP	47	144	7
NMSTR	47	192	3
NMSI_	47	192	3	96	32	7
NMTAP	47	192	6
NMTAP	47	240	4
NMTAP	47	240	5
NMTAP	47	288	2
NMTAP	48	0	3
NMTAP	48	48	5
NMTAP	48	80	5
NMTAP	48	96	4
NMTAP	48	144	3
NMTAP	48	144	6
BRSTR	48	192	7
NMSCL	48	192	7	96	32	4
NMTAP	48	288	1
NMTAP	48	336	2
NMTAP	49	0	3
NMTAP	49	32	3
NMTAP	49	48	4
NMTAP	49	80	4
NMHLD	49	128	2	16
NMHLD	49	128	5	16
NMTAP	49	192	1
NMTAP	49	192	3
NMTAP	49	240	2
NMTAP	49	288	3
NMTAP	49	288	4
NMTAP	49	336	5
NMTAP	50	0	4
NMTAP	50	0	6
NMSTR	50	48	1
NMSI_	50	48	1	96	24	7
NMSTR	50	96	5
NMSI_	50	96	5	96	24	3
NMSTR	50	144	1
NMSI_	50	144	1	96	32	5
NMTAP	50	192	5
NMTAP	50	240	1
NMTAP	50	336	0
NMTAP	50	336	6
NMSTR	51	48	7
NMSI_	51	48	7	96	32	3
NMSTR	51	96	2
NMSCL	51	96	2	96	96	4
NMTAP	51	144	7
NMTAP	51	192	2
NMTAP	51	264	3
NMTAP	51	336	0
NMTAP	51	336	6
NMTAP	52	48	1
NMTAP	52	48	3
NMTAP	52	96	2
NMTAP	52	144	3
NMTAP	52	192	4
NMTAP	52	192	6
NMTAP	52	240	4
NMTAP	52	264	5
NMTAP	52	336	3
NMTAP	52	336	4
NMSTR	53	0	1
NMSI_	53	0	1	96	32	4
NMTAP	53	48	0
NMSTR	53	96	6
NMSI_	53	96	6	96	32	3
NMTAP	53	144	7
NMTAP	53	192	2
NMTTP	53	240	0	B	0	M1
NMTTP	53	240	0	E	0	M1
NMTTP	53	240	0	A	1	M1
NMTTP	53	240	0	D	0	M1
NMTTP	53	240	1	E	0	M1
NMTTP	53	240	1	D	0	M1
NMTAP	54	0	3
NMTAP	54	0	4
NMTAP	54	48	5
NMTAP	54	96	5
NMTAP	54	144	5
NMTAP	54	192	1
NMTAP	54	192	7
NMTAP	54	224	2
NMTAP	54	256	3
NMSTR	54	288	4
NMSI_	54	288	4	96	32	0
NMTAP	54	288	5
NMTAP	54	320	6
NMTAP	54	352	7
NMTAP	55	48	2
NMTAP	55	96	2
NMTAP	55	144	2
NMTAP	55	192	0
NMTAP	55	192	6
NMTAP	55	224	5
NMTAP	55	256	4
NMTAP	55	288	2
NMSTR	55	288	3
NMSI_	55	288	3	96	32	7
NMTAP	55	320	1
NMTAP	55	352	0
NMTAP	56	48	2
NMTAP	56	96	2
NMTAP	56	112	3
NMTAP	56	128	4
NMTAP	56	144	7
NMTAP	56	160	6
NMTAP	56	176	5
NMTAP	56	192	1
NMTAP	56	208	2
NMTAP	56	224	3
NMTAP	56	240	6
NMTAP	56	256	5
NMTAP	56	272	4
NMTAP	56	288	0
NMTAP	56	304	1
NMTAP	56	320	2
NMTAP	56	336	5
NMTAP	56	352	4
NMTAP	56	368	3
NMHLD	57	0	1	16
NMHLD	57	0	2	16
NMHLD	57	96	5	16
NMHLD	57	96	6	16
NMSTR	57	192	0
NMSCR	57	192	0	96	32	3
NMSTR	57	192	7
NMSCL	57	192	7	96	32	4
BRTAP	58	0	1
BRTAP	58	0	6
NMTAP	58	48	0
NMTAP	58	72	7
NMTAP	58	96	0
NMTAP	58	120	7
NMTAP	58	144	0
NMTAP	58	168	7
NMTAP	58	192	0
NMTAP	58	216	7
NMTAP	58	240	0
NMTAP	58	288	0
NMTAP	58	312	7
NMTAP	58	360	7
NMTAP	59	0	0
NMTAP	59	24	7
NMTAP	59	48	0
NMTAP	59	96	0
NMTAP	59	120	7
NMTAP	59	144	0
NMTAP	59	168	7
NMTAP	59	192	1
NMTAP	59	224	3
NMTAP	59	240	2
NMTAP	59	288	6
NMTAP	59	320	4
NMTAP	59	336	5
BRTAP	60	0	1
BRTAP	60	0	6
NMTAP	60	48	0
NMTAP	60	72	7
NMTAP	60	96	0
NMTAP	60	120	7
NMTAP	60	144	0
NMTAP	60	160	7
NMTAP	60	176	0
NMTAP	60	192	7
NMTAP	60	216	0
NMTAP	60	240	7
NMTAP	60	288	7
NMTAP	60	312	0
NMTAP	60	360	0
EXHLD	61	0	7	16
EXHLD	61	48	7	16
EXHLD	61	96	7	16
NMTAP	61	144	7
NMTAP	61	168	0
NMTTP	61	192	6	B	0	M1
NMTTP	61	192	6	E	0	M1
NMTTP	61	240	2	B	0	M1
NMTTP	61	240	2	E	0	M1
NMTAP	61	288	4
NMTAP	61	336	4
NMTAP	61	368	3
BRTAP	62	0	5
NMTAP	62	48	0
NMTAP	62	72	7
NMTAP	62	96	0
NMTAP	62	120	7
NMTAP	62	144	0
NMTAP	62	168	7
NMTAP	62	192	0
NMTAP	62	240	0
NMTAP	62	288	0
NMTAP	62	312	7
NMTAP	62	360	7
NMTAP	63	0	0
NMTAP	63	24	7
NMTAP	63	48	0
NMTAP	63	96	0
NMTAP	63	120	7
NMTAP	63	144	0
NMTAP	63	168	7
EXTAP	63	192	1
EXTAP	63	208	2
EXTAP	63	224	3
NMSTR	63	240	4
NMSI_	63	240	4	96	32	0
NMSTR	63	240	6
NMSI_	63	240	6	96	32	3
NMTAP	63	288	7
NMSTR	64	48	1
NMSI_	64	48	1	96	32	4
NMSTR	64	48	3
NMSI_	64	48	3	96	32	7
NMTAP	64	96	0
NMTAP	64	240	4
NMSTR	64	240	6
NMSI_	64	240	6	96	32	2
NMTAP	64	288	1
NMTAP	64	288	3
EXHLD	65	0	0	24
BXTAP	65	48	1
BXTAP	65	48	7
NMTAP	65	144	4
NMTAP	65	144	5
NMSTR	65	192	0
NMSCR	65	192	0	96	32	3
NMSTR	65	240	7
NMSCL	65	240	7	96	32	4
EXTAP	65	288	0
EXTAP	65	336	7
BRTAP	66	0	2
NMTAP	66	32	3
NMTAP	66	80	3
BRTAP	66	96	2
NMTAP	66	144	1
NMTAP	66	176	3
BRTAP	66	192	2
NMTAP	66	216	3
NMTAP	66	240	1
NMTAP	66	264	3
BRTAP	66	288	2
NMTAP	66	312	3
NMTAP	66	360	3
BRTAP	67	0	2
NMTAP	67	16	3
NMTAP	67	48	1
NMTAP	67	72	3
BRTAP	67	96	2
NMTAP	67	112	3
NMTAP	67	144	1
EXTAP	67	192	2
BRTAP	67	192	3
NMHLD	67	224	0	16
NMHLD	67	224	6	16
BRTAP	67	288	4
EXTAP	67	288	5
NMHLD	67	320	1	16
NMHLD	67	320	7	16
BRTAP	68	0	5
NMTAP	68	24	4
NMTAP	68	80	4
BRTAP	68	96	5
NMTAP	68	144	6
NMTAP	68	168	4
BRTAP	68	192	5
NMTAP	68	240	6
BRTAP	68	288	5
NMTAP	68	312	4
NMTAP	68	336	6
NMTAP	68	352	4
NMTAP	69	0	4
BRTAP	69	0	5
NMTAP	69	48	3
NMTAP	69	48	4
BRTAP	69	96	2
NMTAP	69	96	3
NMTAP	69	144	3
NMTAP	69	168	1
NMTTP	69	192	6	B	0	M1
NMTTP	69	192	6	E	0	M1
NMTTP	69	240	2	B	0	M1
NMTTP	69	240	2	E	0	M1
BRTAP	69	288	0
BRTAP	69	288	7
BRTAP	70	0	0
NMTAP	70	24	7
NMTAP	70	80	7
BRTAP	70	96	0
NMTAP	70	144	0
NMTAP	70	168	7
BRTAP	70	192	0
NMTAP	70	224	7
NMTAP	70	240	0
NMTAP	70	264	7
BRTAP	70	288	0
NMTAP	70	320	7
NMTAP	70	336	0
NMTAP	70	360	7
BRTAP	71	0	0
NMTAP	71	48	6
NMTAP	71	48	7
BRTAP	71	96	0
NMTAP	71	96	1
NMTAP	71	144	7
NMTAP	71	156	0
NMTAP	71	168	7
BRTAP	71	192	1
BRTAP	71	192	6
NMSTR	71	240	3
NMSI_	71	240	3	96	32	0
NMSTR	71	240	4
NMSI_	71	240	4	96	32	7
BRTAP	71	288	2
BRTAP	71	288	5
EXTAP	71	336	3
EXTAP	71	336	4
NMTAP	72	48	1
NMTAP	72	48	6
NMTAP	72	96	0
NMTAP	72	112	7
NMTAP	72	128	0
NMTAP	72	144	6
NMTAP	72	160	1
NMTAP	72	176	6
NMTAP	72	192	2
NMTAP	72	208	5
NMTAP	72	224	2
NMTAP	72	240	4
NMTAP	72	256	3
NMTAP	72	272	4
EXTAP	72	288	3
EXTAP	72	288	4
BRTAP	72	336	1
BRTAP	72	336	6
NMTAP	73	48	1
NMTAP	73	60	2
NMTAP	73	72	3
NMTAP	73	84	4
NMTAP	73	96	7
NMTAP	73	108	6
NMTAP	73	120	5
NMTAP	73	132	4
NMTAP	73	144	0
NMTAP	73	156	1
NMTAP	73	168	2
NMTAP	73	180	3
EXTAP	73	192	4
EXTAP	73	192	5
EXTAP	73	240	3
EXTAP	73	240	7
NMSTR	73	288	1
NMSI_	73	288	1	96	32	5
NMTAP	73	304	5
NMTAP	73	320	3
NMTAP	73	336	7
BXTAP	74	0	1
NMTAP	74	96	4
NMSTR	74	96	6
NMSI_	74	96	6	96	32	3
NMTAP	74	144	7
NMSTR	74	192	0
NMSI_	74	192	0	96	32	5
NMTAP	74	192	6
NMTAP	74	240	1
NMTAP	74	288	0
NMSTR	74	288	2
NMSI_	74	288	2	96	32	7
NMTAP	74	336	3
NMTAP	75	0	2
NMTAP	75	0	4
NMTAP	75	48	5
NMTAP	75	96	6
NMTAP	75	128	6
NMTAP	75	144	7
NMTAP	75	176	0
NMTAP	75	176	5
NMTAP	75	240	0
NMHLD	75	240	1	48
NMSTR	75	288	3
NMSI_	75	288	3	96	32	7
NMTAP	75	320	2
NMTAP	75	336	3
NMTAP	76	0	0
NMSTR	76	96	0
NMSCR	76	96	0	96	32	3
NMTAP	76	96	4
NMTAP	76	144	3
NMSTR	76	192	0
NMSCL	76	192	0	96	32	5
NMTAP	76	192	4
NMTAP	76	240	6
NMSTR	76	288	0
NMSCR	76	288	0	96	32	3
NMTAP	76	288	4
NMTAP	76	336	3
NMSTR	77	0	0
NMSCL	77	0	0	96	32	5
NMTAP	77	0	4
NMTAP	77	48	6
NMTAP	77	96	0
NMTAP	77	96	4
NMTAP	77	144	2
NMSTR	77	192	0
NMSI_	77	192	0	96	32	4
NMSTR	77	192	6
NMSCL	77	192	6	96	32	3
NMTAP	77	216	1
NMTAP	77	216	5
EXTAP	77	288	0
EXTAP	77	288	6
BRTAP	78	0	1
BRTAP	78	0	7
NMSTR	78	96	1
NMSI_	78	96	1	96	32	4
NMTAP	78	96	3
NMTAP	78	144	0
NMTAP	78	192	1
NMSTR	78	192	7
NMSI_	78	192	7	96	32	2
NMTAP	78	240	6
NMSTR	78	288	5
NMSI_	78	288	5	96	32	0
NMTAP	78	288	7
NMTAP	78	336	4
NMTAP	79	0	3
NMTAP	79	0	5
NMTAP	79	48	2
NMTAP	79	96	1
NMTAP	79	128	1
NMTAP	79	144	0
NMTAP	79	176	2
NMTAP	79	176	7
NMSTR	79	240	6
NMSCL	79	240	6	96	32	3
NMTAP	79	240	7
NMTAP	79	288	0
NMSTR	79	336	1
NMSCL	79	336	1	96	32	6
NMTAP	79	336	6
NMTAP	80	48	1
NMSTR	80	48	4
NMSI_	80	48	4	96	32	0
NMTAP	80	144	4
NMTAP	80	144	5
NMSTR	80	240	1
NMSCR	80	240	1	96	32	4
NMTAP	80	240	7
NMTAP	80	288	6
NMTAP	80	336	1
NMSTR	80	336	5
NMSCR	80	336	5	96	32	0
NMSTR	81	48	3
NMSF_	81	48	3	96	32	7
NMTAP	81	48	5
NMTAP	81	144	3
EXTAP	81	240	1
EXTAP	81	240	5
NMSTR	81	288	2
NMSI_	81	288	2	96	32	7
NMSTR	81	288	6
NMSI_	81	288	6	96	32	3
NMTAP	81	336	3
NMTAP	81	336	7
BRTAP	82	0	2
BRTAP	82	0	6
NMSTR	82	96	1
NMSI_	82	96	1	96	32	4
NMTAP	82	96	3
NMTAP	82	144	0
NMTAP	82	192	1
NMSTR	82	192	7
NMSI_	82	192	7	96	32	2
NMTAP	82	240	6
NMSTR	82	288	5
NMSI_	82	288	5	96	32	0
NMTAP	82	288	7
NMTAP	82	336	4
NMTAP	83	0	3
NMTAP	83	0	5
NMTAP	83	48	2
NMTAP	83	96	1
NMTAP	83	128	1
NMTAP	83	144	0
NMTAP	83	176	2
NMTAP	83	176	7
NMHLD	83	240	6	48
NMTAP	83	240	7
NMSTR	83	288	4
NMSI_	83	288	4	96	32	0
NMTAP	83	320	5
NMTAP	83	336	4
NMTAP	84	0	7
NMTAP	84	96	3
NMSTR	84	96	7
NMSCL	84	96	7	96	32	4
NMTAP	84	144	4
NMTAP	84	192	3
NMSTR	84	192	7
NMSCR	84	192	7	96	32	2
NMTAP	84	240	1
NMTAP	84	288	3
NMSTR	84	288	7
NMSCL	84	288	7	96	32	4
NMTAP	84	336	4
NMTAP	85	0	3
NMSTR	85	0	7
NMSCR	85	0	7	96	32	2
NMTAP	85	48	1
NMTAP	85	96	3
NMTAP	85	96	7
NMTAP	85	144	5
NMTAP	85	192	1
NMTAP	85	192	7
NMTAP	85	216	2
NMTAP	85	216	6
NMSTR	85	288	1
NMSI_	85	288	1	96	32	6
NMSTR	85	288	5
NMSI_	85	288	5	96	32	2
NMTAP	85	336	2
NMTAP	85	336	6
BRTAP	86	0	1
BRTAP	86	0	5
NMTAP	86	96	1
NMTAP	86	128	1
NMTAP	86	144	0
NMTAP	86	176	2
NMHLD	86	240	1	72
NMHLD	86	312	3	72
NMTAP	87	0	2
NMTAP	87	48	4
NMTAP	87	96	6
NMTAP	87	128	6
NMTAP	87	144	7
NMTAP	87	176	5
NMSTR	87	240	0
NMSI_	87	240	0	96	32	2
NMSTR	87	240	7
NMSI_	87	240	7	96	32	3
NMTAP	87	288	1
NMTAP	87	288	6
NMSTR	87	336	0
NMSI_	87	336	0	96	32	4
NMSTR	87	336	7
NMSI_	87	336	7	96	32	5
NMSTR	88	48	0
NMSI_	88	48	0	96	32	2
NMSTR	88	48	7
NMSI_	88	48	7	96	32	3
NMTAP	88	144	0
NMTAP	88	144	7
NMSTR	88	240	3
NMSI_	88	240	3	96	32	7
NMSTR	88	240	4
NMSI_	88	240	4	96	32	0
NMTAP	88	288	2
NMTAP	88	288	5
NMSTR	88	336	3
NMSCL	88	336	3	96	32	0
NMSTR	88	336	4
NMSCR	88	336	4	96	32	7
NMTAP	89	48	3
NMTAP	89	48	4
NMHLD	89	144	1	496
NMHLD	89	144	6	496

T_REC_TAP	669
T_REC_BRK	50
T_REC_XTP	57
T_REC_BXX	3
T_REC_HLD	45
T_REC_XHO	5
T_REC_BHO	1
T_REC_BXH	0
T_REC_STR	101
T_REC_BST	1
T_REC_XST	0
T_REC_XBS	0
T_REC_TTP	40
T_REC_THO	0
T_REC_SLD	98
T_REC_BSL	4
T_REC_ALL	1074
T_NUM_TAP	867
T_NUM_BRK	59
T_NUM_HLD	50
T_NUM_SLD	98
T_NUM_ALL	1074
T_JUDGE_TAP	921
T_JUDGE_HLD	91
T_JUDGE_SLD	102
T_JUDGE_ALL	1114
TTM_EACHPAIRS	189
TTM_SCR_TAP	433500
TTM_SCR_BRK	153400
TTM_SCR_HLD	50000
TTM_SCR_SLD	147000
TTM_SCR_ALL	783900
TTM_SCR_S	754700
TTM_SCR_SS	778000
TTM_RAT_ACV	10075

