VERSION	0.00.00	1.04.00
FES_MODE	0
BPM_DEF	143.000	143.000	143.000	143.000
MET_DEF	4	4
RESOLUTION	384
CLK_DEF	384
COMPATIBLE_CODE	MA2

BPM	0	0	143.000
MET	0	0	4	4

NMSTR	2	0	2
NMSXL	2	0	2	96	288	5
NMHLD	2	0	6	648
NMHLD	3	192	4	72
EXTAP	3	336	3
EXTAP	3	336	5
EXHLD	4	0	3	768
EXSTR	4	0	5
NMSXL	4	0	5	96	288	0
BXTAP	5	192	7
NMTAP	6	0	0
NMTAP	6	96	0
NMTAP	6	192	1
NMTAP	6	288	1
NMTAP	7	0	2
NMTAP	7	96	2
NMTAP	7	192	3
NMTAP	7	288	3
NMTAP	8	0	2
NMTAP	8	0	4
NMTAP	8	48	2
NMTAP	8	48	4
NMTAP	8	96	2
NMTAP	8	96	4
NMTAP	8	192	3
NMTAP	8	192	5
NMTAP	8	240	3
NMTAP	8	240	5
NMSTR	8	288	3
NMSI_	8	288	3	96	48	0
NMTAP	8	288	5
NMHLD	9	192	0	96
NMHLD	9	192	7	96
BRTAP	10	0	1
BRTAP	10	0	6
NMHLD	10	96	2	144
NMTAP	10	240	3
NMTAP	10	288	2
NMTAP	10	288	4
NMTAP	11	0	3
NMTAP	11	0	4
NMHLD	11	96	5	144
NMTAP	11	240	4
NMTAP	11	288	3
NMTAP	11	288	5
NMHLD	12	0	2	96
NMTAP	12	0	4
NMHLD	12	96	3	144
NMTAP	12	240	2
NMTAP	12	288	1
NMTAP	12	288	3
NMTAP	13	0	2
NMTAP	13	0	4
NMTAP	13	96	3
NMTAP	13	96	5
NMTAP	13	192	3
NMTAP	13	192	4
NMTAP	13	288	3
NMTAP	13	288	4
EXTAP	14	0	2
EXTAP	14	0	6
NMTAP	14	96	3
NMHLD	14	96	5	144
NMTAP	14	240	3
NMTAP	14	288	2
NMTAP	14	288	4
NMTAP	15	0	1
NMTAP	15	0	3
NMTAP	15	96	2
NMHLD	15	96	4	144
NMTAP	15	240	2
NMTAP	15	288	2
EXHLD	15	336	1	96
EXTAP	15	336	3
NMHLD	16	48	0	96
NMTAP	16	144	7
EXTAP	16	240	6
EXTAP	16	240	7
EXTAP	16	288	6
EXTAP	16	288	7
EXTAP	16	336	6
EXTAP	16	336	7
NMTAP	17	48	0
NMTAP	17	48	5
NMTAP	17	144	2
NMTAP	17	144	7
NMTAP	17	240	0
NMTAP	17	288	0
EXTAP	18	0	3
EXTAP	18	0	5
NMTAP	18	96	2
NMTAP	18	144	3
NMTAP	18	192	4
NMTAP	18	288	6
NMTAP	18	288	7
NMTAP	19	0	5
NMTAP	19	48	4
NMTAP	19	96	3
NMTAP	19	192	0
NMTAP	19	192	1
NMTAP	19	288	2
NMTAP	19	288	3
NMTAP	20	0	0
NMTAP	20	0	5
NMTAP	20	96	2
NMTAP	20	144	3
NMTAP	20	192	4
NMTAP	20	288	6
NMTAP	20	288	7
NMTAP	21	0	5
NMTAP	21	48	4
NMTAP	21	96	3
BXTAP	21	192	0
BXTAP	21	192	1
BXTAP	21	288	2
BXTAP	21	288	3
BXTAP	22	0	1
BXTAP	22	0	5
NMTAP	22	96	6
NMTAP	22	144	7
NMTAP	22	192	0
NMTAP	22	288	2
NMTAP	22	288	3
NMTAP	23	0	1
NMTAP	23	48	0
NMTAP	23	96	7
EXTAP	23	192	4
EXTAP	23	192	5
NMTAP	23	288	1
NMTAP	23	288	3
NMSTR	23	336	1
NMSI_	23	336	1	96	96	5
NMTAP	23	336	3
NMTAP	24	240	7
NMTAP	24	288	7
NMTAP	24	336	7
NMTAP	25	48	1
NMTAP	25	48	5
EXTAP	25	144	3
EXTAP	25	144	7
BXTAP	25	192	3
BXTAP	25	192	7
NMTAP	25	288	2
NMTAP	25	288	4
BRTAP	26	0	1
BRTAP	26	0	5
NMTAP	26	96	2
NMTAP	26	144	2
NMTAP	26	192	3
NMTAP	26	288	5
NMTAP	26	336	5
NMTAP	27	0	4
NMSTR	27	96	3
NMSCL	27	96	3	96	96	0
NMSTR	27	96	6
NMSCL	27	96	6	96	96	3
EXTAP	28	0	0
EXTAP	28	0	3
NMTAP	28	96	1
NMTAP	28	144	1
NMTAP	28	192	7
NMTAP	28	240	7
NMTAP	28	288	0
NMTAP	28	336	0
NMTAP	29	0	6
NMTAP	29	48	6
NMSTR	29	96	4
NMSI_	29	96	4	96	96	1
NMSTR	29	96	6
NMSI_	29	96	6	96	96	3
EXTAP	30	0	1
EXTAP	30	0	3
NMTAP	30	96	3
NMTAP	30	96	4
NMTAP	30	192	4
NMTAP	30	192	6
NMTAP	30	288	0
NMTAP	30	288	7
NMTAP	31	0	1
NMTAP	31	0	5
NMHLD	31	96	2	192
NMSTR	31	96	6
NMSI_	31	96	6	96	48	0
EXTAP	31	288	0
NMTAP	32	0	1
NMTAP	32	48	1
NMTAP	32	96	0
NMTAP	32	192	6
NMTAP	32	240	6
NMTAP	32	288	7
NMSTR	33	0	0
NMSI_	33	0	0	96	48	4
NMTAP	33	0	5
BRTAP	33	192	2
BRTAP	33	192	6
NMHLD	34	0	1	72
NMHLD	34	72	3	72
NMTAP	34	144	2
NMHLD	34	192	6	72
NMHLD	34	264	4	72
NMTAP	34	336	5
NMTAP	35	0	3
NMTAP	35	48	3
NMTAP	35	96	2
NMTAP	35	96	4
NMTAP	35	192	5
NMTAP	35	240	5
NMTAP	35	288	4
NMTAP	35	288	6
NMHLD	36	0	2	72
NMHLD	36	72	0	72
NMTAP	36	144	1
NMHLD	36	192	5	72
NMHLD	36	264	7	72
NMTAP	36	336	6
NMTAP	37	0	0
NMTAP	37	0	5
NMSTR	37	96	2
BRSI_	37	96	2	96	48	5
NMTAP	37	96	3
EXTAP	37	288	7
NMHLD	38	0	6	72
NMHLD	38	72	5	72
NMTAP	38	144	4
NMHLD	38	192	3	72
NMHLD	38	264	2	72
NMTAP	38	336	1
BXTAP	39	0	1
BXTAP	39	0	3
BXTAP	39	96	4
BXTAP	39	96	6
BXTAP	39	192	0
BXTAP	39	216	7
BXTAP	39	240	0
BXTAP	39	264	7
BXTAP	39	288	0
NMSTR	40	0	0
NMSI_	40	0	0	96	48	4
NMSTR	40	0	1
NMSI_	40	0	1	96	48	4
NMTAP	40	192	0
NMSTR	40	192	1
NMSI_	40	192	1	96	48	5
EXTAP	41	0	4
EXHLD	41	0	6	192
NMTTP	41	192	3	B	0	M1
NMTTP	41	192	4	B	0	M1
NMTTP	41	192	4	E	0	M1
BRTAP	41	288	0
BRTAP	41	288	7
NMSTR	42	0	1
NMSCR	42	0	1	96	288	5
NMHLD	43	0	6	192
NMTAP	43	192	4
NMTAP	43	240	4
NMSTR	43	288	5
NMSCR	43	288	5	96	384	1
NMHLD	45	0	2	192
NMTAP	45	192	3
NMTAP	45	240	3
NMSTR	45	288	1
NMSI_	45	288	1	96	48	7
NMTTP	46	96	4	B	0	M1
NMTTP	46	96	5	B	0	M1
NMTTP	46	288	6	B	0	M1
NMTTP	46	288	7	B	0	M1
NMTTP	47	96	0	B	0	M1
NMTTP	47	96	1	B	0	M1
NMTTP	47	288	2	B	0	M1
NMTTP	47	288	3	B	0	M1
NMTTP	48	96	4	B	0	M1
NMTTP	48	192	6	B	0	M1
NMTTP	48	192	7	B	0	M1
NMTTP	48	192	7	E	0	M1
NMTTP	49	0	3	B	0	M1
NMTTP	49	96	0	B	0	M1
NMTTP	49	96	1	B	0	M1
NMTTP	49	96	1	E	0	M1
NMTTP	49	288	0	C	0	M1
BXTAP	50	0	0
BXSTR	50	0	7
BRSCL	50	0	7	96	288	4
NMHLD	51	0	2	288
NMTAP	51	96	3
NMTAP	51	192	4
NMTAP	51	288	3
NMSTR	52	0	3
NMSCL	52	0	3	96	288	0
NMTAP	52	0	4
NMTAP	53	0	5
NMSTR	53	96	7
NMSI_	53	96	7	96	96	2
NMSI_	53	96	7	96	96	4
NMTAP	54	0	3
NMTAP	54	48	3
NMHLD	54	96	3	96
NMTAP	54	192	1
NMTAP	54	240	1
NMHLD	54	288	1	96
NMTAP	55	0	7
NMTAP	55	48	7
NMHLD	55	96	7	96
NMTAP	55	192	0
NMTAP	55	240	0
NMTAP	55	288	1
NMTAP	55	288	7
NMTAP	56	0	1
NMTAP	56	48	1
NMTAP	56	96	6
NMTAP	56	144	6
NMTAP	56	192	0
NMTAP	56	216	7
NMTAP	56	240	0
NMTAP	56	264	7
NMTAP	56	288	0
NMTAP	56	312	7
NMTAP	56	336	0
NMTAP	56	360	7
EXTAP	57	0	0
NMTAP	57	96	1
NMTAP	57	96	7
NMSTR	57	192	2
NMSI_	57	192	2	96	48	4
NMSTR	57	192	6
NMSI_	57	192	6	96	48	4
BRTAP	58	0	2
BRTAP	58	0	6
NMHLD	58	96	7	48
NMHLD	58	192	7	48
NMHLD	58	288	0	48
NMHLD	58	288	1	48
NMHLD	59	0	2	48
NMHLD	59	0	3	48
NMHLD	59	96	1	48
NMHLD	59	96	3	48
NMSTR	59	192	0
NMSI_	59	192	0	96	48	4
NMSTR	59	192	2
NMSI_	59	192	2	96	48	4
NMHLD	60	0	5	48
NMHLD	60	96	5	48
NMHLD	60	192	6	48
NMHLD	60	192	7	48
NMHLD	60	288	0	48
NMHLD	60	288	1	48
NMHLD	61	0	2	48
NMHLD	61	0	4	48
NMHLD	61	96	3	48
NMHLD	61	96	5	48
NMSTR	61	192	4
NMSI_	61	192	4	96	48	0
NMSTR	61	192	6
NMSI_	61	192	6	96	48	3
NMHLD	62	0	1	48
NMHLD	62	0	4	48
NMHLD	62	96	1	48
NMHLD	62	96	4	48
NMHLD	62	192	2	48
NMHLD	62	192	3	48
NMHLD	62	288	4	48
NMHLD	62	288	5	48
NMHLD	63	0	6	48
NMHLD	63	0	7	48
NMHLD	63	96	6	48
NMHLD	63	96	7	48
EXTAP	63	192	0
EXTAP	63	192	5
NMTAP	63	288	0
NMTAP	63	288	1
BRTAP	63	336	0
BRTAP	63	336	1
NMTAP	64	48	3
NMTAP	64	48	4
BRTAP	64	144	6
BRTAP	64	144	7
NMTAP	64	240	0
NMTAP	64	288	0
BRTAP	64	336	1
BRTAP	64	336	7
BRTAP	65	48	2
BRTAP	65	48	3
EXTAP	65	144	4
EXTAP	65	192	4
EXTAP	65	240	3
EXTAP	65	240	5
EXTAP	65	288	2
EXTAP	65	288	6
NMSTR	66	0	1
NMSCR	66	0	1	96	96	4
NMSTR	66	96	0
NMSCL	66	96	0	96	96	5
EXTAP	66	288	4
NMSTR	67	0	3
NMSCL	67	0	3	96	96	0
NMSTR	67	96	4
NMSCR	67	96	4	96	96	7
EXTAP	67	288	0
NMSTR	68	0	1
NMSCR	68	0	1	96	96	4
NMSTR	68	96	0
NMSCL	68	96	0	96	96	5
EXTAP	68	288	4
NMSTR	69	0	3
NMSI_	69	0	3	96	48	1
NMSI_	69	0	3	96	48	6
EXTAP	69	192	0
EXTAP	69	192	7
NMTAP	69	288	2
NMTAP	69	288	5
NMSTR	70	0	6
NMSCL	70	0	6	96	96	3
NMSTR	70	96	7
NMSCR	70	96	7	96	96	2
EXTAP	70	288	3
NMTAP	71	0	4
NMTAP	71	96	3
NMTAP	71	96	5
NMTAP	71	192	6
NMTAP	71	240	6
NMTAP	71	288	6
NMTAP	71	288	7
BRSTR	71	336	0
BRSCR	71	336	0	96	240	5
BRTAP	71	336	5
EXTAP	72	288	7
EXHLD	72	336	7	192
NMHLD	73	48	3	96
NMTAP	73	240	0
NMTAP	73	240	6
BRTAP	73	288	1
BRTAP	73	288	5
BRTAP	74	0	1
BRTAP	74	0	3
NMTAP	74	96	4
NMTAP	74	96	6
NMTAP	74	144	5
NMTAP	74	192	1
NMTAP	74	192	3
NMTAP	74	288	1
NMTAP	74	288	3
NMTAP	74	336	2
NMSTR	75	0	3
NMSI_	75	0	3	96	48	7
NMTAP	75	0	4
NMSTR	75	96	5
NMSCL	75	96	5	96	48	2
EXTAP	75	192	0
NMTAP	75	288	1
NMTAP	75	288	7
NMTAP	76	0	4
NMTAP	76	0	6
NMTAP	76	96	4
NMTAP	76	96	6
NMTAP	76	144	5
NMTAP	76	192	1
NMTAP	76	192	3
NMTAP	76	288	1
NMTAP	76	288	3
NMTAP	76	336	2
EXTAP	77	0	3
EXTAP	77	0	5
NMTAP	77	96	0
NMTAP	77	96	6
NMTAP	77	144	1
NMTAP	77	144	5
NMSTR	77	192	2
NMSI_	77	192	2	96	48	7
NMHLD	77	192	4	96
BRTAP	78	0	0
BRTAP	78	0	6
NMTAP	78	96	2
NMTAP	78	96	4
NMTAP	78	144	3
NMTAP	78	192	4
NMTAP	78	192	6
NMTAP	78	288	2
NMTAP	78	288	4
NMTAP	79	0	1
NMSTR	79	0	5
NMSCL	79	0	5	96	48	2
NMSTR	79	96	0
NMSI_	79	96	0	96	48	4
EXTAP	79	192	7
EXTAP	79	240	7
NMHLD	79	336	4	48
NMHLD	79	336	6	48
NMHLD	80	48	0	48
NMHLD	80	48	7	48
EXTAP	80	144	1
EXTAP	80	144	3
NMTAP	80	240	4
NMTAP	80	288	3
NMTAP	80	288	5
NMSTR	80	336	2
NMSI_	80	336	2	96	48	5
NMSTR	80	336	6
NMSI_	80	336	6	96	48	1
EXTAP	81	144	3
EXTAP	81	144	7
BRTAP	81	240	1
BRTAP	81	240	5
BRTAP	81	288	1
BRTAP	81	288	5
NMTAP	82	0	0
NMTAP	82	0	6
NMTAP	82	96	0
NMTAP	82	96	6
NMTAP	82	144	7
NMTAP	82	192	0
NMTAP	82	192	2
NMTAP	82	240	1
NMTAP	82	288	0
NMTAP	82	288	6
NMTAP	83	0	1
NMSTR	83	0	5
NMSI_	83	0	5	96	48	1
NMSTR	83	96	2
NMSCR	83	96	2	96	48	5
NMTAP	83	192	7
EXTAP	83	288	0
EXTAP	83	288	6
NMTAP	84	0	1
NMTAP	84	0	7
NMTAP	84	96	1
NMTAP	84	96	7
NMTAP	84	144	0
NMTAP	84	192	5
NMTAP	84	192	7
NMTAP	84	240	6
NMTAP	84	288	1
NMTAP	84	288	7
EXTAP	85	0	2
EXTAP	85	48	2
NMTAP	85	96	1
NMTAP	85	96	3
NMTAP	85	144	2
NMTAP	85	144	4
NMSTR	85	192	5
NMSI_	85	192	5	96	48	0
NMSTR	85	288	3
NMSI_	85	288	3	96	48	7
NMHLD	86	0	6	192
NMTAP	86	192	7
NMTAP	86	240	0
NMSTR	86	288	1
NMSI_	86	288	1	96	48	6
NMHLD	87	0	5	192
NMTAP	87	192	4
NMTAP	87	288	2
NMTAP	87	288	7
NMSTR	87	336	2
NMSI_	87	336	2	96	48	4
NMTAP	87	336	7
NMSTR	88	48	5
NMSI_	88	48	5	96	48	1
NMTAP	88	144	0
NMTAP	88	240	0
NMTAP	88	240	2
NMTAP	88	288	0
NMTAP	88	288	2
NMTAP	88	336	3
NMSTR	88	336	7
NMSI_	88	336	7	96	48	2
NMSI_	88	336	7	96	48	4
NMTAP	89	144	3
NMTAP	89	192	3
NMTAP	89	240	4
NMSTR	89	336	6
BRSI_	89	336	6	96	48	2
CNSI_	90	96	2	0	48	7

T_REC_TAP	269
T_REC_BRK	29
T_REC_XTP	53
T_REC_BXX	19
T_REC_HLD	68
T_REC_XHO	4
T_REC_BHO	0
T_REC_BXH	0
T_REC_STR	49
T_REC_BST	1
T_REC_XST	1
T_REC_XBS	1
T_REC_TTP	20
T_REC_THO	0
T_REC_SLD	51
T_REC_BSL	4
T_REC_ALL	569
T_NUM_TAP	392
T_NUM_BRK	54
T_NUM_HLD	72
T_NUM_SLD	51
T_NUM_ALL	569
T_JUDGE_TAP	442
T_JUDGE_HLD	159
T_JUDGE_SLD	55
T_JUDGE_ALL	656
TTM_EACHPAIRS	151
TTM_SCR_TAP	196000
TTM_SCR_BRK	140400
TTM_SCR_HLD	72000
TTM_SCR_SLD	76500
TTM_SCR_ALL	484900
TTM_SCR_S	465150
TTM_SCR_SS	479500
TTM_RAT_ACV	10112

