VERSION	0.00.00	1.04.00
FES_MODE	0
BPM_DEF	143.000	143.000	143.000	143.000
MET_DEF	4	4
RESOLUTION	384
CLK_DEF	384
COMPATIBLE_CODE	MA2

BPM	0	0	143.000
MET	0	0	4	4

NMTAP	2	0	1
NMTAP	2	96	1
NMTAP	2	192	1
NMTAP	3	0	2
NMTAP	3	96	2
NMTAP	3	192	2
NMTAP	4	0	3
NMTAP	4	96	3
NMTAP	4	192	3
NMTAP	5	0	4
NMTAP	5	0	5
NMTAP	5	192	4
NMTAP	5	192	5
NMTAP	6	0	6
NMTAP	6	96	6
NMTAP	6	192	6
NMTAP	7	0	5
NMTAP	7	96	5
NMTAP	7	192	5
NMTAP	8	0	4
NMTAP	8	96	4
NMTAP	8	192	4
NMTAP	9	0	2
NMTAP	9	0	3
NMTAP	9	192	2
NMTAP	9	192	3
NMSTR	10	0	2
NMSI_	10	0	2	96	192	5
NMSTR	11	0	6
NMSI_	11	0	6	96	192	3
NMSTR	12	0	2
NMSI_	12	0	2	96	192	7
NMSTR	13	0	6
NMSI_	13	0	6	96	192	2
NMSTR	14	0	0
NMSI_	14	0	0	96	192	4
NMSTR	15	0	6
NMSI_	15	0	6	96	192	3
NMTAP	16	0	2
NMTAP	16	96	2
NMTAP	16	192	2
NMTAP	16	192	3
NMTAP	17	0	4
NMTAP	17	96	4
NMTAP	17	192	3
NMTAP	17	192	4
BXTAP	18	0	5
NMTAP	18	96	5
NMTAP	18	192	6
NMTAP	18	288	6
NMTAP	19	0	7
NMTAP	19	96	7
NMTAP	19	192	0
NMTAP	19	192	1
NMTAP	20	0	2
NMTAP	20	96	2
NMTAP	20	192	1
NMTAP	20	288	1
NMTAP	21	0	0
NMTAP	21	96	0
NMTAP	21	192	6
NMTAP	21	192	7
NMTAP	22	0	6
NMTAP	22	96	6
NMTAP	22	192	5
NMTAP	22	288	5
NMTAP	23	0	4
NMTAP	23	96	4
NMTAP	23	192	2
NMTAP	23	192	3
NMTAP	24	0	1
NMTAP	24	96	1
NMTAP	24	192	2
NMTAP	24	288	2
NMTAP	25	0	3
NMTAP	25	96	3
NMTAP	25	192	4
NMTAP	25	192	5
NMTAP	26	0	5
NMTAP	26	96	5
NMTAP	26	192	5
NMTAP	26	288	5
NMTAP	27	0	6
NMTAP	27	96	6
NMTAP	27	192	6
NMTAP	27	288	6
NMTAP	28	0	7
NMTAP	28	96	7
NMTAP	28	192	7
NMTAP	28	288	7
NMTAP	29	0	0
NMTAP	29	0	1
NMTAP	29	192	0
NMTAP	29	192	1
NMTAP	30	0	2
NMTAP	30	96	2
NMTAP	30	192	2
NMTAP	30	288	2
NMTAP	31	0	1
NMTAP	31	96	1
NMTAP	31	192	1
NMTAP	31	288	1
NMTAP	32	0	0
NMTAP	32	96	0
NMTAP	32	192	0
NMTAP	32	288	0
BXTAP	33	0	6
BXTAP	33	0	7
NMTTP	34	0	6	B	0	L1
NMTTP	34	96	5	B	0	L1
NMTTP	34	192	4	B	0	L1
NMTTP	35	0	1	B	0	L1
NMTTP	35	96	2	B	0	L1
NMTTP	35	192	3	B	0	L1
NMTTP	36	0	6	B	0	L1
NMTTP	36	96	5	B	0	L1
NMTTP	36	192	4	B	0	L1
NMTTP	36	288	3	B	0	L1
NMTTP	37	0	2	B	0	L1
NMTTP	37	96	1	B	0	L1
NMTTP	37	192	0	C	0	L1
NMTTP	38	0	0	B	0	L1
NMTTP	38	96	1	B	0	L1
NMTTP	38	192	2	B	0	L1
NMTTP	38	192	3	B	0	L1
NMTTP	39	0	7	B	0	L1
NMTTP	39	96	6	B	0	L1
NMTTP	39	192	4	B	0	L1
NMTTP	39	192	5	B	0	L1
NMTTP	40	0	1	B	0	L1
NMTTP	40	96	2	B	0	L1
NMTTP	40	192	3	B	0	L1
NMTTP	40	288	4	B	0	L1
NMTTP	41	0	0	C	1	L1
EXTAP	42	0	0
EXTAP	42	96	0
EXTAP	42	192	1
NMTAP	43	0	2
NMTAP	43	96	2
NMTAP	43	192	3
NMTAP	44	0	4
NMTAP	44	96	4
NMTAP	44	192	5
NMTAP	45	0	6
NMTAP	45	96	6
NMTAP	45	192	6
NMTAP	45	192	7
NMTAP	46	0	6
NMTAP	46	96	6
NMTAP	46	192	6
NMTAP	46	192	7
NMTAP	47	0	5
NMTAP	47	96	5
NMTAP	47	192	4
NMTAP	47	192	5
NMTAP	48	0	3
NMTAP	48	96	3
NMTAP	48	192	2
NMTAP	48	192	3
NMTAP	49	0	0
NMTAP	49	0	1
NMTAP	49	96	0
NMTAP	49	96	1
NMTAP	49	192	0
NMTAP	49	192	1
NMHLD	50	0	2	192
NMHLD	50	192	3	192
NMHLD	51	0	4	192
NMTAP	51	192	5
NMHLD	52	0	5	192
NMHLD	52	192	4	192
NMHLD	53	0	3	192
NMTAP	53	192	2
NMHLD	54	0	1	192
NMHLD	54	192	2	192
NMHLD	55	0	3	192
NMTAP	55	192	4
NMHLD	56	0	6	192
NMHLD	56	192	5	192
NMHLD	57	0	4	192
NMTAP	57	192	3
NMTAP	58	0	5
NMTAP	58	48	5
NMTAP	58	96	5
NMTAP	58	192	6
NMTAP	58	288	6
NMTAP	59	0	7
NMTAP	59	96	7
NMTAP	59	192	0
NMTAP	59	192	1
NMTAP	60	0	2
NMTAP	60	48	2
NMTAP	60	96	2
NMTAP	60	192	1
NMTAP	60	288	1
NMTAP	61	0	0
NMTAP	61	96	0
NMTAP	61	192	6
NMTAP	61	192	7
NMTAP	62	0	6
NMTAP	62	48	6
NMTAP	62	96	6
NMTAP	62	192	5
NMTAP	62	288	5
NMTAP	63	0	4
NMTAP	63	96	4
NMTAP	63	192	2
NMTAP	63	192	3
NMTAP	64	0	1
NMTAP	64	48	1
NMTAP	64	96	1
NMTAP	64	192	2
NMTAP	64	288	2
NMTAP	65	0	3
NMTAP	65	96	3
NMTAP	65	192	4
NMTAP	65	192	5
NMTAP	66	0	5
NMTAP	66	48	5
NMTAP	66	96	5
NMTAP	66	192	6
NMTAP	66	288	6
NMTAP	67	0	7
NMTAP	67	48	7
NMTAP	67	96	7
NMTAP	67	192	0
NMTAP	67	192	1
NMTAP	68	0	2
NMTAP	68	48	2
NMTAP	68	96	2
NMTAP	68	192	1
NMTAP	68	288	1
NMTAP	69	0	0
NMTAP	69	48	0
NMTAP	69	96	0
NMTAP	69	192	6
NMTAP	69	192	7
NMTAP	70	0	6
NMTAP	70	48	6
NMTAP	70	96	6
NMTAP	70	192	5
NMTAP	70	288	5
NMTAP	71	0	4
NMTAP	71	48	4
NMTAP	71	96	4
NMTAP	71	192	2
NMTAP	71	192	3
NMTAP	72	0	1
NMTAP	72	48	1
NMTAP	72	96	1
NMTAP	72	192	2
NMTAP	72	288	2
NMTAP	73	0	3
NMTAP	73	48	3
NMTAP	73	96	3
NMTAP	73	192	3
NMTAP	73	192	4
BRTAP	74	0	2
NMTAP	74	48	2
NMTAP	74	96	2
NMTAP	74	192	0
NMTAP	74	192	1
NMTAP	74	288	0
NMTAP	74	288	1
NMTAP	75	0	7
NMTAP	75	48	7
NMTAP	75	96	7
NMTAP	75	192	6
NMTAP	75	192	7
NMTAP	76	0	5
NMTAP	76	48	5
NMTAP	76	96	5
NMTAP	76	192	6
NMTAP	76	192	7
NMTAP	76	288	6
NMTAP	76	288	7
NMTAP	77	0	0
NMTAP	77	48	0
NMTAP	77	96	0
NMTAP	77	192	0
NMTAP	77	192	1
NMTAP	78	0	1
NMTAP	78	48	1
NMTAP	78	96	1
NMTAP	78	192	2
NMTAP	78	192	3
NMTAP	78	288	2
NMTAP	78	288	3
NMTAP	79	0	4
NMTAP	79	48	4
NMTAP	79	96	4
NMTAP	79	192	4
NMTAP	79	192	5
NMTAP	80	0	6
NMTAP	80	48	6
NMTAP	80	96	6
NMTAP	80	192	4
NMTAP	80	192	5
NMTAP	80	288	4
NMTAP	80	288	5
NMTAP	81	0	3
NMTAP	81	48	3
NMTAP	81	96	3
NMTAP	81	192	2
NMTAP	81	192	3
NMTAP	82	0	2
NMTAP	82	48	2
NMTAP	82	96	2
NMTAP	82	192	0
NMTAP	82	192	1
NMTAP	82	240	0
NMTAP	82	240	1
NMTAP	82	288	0
NMTAP	82	288	1
NMTAP	83	0	7
NMTAP	83	48	7
NMTAP	83	96	7
NMTAP	83	192	6
NMTAP	83	192	7
NMTAP	84	0	5
NMTAP	84	48	5
NMTAP	84	96	5
NMTAP	84	192	6
NMTAP	84	192	7
NMTAP	84	240	6
NMTAP	84	240	7
NMTAP	84	288	6
NMTAP	84	288	7
NMTAP	85	0	0
NMTAP	85	48	0
NMTAP	85	96	0
NMTAP	85	192	0
NMTAP	85	192	1
NMTAP	86	0	1
NMTAP	86	48	1
NMTAP	86	96	1
NMTAP	86	192	2
NMTAP	86	192	3
NMTAP	86	240	2
NMTAP	86	240	3
NMTAP	86	288	2
NMTAP	86	288	3
NMTAP	87	0	4
NMTAP	87	48	4
NMTAP	87	96	4
NMTAP	87	192	4
NMTAP	87	192	5
NMTAP	88	0	6
NMTAP	88	48	6
NMTAP	88	96	6
NMTAP	88	192	4
NMTAP	88	192	5
NMTAP	88	240	4
NMTAP	88	240	5
NMTAP	88	288	4
NMTAP	88	288	5
NMTAP	89	0	3
NMTAP	89	48	3
NMTAP	89	96	3
NMTAP	89	192	2
NMTAP	89	192	3
NMHLD	90	0	3	288
NMHLD	90	0	4	288

T_REC_TAP	304
T_REC_BRK	1
T_REC_XTP	3
T_REC_BXX	3
T_REC_HLD	14
T_REC_XHO	0
T_REC_BHO	0
T_REC_BXH	0
T_REC_STR	6
T_REC_BST	0
T_REC_XST	0
T_REC_XBS	0
T_REC_TTP	26
T_REC_THO	0
T_REC_SLD	6
T_REC_BSL	0
T_REC_ALL	363
T_NUM_TAP	339
T_NUM_BRK	4
T_NUM_HLD	14
T_NUM_SLD	6
T_NUM_ALL	363
T_JUDGE_TAP	343
T_JUDGE_HLD	60
T_JUDGE_SLD	6
T_JUDGE_ALL	409
TTM_EACHPAIRS	57
TTM_SCR_TAP	169500
TTM_SCR_BRK	10400
TTM_SCR_HLD	14000
TTM_SCR_SLD	9000
TTM_SCR_ALL	202900
TTM_SCR_S	196450
TTM_SCR_SS	202500
TTM_RAT_ACV	10019

