VERSION	0.00.00	1.04.00
FES_MODE	0
BPM_DEF	143.000	143.000	143.000	143.000
MET_DEF	4	4
RESOLUTION	384
CLK_DEF	384
COMPATIBLE_CODE	MA2

BPM	0	0	143.000
MET	0	0	4	4

NMHLD	2	0	0	384
NMTAP	4	0	0
NMTAP	4	192	0
NMTAP	5	0	0
NMHLD	6	0	7	384
NMTAP	8	0	7
NMTAP	8	192	7
NMTAP	9	0	0
NMTAP	9	0	7
NMTAP	10	0	0
NMTAP	10	192	0
NMTAP	11	0	1
NMTAP	12	0	2
NMTAP	12	192	2
NMTAP	13	0	2
NMTAP	13	0	3
NMTAP	14	0	4
NMTAP	14	192	4
NMTAP	15	0	5
EXTAP	16	0	6
EXTAP	16	192	6
EXTAP	17	0	6
EXTAP	17	0	7
NMTAP	18	0	7
NMTAP	18	192	7
NMTAP	19	0	6
NMTAP	19	192	6
NMTAP	20	0	5
NMTAP	20	192	5
NMTAP	21	0	3
NMTAP	21	0	4
NMTAP	22	0	3
NMTAP	22	192	3
NMTAP	23	0	2
NMTAP	23	192	2
EXTAP	24	0	1
EXTAP	24	192	1
EXTAP	25	0	0
EXTAP	25	0	7
NMHLD	26	0	0	384
NMHLD	26	0	1	384
NMHLD	28	0	2	384
NMHLD	28	0	3	384
NMHLD	30	0	4	384
NMHLD	30	0	5	384
NMHLD	32	0	6	384
NMHLD	32	0	7	384
BRTAP	34	0	7
NMTAP	34	96	7
NMTAP	34	192	7
NMTAP	35	0	6
NMTAP	35	192	6
NMTAP	36	0	5
NMTAP	36	96	5
NMTAP	36	192	5
NMTAP	37	0	3
NMTAP	37	0	4
NMTAP	38	0	3
NMTAP	38	96	3
NMTAP	38	192	3
NMTAP	39	0	2
NMTAP	39	192	2
NMTAP	40	0	1
NMTAP	40	96	1
NMTAP	40	192	1
BRTAP	41	0	0
BRTAP	41	0	7
NMSTR	42	0	0
NMSI_	42	0	0	96	288	4
NMSTR	44	0	7
NMSI_	44	0	7	96	288	3
NMSTR	46	0	1
NMSI_	46	0	1	96	288	5
NMSTR	48	0	6
NMSI_	48	0	6	96	288	2
NMTTP	50	0	0	B	0	L1
NMTTP	51	0	7	B	0	L1
NMTTP	52	0	1	B	0	L1
NMTTP	53	0	6	B	0	L1
NMTTP	54	0	2	B	0	L1
NMTTP	55	0	5	B	0	L1
NMTHO	56	0	0	384	C	0	L1
BRTAP	58	0	0
NMTAP	58	96	0
NMTAP	58	192	0
NMTAP	59	0	1
NMTAP	59	96	1
NMTAP	59	192	1
NMTAP	60	0	2
NMTAP	60	96	2
NMTAP	60	192	2
NMTAP	61	0	2
NMTAP	61	0	3
NMTAP	61	192	2
NMTAP	61	192	3
NMTAP	62	0	4
NMTAP	62	96	4
NMTAP	62	192	4
NMTAP	63	0	5
NMTAP	63	96	5
NMTAP	63	192	5
EXTAP	64	0	6
EXTAP	64	96	6
EXTAP	64	192	6
EXTAP	65	0	6
EXTAP	65	0	7
EXTAP	65	192	6
EXTAP	65	192	7
BRTAP	66	0	7
NMTAP	66	96	7
NMTAP	66	192	7
NMTAP	67	0	6
NMTAP	67	96	6
NMTAP	67	192	6
NMTAP	68	0	5
NMTAP	68	96	5
NMTAP	68	192	5
NMTAP	69	0	3
NMTAP	69	0	4
NMTAP	69	192	3
NMTAP	69	192	4
NMTAP	70	0	3
NMTAP	70	96	3
NMTAP	70	192	3
NMTAP	71	0	2
NMTAP	71	96	2
NMTAP	71	192	2
EXTAP	72	0	1
EXTAP	72	96	1
EXTAP	72	192	1
EXTAP	73	0	0
EXTAP	73	0	7
BRTAP	74	0	0
NMTAP	74	96	0
NMTAP	74	192	0
NMTAP	74	288	0
NMTAP	75	0	1
NMTAP	75	96	1
NMTAP	75	192	0
NMTAP	75	192	1
NMTAP	76	0	2
NMTAP	76	96	2
NMTAP	76	192	2
NMTAP	76	288	2
NMTAP	77	0	3
NMTAP	77	96	3
NMTAP	77	192	3
NMTAP	77	192	4
NMTAP	78	0	4
NMTAP	78	96	4
NMTAP	78	192	4
NMTAP	78	288	4
NMTAP	79	0	5
NMTAP	79	96	5
NMTAP	79	192	4
NMTAP	79	192	5
EXTAP	80	0	6
EXTAP	80	96	6
EXTAP	80	192	6
EXTAP	80	288	6
EXTAP	81	0	7
EXTAP	81	96	7
EXTAP	81	192	0
EXTAP	81	192	7
BRTAP	82	0	7
NMTAP	82	96	7
NMTAP	82	192	7
NMTAP	82	288	7
NMTAP	83	0	6
NMTAP	83	96	6
NMTAP	83	192	6
NMTAP	83	192	7
NMTAP	84	0	5
NMTAP	84	96	5
NMTAP	84	192	5
NMTAP	84	288	5
NMTAP	85	0	4
NMTAP	85	96	4
NMTAP	85	192	3
NMTAP	85	192	4
NMTAP	86	0	3
NMTAP	86	96	3
NMTAP	86	192	3
NMTAP	86	288	3
NMTAP	87	0	2
NMTAP	87	96	2
NMTAP	87	192	2
NMTAP	87	192	3
EXTAP	88	0	1
EXTAP	88	96	1
EXTAP	88	192	1
EXTAP	88	288	1
EXTAP	89	0	0
EXTAP	89	96	0
EXHLD	89	192	0	456
EXHLD	89	192	7	456

T_REC_TAP	128
T_REC_BRK	7
T_REC_XTP	34
T_REC_BXX	0
T_REC_HLD	10
T_REC_XHO	2
T_REC_BHO	0
T_REC_BXH	0
T_REC_STR	4
T_REC_BST	0
T_REC_XST	0
T_REC_XBS	0
T_REC_TTP	6
T_REC_THO	1
T_REC_SLD	4
T_REC_BSL	0
T_REC_ALL	196
T_NUM_TAP	172
T_NUM_BRK	7
T_NUM_HLD	13
T_NUM_SLD	4
T_NUM_ALL	196
T_JUDGE_TAP	179
T_JUDGE_HLD	108
T_JUDGE_SLD	4
T_JUDGE_ALL	291
TTM_EACHPAIRS	26
TTM_SCR_TAP	86000
TTM_SCR_BRK	18200
TTM_SCR_HLD	13000
TTM_SCR_SLD	6000
TTM_SCR_ALL	123200
TTM_SCR_S	118850
TTM_SCR_SS	122500
TTM_RAT_ACV	10057

