VERSION	0.00.00	1.04.00
FES_MODE	0
BPM_DEF	192.000	192.000	192.000	192.000
MET_DEF	4	4
RESOLUTION	384
CLK_DEF	384
COMPATIBLE_CODE	MA2

BPM	0	0	192.000
MET	0	0	4	4

NMTHO	1	0	0	2592	C	0	M1
NMTTP	1	0	3	A	0	M1
NMTTP	1	0	4	B	0	M1
NMTTP	1	0	4	D	0	M1
NMTTP	1	0	5	B	0	M1
BXTAP	8	0	0
BXTAP	8	0	6
EXTAP	8	48	0
EXTAP	8	48	6
EXTAP	8	144	1
EXTAP	8	144	5
EXTAP	8	240	2
EXTAP	8	240	6
EXTAP	8	336	0
EXTAP	8	336	5
EXSTR	9	0	0
NMSI_	9	0	0	96	48	4
EXTAP	9	0	5
NMSTR	9	96	7
NMSI_	9	96	7	96	48	3
NMTAP	9	192	2
NMTAP	9	288	2
NMTAP	9	336	3
NMTAP	10	0	4
NMHLD	10	48	5	96
NMSTR	10	144	0
NMSCR	10	144	0	96	48	3
NMTAP	10	240	6
NMTAP	10	288	7
NMSTR	10	336	0
NMSCL	10	336	0	96	48	5
NMTAP	11	48	2
NMTAP	11	96	1
NMSTR	11	144	0
NMSCR	11	144	0	96	48	3
NMTAP	11	240	6
NMHLD	11	288	6	96
NMSTR	12	0	2
NMSI_	12	0	2	96	48	7
NMTAP	12	48	2
NMSTR	12	96	5
NMSI_	12	96	5	96	48	2
NMTAP	12	144	5
NMTAP	12	192	0
NMTAP	12	240	0
NMTAP	12	288	1
NMTAP	12	288	4
NMSTR	13	0	7
NMSI_	13	0	7	96	48	3
NMSTR	13	96	1
NMSI_	13	96	1	96	48	4
NMTAP	13	192	5
NMTAP	13	288	5
NMTAP	13	336	4
NMTAP	14	0	3
NMHLD	14	48	2	96
NMSTR	14	144	7
NMSCL	14	144	7	96	48	4
NMTAP	14	240	1
NMTAP	14	288	1
NMHLD	15	0	1	48
NMHLD	15	0	3	48
NMHLD	15	96	2	48
NMHLD	15	96	4	48
NMHLD	15	192	3	48
NMHLD	15	192	5	48
NMTAP	15	336	4
NMTAP	16	0	4
NMTAP	16	48	5
NMTAP	16	96	6
NMTAP	16	144	7
NMTAP	16	192	0
NMTAP	16	240	1
NMTAP	16	288	2
NMTAP	16	336	3
NMTAP	16	336	5
NMTAP	17	0	3
NMTAP	17	0	5
NMSTR	17	96	6
NMSCL	17	96	6	96	48	3
NMTAP	17	144	6
NMTAP	17	192	2
NMTAP	17	288	0
NMTAP	17	336	0
NMTAP	18	0	3
NMTAP	18	48	3
NMSTR	18	96	1
NMSCR	18	96	1	96	48	4
NMTAP	18	144	1
NMTAP	18	192	5
NMHLD	18	288	7	96
NMTAP	19	0	4
NMTAP	19	48	4
NMTAP	19	96	6
NMTAP	19	144	6
NMTAP	19	192	3
NMSTR	19	288	2
NMSCL	19	288	2	96	48	7
NMSTR	20	0	5
NMSCL	20	0	5	96	48	2
NMSTR	20	96	0
NMSI_	20	96	0	96	48	4
NMTAP	20	192	4
NMTAP	20	288	3
NMTAP	20	336	2
NMTAP	20	336	4
NMTAP	21	0	2
NMTAP	21	0	4
NMSTR	21	96	1
NMSCR	21	96	1	96	48	4
NMTAP	21	144	1
NMTAP	21	192	5
NMTAP	21	288	7
NMTAP	21	336	7
NMTAP	22	0	4
NMTAP	22	48	4
NMSTR	22	96	6
NMSCL	22	96	6	96	48	3
NMTAP	22	144	6
NMSTR	22	192	2
BRSV_	22	192	2	96	72	4
BXTAP	22	288	0
NMTAP	23	48	7
NMTAP	23	96	7
NMTAP	23	144	0
NMTAP	23	144	6
NMTAP	23	192	0
NMTAP	23	192	6
NMTAP	23	288	2
NMTAP	23	288	4
NMTAP	23	336	2
NMTAP	23	336	4
NMTAP	24	48	3
NMTAP	24	48	5
NMTAP	24	96	3
NMTAP	24	96	5
NMTAP	24	144	1
NMTAP	24	144	7
BRTAP	24	192	2
BRTAP	24	192	6
NMTAP	24	288	1
NMTAP	24	288	4
NMTAP	25	0	3
NMTAP	25	0	5
NMSTR	25	96	2
NMSCL	25	96	2	96	48	7
NMTAP	25	144	2
NMTAP	25	192	4
NMTAP	25	288	5
NMTAP	25	336	5
NMTAP	26	0	0
NMTAP	26	48	0
NMSTR	26	96	6
NMSCR	26	96	6	96	48	1
NMTAP	26	144	6
NMTAP	26	192	2
NMHLD	26	288	3	96
NMTAP	27	0	0
NMTAP	27	48	0
NMTAP	27	96	2
NMTAP	27	144	2
NMTAP	27	192	4
NMSTR	27	288	6
NMSCL	27	288	6	96	48	3
NMSTR	28	0	1
NMSCL	28	0	1	96	48	6
NMSTR	28	96	4
NMSI_	28	96	4	96	48	0
NMTAP	28	192	0
NMTAP	28	288	2
NMTAP	28	336	1
NMTAP	28	336	7
NMHLD	29	0	1	96
NMHLD	29	0	7	96
NMHLD	29	144	2	96
NMHLD	29	144	3	96
NMTAP	29	288	1
NMTAP	29	288	4
NMHLD	30	0	0	96
NMHLD	30	0	2	96
NMHLD	30	144	6	96
NMHLD	30	144	7	96
NMTAP	30	288	2
NMTAP	30	288	4
NMHLD	31	0	1	96
NMHLD	31	0	3	96
NMTAP	31	144	4
NMTAP	31	144	6
NMTAP	31	240	1
NMTAP	31	240	3
NMTAP	31	336	7
NMSTR	32	0	7
NMSI_	32	0	7	96	72	3
NMTAP	32	96	3
CNSI_	32	168	3	0	72	6
NMTAP	32	192	1
NMSTR	32	288	2
BRSCL	32	288	2	96	240	5
NMSTR	33	192	4
NMSI_	33	192	4	96	48	0
NMSTR	33	288	2
BRSCL	33	288	2	96	240	5
BXTAP	33	288	4
NMSTR	34	192	4
NMSI_	34	192	4	96	48	0
NMSTR	34	288	2
BRSCL	34	288	2	96	240	5
BXTAP	34	288	4
NMSTR	35	192	4
NMSI_	35	192	4	96	48	0
NMSTR	35	288	2
BRSCL	35	288	2	96	240	5
BXTAP	35	288	4
NMSTR	36	192	4
NMSI_	36	192	4	96	48	7
NMTAP	36	288	3
BXTAP	36	288	4
NMSTR	37	0	2
NMSCL	37	0	2	96	48	0
NMTAP	37	96	2
NMTAP	37	96	4
NMSTR	37	192	5
NMSCR	37	192	5	96	48	7
NMTAP	37	288	3
NMTAP	37	288	5
NMSTR	38	0	2
NMSI_	38	0	2	96	48	0
NMTAP	38	96	2
NMTAP	38	96	4
NMSTR	38	192	5
NMSI_	38	192	5	96	48	7
NMSTR	38	288	3
NMSCL	38	288	3	96	288	4
NMTAP	38	288	5
NMTTP	40	0	0	C	0	M1
NMSTR	40	192	0
NMSI_	40	192	0	96	48	4
NMSTR	40	192	7
NMSI_	40	192	7	96	48	3
BRTAP	40	288	0
BRTAP	40	288	7
NMSTR	41	0	1
NMSI_	41	0	1	96	48	4
NMTAP	41	48	1
NMSTR	41	96	5
NMSI_	41	96	5	96	48	0
NMTAP	41	144	5
NMTAP	41	192	2
NMTAP	41	240	2
NMTAP	41	288	7
NMSTR	41	336	7
NMSCL	41	336	7	96	96	3
NMSTR	42	48	3
NMSCL	42	48	3	96	96	7
NMTAP	42	144	7
NMTAP	42	240	3
NMTAP	42	288	2
NMHLD	42	336	1	96
NMTAP	43	48	0
NMTAP	43	96	3
NMTAP	43	96	6
NMTAP	43	144	4
NMTAP	43	144	5
NMTAP	43	240	3
NMSTR	43	288	2
NMSI_	43	288	2	96	48	0
NMTAP	43	336	2
NMSTR	44	0	5
NMSI_	44	0	5	96	48	7
NMTAP	44	48	5
NMSTR	44	96	3
NMSI_	44	96	3	96	48	0
NMTAP	44	144	3
NMSTR	44	192	4
NMSI_	44	192	4	96	48	7
NMTAP	44	240	4
NMTAP	44	288	3
NMSTR	45	0	1
NMSI_	45	0	1	96	48	7
NMTAP	45	48	1
NMSTR	45	96	5
NMSI_	45	96	5	96	48	3
NMTAP	45	144	5
NMTAP	45	192	1
NMTAP	45	240	1
NMTAP	45	288	4
NMSTR	45	336	4
NMSLR	45	336	4	96	96	0
NMSTR	46	48	0
NMSXR	46	48	0	96	144	5
NMTAP	46	144	2
NMTAP	46	240	1
NMHLD	46	288	1	96
NMTAP	47	0	3
NMTAP	47	48	3
NMTAP	47	96	0
NMTAP	47	144	0
NMTAP	47	192	7
NMTAP	47	240	7
NMTAP	47	288	4
NMTTP	48	0	6	E	0	M1
NMTTP	48	48	5	E	0	M1
NMTTP	48	96	3	E	0	M1
NMTTP	48	144	2	E	0	M1
NMTHO	48	192	0	48	C	0	M1
NMTTP	48	288	2	B	0	M1
NMTTP	48	288	2	A	0	M1
NMTTP	48	288	3	B	0	M1
NMTTP	48	288	3	A	0	M1
NMTTP	48	288	4	B	0	M1
NMTTP	48	288	4	A	0	M1
NMTTP	48	288	5	B	0	M1
NMTTP	48	288	5	A	0	M1
NMSTR	49	0	7
NMSI_	49	0	7	96	48	3
NMTAP	49	48	7
NMSTR	49	96	1
NMSI_	49	96	1	96	48	6
NMTAP	49	144	1
NMTAP	49	192	5
NMTAP	49	240	5
NMTAP	49	288	0
NMSTR	49	336	0
NMSCR	49	336	0	96	96	4
NMSTR	50	48	4
NMSCR	50	48	4	96	96	0
NMTAP	50	144	0
NMTAP	50	240	4
NMTAP	50	288	5
NMHLD	50	336	6	96
NMTAP	51	48	7
NMTAP	51	96	1
NMTAP	51	96	4
NMTAP	51	144	2
NMTAP	51	144	3
NMTAP	51	240	4
NMSTR	51	288	5
NMSI_	51	288	5	96	48	7
NMTAP	51	336	5
NMSTR	52	0	2
NMSI_	52	0	2	96	48	0
NMTAP	52	48	2
NMSTR	52	96	4
NMSI_	52	96	4	96	48	7
NMTAP	52	144	4
NMSTR	52	192	3
NMSI_	52	192	3	96	48	0
NMTAP	52	240	3
NMTAP	52	288	4
NMSTR	53	0	6
NMSI_	53	0	6	96	48	0
NMTAP	53	48	6
NMSTR	53	96	2
NMSI_	53	96	2	96	48	4
NMTAP	53	144	2
NMTAP	53	192	6
NMTAP	53	240	6
NMTAP	53	288	3
NMSTR	53	336	3
NMSLL	53	336	3	96	96	7
NMSTR	54	48	7
NMSXL	54	48	7	96	144	3
NMTAP	54	144	5
NMTAP	54	240	6
NMSTR	54	288	6
NMSCL	54	288	6	96	96	2
NMTAP	55	0	2
NMSTR	55	96	0
NMSLR	55	96	0	96	96	4
NMTAP	55	192	4
NMSTR	55	288	6
NMSCL	55	288	6	96	192	7
NMTTP	56	0	0	C	1	M1
EXTAP	56	288	0
EXTAP	56	288	7
NMSTR	57	0	6
NMSI_	57	0	6	96	48	3
NMSTR	57	0	7
NMSUL	57	0	7	96	48	3
NMTAP	57	48	6
NMTAP	57	48	7
NMSTR	57	192	0
NMSUR	57	192	0	96	48	4
NMSTR	57	192	1
NMSI_	57	192	1	96	48	4
NMTAP	57	240	0
NMTAP	57	240	1
NMSTR	58	0	6
NMSI_	58	0	6	96	48	3
NMSTR	58	0	7
NMSUL	58	0	7	96	48	3
NMTAP	58	48	6
NMTAP	58	48	7
NMTAP	58	192	0
NMTAP	58	192	1
NMTAP	58	240	0
NMTAP	58	240	1
NMSTR	58	288	2
NMSCR	58	288	2	96	96	6
NMTAP	58	288	7
NMSTR	59	0	6
NMSCR	59	0	6	96	96	2
NMTAP	59	96	2
NMTAP	59	192	6
NMTAP	59	288	1
NMHLD	59	336	1	96
NMTAP	60	48	3
NMTAP	60	96	2
NMTAP	60	96	4
NMTAP	60	144	3
NMTAP	60	144	5
NMTAP	60	192	4
NMSTR	60	192	6
NMSCL	60	192	6	96	48	3
EXTAP	60	288	6
NMHLD	61	0	1	48
NMHLD	61	96	1	48
NMHLD	61	192	2	48
NMHLD	61	192	4	48
NMHLD	61	288	2	48
NMHLD	61	288	4	48
NMHLD	62	0	5	48
NMHLD	62	96	5	48
NMHLD	62	192	3	48
NMHLD	62	192	4	48
NMHLD	62	288	3	48
NMHLD	62	288	4	48
NMHLD	63	0	2	48
NMHLD	63	96	2	48
NMHLD	63	192	3	48
NMHLD	63	192	5	48
NMHLD	63	288	3	48
NMHLD	63	288	5	48
NMHLD	64	0	6	48
NMHLD	64	96	6	48
NMHLD	64	192	4	48
NMHLD	64	192	5	48
NMTAP	64	288	4
NMTAP	64	288	5
BXHLD	65	0	0	192
NMTAP	65	96	3
NMTAP	65	192	3
NMTAP	65	288	4
BXHLD	66	0	1	192
NMTAP	66	96	3
NMTAP	66	192	3
NMTAP	66	288	4
BXHLD	67	0	2	192
NMTAP	67	96	3
NMTAP	67	192	3
NMTAP	67	288	4
NMTAP	68	0	1
NMTAP	68	0	5
NMTAP	68	192	2
NMTAP	68	240	0
NMTAP	68	240	7
NMTAP	68	288	2
NMTAP	68	336	0
NMTAP	68	336	7
NMTTP	69	0	0	C	1	M1
EXTAP	69	0	1
NMTAP	69	12	2
NMTAP	69	24	3
NMTAP	69	36	4
NMTAP	69	48	5
NMTAP	69	60	6
NMTAP	69	72	7
NMTAP	69	84	0
EXTAP	69	96	1
NMTAP	69	108	2
NMTAP	69	120	3
NMTAP	69	132	4
NMTAP	69	144	5
NMTAP	69	156	6
NMTAP	69	168	7
NMTAP	69	180	0
EXTAP	69	192	1
NMTAP	69	204	2
NMTAP	69	216	3
NMTAP	69	228	4
NMTAP	69	240	5
NMTAP	69	252	6
NMTAP	69	264	7
NMTAP	69	276	0
EXTAP	69	288	1
NMTAP	69	300	2
NMTAP	69	312	3
NMTAP	69	324	4
NMTAP	69	336	5
NMTAP	69	348	6
NMTAP	69	360	7
NMTAP	69	372	0
EXTAP	70	0	1
NMTAP	70	12	2
NMTAP	70	24	3
NMTAP	70	36	4
NMTAP	70	48	5
NMTAP	70	60	6
NMTAP	70	72	7
NMTAP	70	84	0
EXTAP	70	96	1
NMTAP	70	108	2
NMTAP	70	120	3
NMTAP	70	132	4
NMTAP	70	144	5
NMTAP	70	156	6
NMTAP	70	168	7
NMTAP	70	180	0
EXTAP	70	192	1
NMTAP	70	204	2
NMTAP	70	216	3
NMTAP	70	228	4
NMTAP	70	240	5
NMTAP	70	252	6
NMTAP	70	264	7
NMTAP	70	276	0
EXTAP	70	288	1
NMTAP	70	300	2
NMTAP	70	312	3
NMTAP	70	324	4
NMTAP	70	336	5
NMTAP	70	348	6
NMTAP	70	360	7
NMTAP	70	372	0
EXTAP	71	0	1
NMTAP	71	12	2
NMTAP	71	24	3
NMTAP	71	36	4
NMTAP	71	48	5
NMTAP	71	60	6
NMTAP	71	72	7
NMTAP	71	84	0
EXTAP	71	96	1
NMTAP	71	108	2
NMTAP	71	120	3
NMTAP	71	132	4
NMTAP	71	144	5
NMTAP	71	156	6
NMTAP	71	168	7
NMTAP	71	180	0
EXTAP	71	192	1
NMTAP	71	204	2
NMTAP	71	216	3
NMTAP	71	228	4
NMTAP	71	240	5
NMTAP	71	252	6
NMTAP	71	264	7
NMTAP	71	276	0
EXTAP	71	288	1
NMTAP	71	300	2
NMTAP	71	312	3
NMTAP	71	324	4
NMTAP	71	336	5
NMTAP	71	348	6
NMTAP	71	360	7
NMTAP	71	372	0
EXTAP	72	0	1
NMTAP	72	12	2
NMTAP	72	24	3
NMTAP	72	36	4
NMTAP	72	48	5
NMTAP	72	60	6
NMTAP	72	72	7
NMTAP	72	84	0
EXTAP	72	96	1
NMTAP	72	108	2
NMTAP	72	120	3
NMTAP	72	132	4
NMTAP	72	144	5
NMTAP	72	156	6
NMTAP	72	168	7
NMTAP	72	180	0
BXTAP	72	192	1
NMTAP	73	0	1
NMTAP	73	24	0
NMTAP	73	48	1
NMTAP	73	72	0
NMTAP	73	96	1
NMTAP	73	120	0
NMTAP	73	144	1
NMTAP	73	192	5
NMTAP	73	216	4
NMTAP	73	240	5
NMTAP	73	264	4
NMTAP	73	288	5
NMTAP	73	312	4
NMTAP	73	336	5
NMTAP	74	0	6
NMTAP	74	24	7
NMTAP	74	48	6
NMTAP	74	72	7
NMTAP	74	96	6
NMTAP	74	120	7
NMTAP	74	144	6
NMTAP	74	192	2
NMTAP	74	216	3
NMTAP	74	240	2
NMTAP	74	264	3
NMTAP	74	288	2
NMTAP	74	312	3
NMTAP	74	336	2
NMTAP	75	0	6
NMTAP	75	24	4
NMTAP	75	48	6
NMTAP	75	72	4
NMTAP	75	96	6
NMTAP	75	120	4
NMTAP	75	144	6
NMTAP	75	192	1
NMTAP	75	216	3
NMTAP	75	240	1
NMTAP	75	264	3
NMTAP	75	288	1
NMTAP	75	312	3
NMTAP	75	336	1
NMTAP	76	0	0
NMTAP	76	0	4
NMTAP	76	48	1
NMTAP	76	48	5
NMSTR	76	96	2
NMSI_	76	96	2	96	48	7
NMSTR	76	96	6
NMSI_	76	96	6	96	48	3
NMTAP	76	144	3
NMTAP	76	144	7
BXTAP	76	192	2
BXTAP	76	192	6
BRTAP	76	288	0
BRTAP	76	288	4
NMSTR	77	0	1
NMSCR	77	0	1	96	96	5
NMSTR	77	96	5
NMSUL	77	96	5	96	48	1
NMTAP	77	192	6
NMTAP	77	288	7
NMSTR	77	336	7
NMSI_	77	336	7	96	48	3
NMSTR	78	48	1
NMSI_	78	48	1	96	48	6
NMSTR	78	144	4
NMSCR	78	144	4	96	48	7
NMTAP	78	240	0
NMTAP	78	288	1
NMSTR	78	336	2
NMSI_	78	336	2	96	48	5
NMSTR	79	48	6
NMSI_	79	48	6	96	48	1
NMSTR	79	144	3
NMSCL	79	144	3	96	48	0
NMTAP	79	240	7
NMTAP	79	288	6
NMSTR	79	336	5
NMSI_	79	336	5	96	48	0
NMSTR	80	48	2
NMSI_	80	48	2	96	48	5
NMTAP	80	144	7
NMTAP	80	192	7
NMTAP	80	288	4
NMTAP	80	288	6
NMTAP	81	0	1
NMSTR	81	0	3
NMSI_	81	0	3	96	48	7
NMTAP	81	96	0
NMSTR	81	144	0
NMSI_	81	144	0	96	48	4
NMTAP	81	240	7
NMTAP	81	288	7
NMTAP	81	336	3
NMHLD	82	0	3	96
NMTAP	82	96	0
NMTAP	82	144	7
NMTAP	82	192	1
NMTAP	82	240	2
NMTAP	82	288	3
NMTAP	82	336	4
NMHLD	83	0	5	96
NMHLD	83	96	7	96
NMHLD	83	192	0	96
NMTAP	83	288	2
NMTAP	84	0	2
NMTAP	84	0	4
NMTAP	84	48	1
NMTAP	84	96	0
NMTAP	84	96	7
NMTAP	84	144	6
NMTAP	84	192	3
NMTAP	84	192	5
NMSTR	84	288	0
NMSCR	84	288	0	96	48	3
NMSTR	85	0	0
NMSCL	85	0	0	96	48	5
NMSTR	85	96	0
NMSI_	85	96	0	96	48	4
NMSTR	85	192	0
NMSI_	85	192	0	96	48	3
NMSI_	85	192	0	96	48	5
NMTAP	85	288	0
NMHLD	86	0	2	96
NMTAP	86	0	4
NMTAP	86	96	0
NMHLD	86	144	0	96
NMTAP	86	240	7
NMSTR	86	288	7
NMSCL	86	288	7	96	48	4
NMSTR	87	0	7
NMSCR	87	0	7	96	48	2
NMSTR	87	96	7
NMSI_	87	96	7	96	48	3
NMSTR	87	192	7
NMSI_	87	192	7	96	48	2
NMSI_	87	192	7	96	48	4
NMTAP	87	288	7
NMTAP	88	0	3
NMTAP	88	48	2
NMTAP	88	96	4
NMHLD	88	144	5	96
NMTAP	88	240	4
NMTAP	88	288	4
NMSTR	89	0	5
NMSCR	89	0	5	96	48	0
NMTAP	89	48	4
NMTAP	89	96	3
NMSTR	89	144	2
NMSCR	89	144	2	96	48	5
NMTAP	89	192	1
NMTAP	89	240	0
NMTAP	89	288	7
NMSTR	90	0	1
NMSI_	90	0	1	96	48	5
NMSTR	90	96	6
NMSI_	90	96	6	96	48	2
NMSTR	90	192	3
NMSI_	90	192	3	96	48	7
NMSTR	90	288	4
NMSUL	90	288	4	96	192	3
NMTTP	91	0	0	C	1	M1
NMTTP	91	192	0	C	1	M1
NMTTP	91	192	3	B	0	M1
CNSCL	91	192	3	0	144	5
NMTTP	91	192	4	B	0	M1
NMTAP	92	192	0
NMTAP	92	216	7
NMTAP	92	240	0
NMTAP	92	264	7
NMTAP	92	288	0
NMTAP	92	312	7
NMTAP	92	336	0
NMTAP	92	360	7
BRTAP	93	0	1
NMHLD	93	192	1	384
NMTAP	94	0	3
NMHLD	94	192	3	384
NMTAP	95	0	4
NMHLD	95	192	4	384
NMTAP	96	0	6
NMTAP	96	192	6
NMTAP	97	0	6
NMHLD	97	192	6	384
NMTAP	98	0	4
NMHLD	98	192	4	192
NMTAP	99	0	3
NMTAP	99	192	2
NMTAP	99	192	5
NMTTP	100	0	6	E	0	M1
NMTTP	100	48	5	E	0	M1
NMTTP	100	96	3	E	0	M1
NMTTP	100	144	2	E	0	M1
NMTHO	100	192	0	48	C	0	M1
NMTTP	100	288	2	B	0	M1
NMTTP	100	288	2	A	0	M1
NMTTP	100	288	3	B	0	M1
NMTTP	100	288	3	A	0	M1
NMTTP	100	288	4	B	0	M1
NMTTP	100	288	4	A	0	M1
NMTTP	100	288	5	B	0	M1
NMTTP	100	288	5	A	0	M1
NMSTR	101	0	0
NMSI_	101	0	0	96	48	3
NMTAP	101	48	0
NMSTR	101	96	6
NMSI_	101	96	6	96	48	3
NMTAP	101	144	6
NMTAP	101	192	1
NMTAP	101	240	1
NMTAP	101	288	6
NMHLD	101	336	6	96
NMTAP	102	48	7
NMTAP	102	96	4
NMTAP	102	96	5
NMTAP	102	144	2
NMSTR	102	144	3
NMSCR	102	144	3	96	48	6
NMTAP	102	240	0
NMTAP	102	288	2
NMSTR	102	336	3
NMSCL	102	336	3	96	48	0
NMTAP	103	48	6
NMTAP	103	96	4
NMTAP	103	144	3
NMTAP	103	240	3
NMSTR	103	288	2
NMSI_	103	288	2	96	48	0
NMTAP	103	336	2
NMSTR	104	0	5
NMSI_	104	0	5	96	48	7
NMTAP	104	48	5
NMSTR	104	96	3
NMSI_	104	96	3	96	48	0
NMTAP	104	144	3
NMSTR	104	192	4
NMSI_	104	192	4	96	48	7
NMTAP	104	240	4
NMTAP	104	288	3
NMSTR	105	0	1
NMSI_	105	0	1	96	48	7
NMTAP	105	48	1
NMSTR	105	96	5
NMSI_	105	96	5	96	48	3
NMTAP	105	144	5
NMTAP	105	192	1
NMTAP	105	240	1
NMTAP	105	288	4
NMSTR	105	336	4
NMSLR	105	336	4	96	96	0
NMSTR	106	48	0
NMSXR	106	48	0	96	144	4
NMTAP	106	144	2
NMTAP	106	240	1
NMSTR	106	288	1
NMSCR	106	288	1	96	96	5
NMTAP	107	0	6
NMSTR	107	96	7
NMSLL	107	96	7	96	96	3
NMTAP	107	192	3
NMSTR	107	288	1
NMSCR	107	288	1	96	192	0
NMTTP	108	0	0	C	1	M1
EXTAP	108	288	3
EXTAP	108	288	4
NMSTR	109	0	2
NMSI_	109	0	2	96	48	7
NMSTR	109	0	3
NMSUL	109	0	3	96	48	7
NMTAP	109	48	2
NMTAP	109	48	3
NMSTR	109	192	4
NMSUR	109	192	4	96	48	0
NMSTR	109	192	5
NMSI_	109	192	5	96	48	0
NMTAP	109	240	4
NMTAP	109	240	5
NMSTR	110	0	2
NMSI_	110	0	2	96	48	7
NMSTR	110	0	3
NMSUL	110	0	3	96	48	7
NMTAP	110	48	2
NMTAP	110	48	3
NMTAP	110	192	4
NMTAP	110	192	5
NMTAP	110	240	4
NMTAP	110	240	5
NMTAP	110	288	3
NMSTR	110	288	6
NMSCR	110	288	6	96	96	2
NMSTR	111	0	2
NMSCR	111	0	2	96	96	6
NMTAP	111	96	6
NMTAP	111	192	2
NMTAP	111	288	5
NMHLD	111	336	5	96
NMTAP	112	48	7
NMTAP	112	96	0
NMTAP	112	96	6
NMTAP	112	144	1
NMTAP	112	144	7
BXTAP	112	192	0
BXTAP	112	192	2
NMTAP	112	288	2
NMTAP	112	288	4
EXTAP	113	0	3
EXSTR	113	0	5
NMSI_	113	0	5	96	48	0
NMTAP	113	96	4
NMTAP	113	96	5
NMSTR	113	192	2
NMSI_	113	192	2	96	48	7
NMTAP	113	192	4
NMTAP	113	288	2
NMSTR	113	288	3
NMSCR	113	288	3	96	144	2
NMTAP	114	0	1
EXTAP	114	240	0
EXTAP	114	240	6
EXTAP	114	288	0
EXSTR	114	288	6
NMSI_	114	288	6	96	48	3
NMSTR	115	0	2
NMSI_	115	0	2	96	48	7
NMSTR	115	96	4
NMSI_	115	96	4	96	48	1
NMSTR	115	192	0
NMSI_	115	192	0	96	48	5
NMHLD	115	288	6	96
NMTAP	116	0	4
NMSTR	116	48	4
NMSLL	116	48	4	96	72	0
NMSLR	116	48	4	96	72	0
NMTTP	116	144	4	A	1	M1
NMTTP	116	144	4	D	0	M1
NMTTP	116	144	5	D	0	M1
EXTAP	116	288	1
EXTAP	116	288	7
NMSTR	117	0	2
NMSI_	117	0	2	96	48	7
NMTAP	117	0	4
NMTAP	117	96	2
NMTAP	117	96	3
NMTAP	117	192	3
NMSTR	117	192	5
NMSI_	117	192	5	96	48	0
NMSTR	117	288	4
NMSCL	117	288	4	96	144	5
NMTAP	117	288	5
EXTAP	118	240	1
EXTAP	118	240	7
EXSTR	118	288	1
NMSCR	118	288	1	96	48	4
EXTAP	118	288	7
NMTAP	119	0	1
NMSTR	119	0	5
NMSCR	119	0	5	96	48	0
NMSTR	119	96	1
NMSI_	119	96	1	96	48	5
NMTAP	119	96	5
NMTAP	119	192	1
NMTAP	119	192	7
NMTAP	119	240	7
BXTAP	119	336	4
BXTAP	119	336	6
NMTTP	120	0	3	E	0	M1
NMTTP	120	48	2	E	0	M1
NMTTP	120	96	1	E	0	M1
NMTTP	120	144	0	E	0	M1
NMTTP	120	192	7	E	0	M1
NMTTP	120	240	6	E	0	M1
NMTTP	120	288	5	E	0	M1
NMTTP	120	336	4	E	0	M1
BRSTR	121	96	6
NMSSR	121	96	6	96	1152	2

T_REC_TAP	489
T_REC_BRK	7
T_REC_XTP	37
T_REC_BXX	14
T_REC_HLD	62
T_REC_XHO	0
T_REC_BHO	0
T_REC_BXH	3
T_REC_STR	136
T_REC_BST	1
T_REC_XST	4
T_REC_XBS	0
T_REC_TTP	47
T_REC_THO	3
T_REC_SLD	139
T_REC_BSL	5
T_REC_ALL	947
T_NUM_TAP	713
T_NUM_BRK	30
T_NUM_HLD	65
T_NUM_SLD	139
T_NUM_ALL	947
T_JUDGE_TAP	735
T_JUDGE_HLD	190
T_JUDGE_SLD	144
T_JUDGE_ALL	1069
TTM_EACHPAIRS	118
TTM_SCR_TAP	356500
TTM_SCR_BRK	78000
TTM_SCR_HLD	65000
TTM_SCR_SLD	208500
TTM_SCR_ALL	708000
TTM_SCR_S	683850
TTM_SCR_SS	705000
TTM_RAT_ACV	10042

