VERSION	0.00.00	1.04.00
FES_MODE	0
BPM_DEF	192.000	192.000	192.000	192.000
MET_DEF	4	4
RESOLUTION	384
CLK_DEF	384
COMPATIBLE_CODE	MA2

BPM	0	0	192.000
MET	0	0	4	4

NMHLD	1	0	2	384
NMHLD	2	0	3	384
NMHLD	3	0	4	384
NMHLD	4	0	5	384
NMHLD	5	0	4	384
NMHLD	6	0	3	384
NMHLD	7	0	2	384
NMTTP	8	0	6	B	0	M1
NMTTP	8	0	7	B	0	M1
NMTTP	8	0	7	E	1	M1
EXTAP	8	288	3
EXTAP	8	288	4
NMTAP	9	0	4
NMTAP	9	0	5
NMTAP	9	96	7
NMTAP	9	192	2
NMTAP	9	192	3
NMTAP	9	288	0
NMTAP	10	0	2
NMSTR	10	0	3
NMSUR	10	0	3	96	96	7
BXTAP	10	240	0
BXTAP	10	288	0
NMTAP	11	0	6
NMTAP	11	0	7
NMTAP	11	96	4
NMTAP	11	96	5
NMTAP	11	192	2
NMTAP	11	192	3
NMTAP	11	288	1
NMTAP	11	288	4
NMTAP	12	0	0
NMSTR	12	0	5
NMSUL	12	0	5	96	192	4
NMTAP	13	0	2
NMTAP	13	0	3
NMTAP	13	96	0
NMTAP	13	192	4
NMTAP	13	192	5
NMTAP	13	288	7
NMSTR	14	0	4
NMSUL	14	0	4	96	96	0
NMTAP	14	0	5
BXTAP	14	240	7
BXTAP	14	288	7
NMTTP	15	0	2	E	0	M1
NMTTP	15	96	6	E	0	M1
NMTHO	15	192	0	144	C	1	M1
EXTAP	16	288	0
EXTAP	16	288	7
NMTAP	17	0	1
NMTAP	17	48	1
NMTAP	17	96	3
NMTAP	17	192	4
NMTAP	17	288	3
NMTAP	17	288	5
NMTAP	18	0	6
NMTAP	18	48	6
NMTAP	18	96	4
NMTAP	18	192	3
NMTAP	18	288	2
NMTAP	18	288	4
NMTAP	19	0	2
NMTAP	19	48	2
NMTAP	19	96	3
NMTAP	19	192	5
NMTAP	19	240	5
NMTAP	19	288	4
NMTAP	20	0	1
NMTAP	20	48	1
NMSTR	20	96	3
NMSCR	20	96	3	96	96	5
NMTAP	21	0	6
NMTAP	21	48	6
NMTAP	21	96	4
NMTAP	21	192	3
NMTAP	21	288	2
NMTAP	21	288	4
NMTAP	22	0	1
NMTAP	22	48	1
NMTAP	22	96	3
NMTAP	22	192	2
NMTAP	22	192	4
BRTAP	22	288	1
BRTAP	22	288	5
NMTAP	23	0	6
NMTAP	23	48	6
NMTAP	23	96	7
NMHLD	23	192	1	96
NMTAP	23	288	0
NMTAP	23	336	0
NMTAP	24	48	1
NMTAP	24	48	7
NMTAP	24	96	1
NMTAP	24	96	7
BRTAP	24	192	2
BRTAP	24	192	6
NMTAP	25	0	2
NMTAP	25	48	2
NMTAP	25	96	0
NMTAP	25	192	1
NMTAP	25	192	7
NMTAP	25	288	0
NMTAP	25	288	6
NMTAP	26	0	5
NMTAP	26	48	5
NMTAP	26	96	7
NMTAP	26	192	0
NMTAP	26	192	6
NMTAP	26	288	1
NMTAP	26	288	7
NMTAP	27	0	1
NMTAP	27	48	1
NMTAP	27	96	0
NMTAP	27	192	6
NMTAP	27	240	6
NMTAP	27	288	7
NMTAP	28	0	2
NMTAP	28	48	2
NMTAP	28	96	0
NMTAP	28	192	1
NMTAP	28	192	7
NMHLD	29	0	1	96
NMHLD	29	0	4	96
NMTAP	29	144	3
NMTAP	29	144	6
NMTAP	29	240	4
NMTAP	29	240	5
NMTAP	29	288	4
NMTAP	29	288	5
NMHLD	30	0	3	96
NMHLD	30	0	6	96
NMTAP	30	144	1
NMTAP	30	144	4
NMTAP	30	240	2
NMTAP	30	240	3
NMTAP	30	288	2
NMTAP	30	288	3
NMHLD	31	0	1	96
NMHLD	31	0	3	96
NMTAP	31	144	4
NMTAP	31	144	6
NMSTR	31	240	0
NMSXL	31	240	0	96	240	3
NMSTR	31	240	7
NMSXR	31	240	7	96	240	4
NMTAP	33	0	2
NMSTR	33	0	3
NMSCR	33	0	3	96	96	6
EXTAP	33	288	6
EXTAP	33	288	7
NMSTR	34	0	4
NMSCL	34	0	4	96	96	1
NMTAP	34	0	5
EXTAP	34	288	0
EXTAP	34	288	1
NMTAP	35	0	2
NMSTR	35	0	3
NMSCR	35	0	3	96	96	6
EXTAP	35	288	6
EXTAP	35	288	7
NMSTR	36	0	4
NMSCL	36	0	4	96	96	1
NMTAP	36	0	5
EXTAP	36	288	0
EXTAP	36	288	1
NMSTR	37	0	2
NMSI_	37	0	2	96	48	0
NMSTR	37	192	5
NMSI_	37	192	5	96	48	7
NMSTR	38	0	2
NMSCL	38	0	2	96	48	0
NMSTR	38	192	5
NMSCR	38	192	5	96	48	7
NMTTP	39	0	1	E	0	M1
NMTTP	39	96	3	B	0	M1
NMTTP	39	96	3	E	0	M1
NMTTP	39	192	7	E	0	M1
NMTTP	39	288	4	B	0	M1
NMTTP	39	288	5	E	0	M1
NMTTP	40	0	0	C	1	M1
EXTAP	40	288	0
EXTAP	40	288	7
BRTAP	41	0	1
BRTAP	41	0	7
NMTAP	41	96	4
NMTAP	41	96	5
NMTAP	41	192	2
NMTAP	41	192	3
NMTAP	41	288	6
NMHLD	41	336	6	96
NMTAP	42	48	7
NMTAP	42	144	0
NMTAP	42	144	5
NMHLD	42	240	2	96
NMTAP	42	336	0
NMHLD	43	48	5	96
NMTAP	43	144	7
NMTAP	43	240	0
NMTAP	43	288	0
NMTAP	44	0	0
NMTAP	44	0	1
NMTAP	44	96	0
NMTAP	44	96	1
NMTAP	44	192	6
NMTAP	44	192	7
NMTAP	44	288	6
NMTAP	44	288	7
NMTAP	45	0	0
NMTAP	45	0	5
NMTAP	45	96	2
NMTAP	45	96	3
NMTAP	45	192	4
NMTAP	45	192	5
NMTAP	45	288	1
NMHLD	45	336	1	96
NMTAP	46	48	0
NMTAP	46	144	1
NMTAP	46	144	7
NMTAP	46	240	0
NMTAP	46	240	6
NMTAP	46	288	0
NMTAP	46	288	6
NMTTP	47	0	4	B	0	M1
NMTTP	47	0	5	E	0	M1
NMTTP	47	96	1	B	0	M1
NMTTP	47	96	1	E	0	M1
NMTTP	47	192	6	B	0	M1
NMTTP	47	192	7	E	0	M1
NMTTP	47	288	3	B	0	M1
NMTTP	47	288	3	E	0	M1
NMTAP	48	0	0
NMTAP	48	96	1
NMTAP	48	192	2
NMTAP	48	192	3
BRTAP	48	288	0
BRTAP	48	288	5
NMTAP	49	0	6
NMTAP	49	0	7
NMTAP	49	96	2
NMTAP	49	96	3
NMTAP	49	192	4
NMTAP	49	192	5
NMTAP	49	288	1
NMHLD	49	336	1	96
NMTAP	50	48	0
NMTAP	50	144	2
NMTAP	50	144	7
NMHLD	50	240	5	96
NMTAP	50	336	7
NMHLD	51	48	2	96
NMTAP	51	144	0
NMTAP	51	240	7
NMTAP	51	288	7
NMTAP	52	0	6
NMTAP	52	0	7
NMTAP	52	96	6
NMTAP	52	96	7
NMTAP	52	192	0
NMTAP	52	192	1
NMTAP	52	288	0
NMTAP	52	288	1
NMTAP	53	0	2
NMTAP	53	0	7
NMTAP	53	96	4
NMTAP	53	96	6
NMTAP	53	192	1
NMTAP	53	192	3
NMTAP	53	288	6
NMTAP	53	288	7
NMTAP	53	336	6
NMTAP	53	336	7
NMTAP	54	48	3
NMTAP	54	48	4
BRTAP	54	144	2
BRTAP	54	144	6
EXTAP	54	240	0
EXTAP	54	240	1
EXSTR	54	288	0
NMSI_	54	288	0	96	48	4
EXSTR	54	288	1
NMSI_	54	288	1	96	48	3
NMSTR	55	96	6
NMSI_	55	96	6	96	48	4
NMSTR	55	96	7
NMSI_	55	96	7	96	48	3
NMSTR	55	288	0
NMSXR	55	288	0	96	288	5
NMSTR	55	288	1
NMSXL	55	288	1	96	288	4
NMTAP	57	0	5
NMTAP	57	48	4
NMTAP	57	96	6
NMTAP	57	192	2
NMTAP	57	240	3
NMTAP	57	288	1
NMTAP	58	0	6
NMTAP	58	48	7
NMTAP	58	96	5
NMTAP	58	192	1
NMTAP	58	240	0
NMTAP	58	288	2
NMTAP	59	0	6
NMTAP	59	96	3
NMTAP	59	96	7
NMTAP	59	192	1
NMTAP	59	288	0
NMTAP	59	288	4
NMTAP	59	336	0
NMTAP	59	336	4
NMTAP	60	48	2
NMTAP	60	48	6
NMTAP	60	96	2
NMTAP	60	96	6
BRTAP	60	192	0
BRTAP	60	192	4
NMHLD	61	0	1	384
NMHLD	62	0	3	384
NMHLD	63	0	4	384
NMHLD	64	0	6	384
BRTAP	65	0	0
NMTAP	65	96	5
NMTAP	65	192	3
NMTAP	65	192	4
NMTAP	65	288	2
BRTAP	66	0	1
NMTAP	66	0	7
NMTAP	66	96	2
NMTAP	66	192	3
NMTAP	66	192	4
NMTAP	66	288	5
BRTAP	67	0	2
NMTAP	67	0	6
NMTAP	67	96	7
NMTAP	67	192	0
NMTAP	67	192	1
NMTAP	67	288	2
NMHLD	68	0	3	192
NMTAP	68	0	4
NMTAP	68	192	5
NMTAP	68	288	4
NMTAP	68	288	5
BRSTR	69	0	1
BRSSL	69	0	1	96	336	5
BRHLD	69	0	7	1248
CNSCR	70	48	5	0	264	0
CNSSR	70	312	0	0	360	4
CNSCL	71	288	4	0	192	2
EXSTR	72	288	0
NMSI_	72	288	0	96	48	4
EXTAP	72	288	1
EXSTR	73	0	1
NMSI_	73	0	1	96	48	3
EXSTR	73	96	0
NMSI_	73	96	0	96	48	5
EXTAP	73	192	1
EXSTR	73	288	7
NMSI_	73	288	7	96	48	4
EXSTR	74	0	0
NMSI_	74	0	0	96	48	3
EXSTR	74	96	7
NMSI_	74	96	7	96	48	5
EXTAP	74	192	0
EXSTR	74	288	6
NMSI_	74	288	6	96	48	4
EXSTR	75	0	7
NMSI_	75	0	7	96	48	2
EXSTR	75	96	6
NMSI_	75	96	6	96	48	3
EXTAP	75	192	7
EXTAP	75	288	6
EXTAP	75	288	7
NMHLD	76	0	0	96
NMHLD	76	0	7	96
BRTAP	76	192	1
BRTAP	76	192	6
NMTAP	77	0	0
NMTAP	77	0	1
NMTAP	77	96	3
NMTAP	77	192	0
NMTAP	77	192	7
NMTAP	77	288	4
NMTAP	78	0	6
NMTAP	78	0	7
NMTAP	78	96	3
NMTAP	78	192	5
NMTAP	78	240	5
NMTAP	78	288	4
NMTAP	79	0	4
NMTAP	79	0	5
NMTAP	79	96	7
NMTAP	79	192	3
NMTAP	79	192	4
NMTAP	79	288	0
NMTAP	80	0	2
NMTAP	80	0	3
NMTAP	80	96	7
NMTAP	80	192	1
NMTAP	80	240	1
NMTAP	80	288	0
NMHLD	81	0	2	96
NMTAP	81	96	0
NMHLD	81	192	5	96
NMTAP	81	288	7
NMHLD	82	0	1	96
NMTAP	82	96	3
NMHLD	82	192	6	96
NMTAP	82	288	4
NMHLD	83	0	0	96
NMHLD	83	96	2	96
NMHLD	83	192	4	96
NMHLD	83	288	6	96
NMTAP	84	0	0
NMTAP	84	48	0
NMTAP	84	96	7
BRTAP	84	192	2
BRTAP	84	192	6
NMTAP	85	0	6
NMTAP	85	0	7
NMTAP	85	96	3
NMTAP	85	192	0
NMTAP	85	192	1
NMTAP	85	288	4
NMTAP	86	0	4
NMTAP	86	0	5
NMTAP	86	96	7
NMTAP	86	192	2
NMTAP	86	192	3
NMTAP	86	288	0
NMTAP	87	0	3
NMTAP	87	0	6
NMTAP	87	96	4
NMTAP	87	96	5
NMTAP	87	192	2
NMTAP	87	192	3
NMTAP	87	288	1
NMSTR	87	288	4
NMSXL	87	288	4	96	192	2
NMTAP	88	288	1
NMTAP	88	288	3
NMHLD	89	0	1	96
NMHLD	89	0	3	96
NMHLD	89	144	3	96
NMHLD	89	144	4	96
NMTAP	89	288	4
NMTAP	89	288	6
NMTAP	90	0	2
NMTAP	90	0	7
NMTAP	90	96	0
NMTAP	90	96	1
NMTAP	90	192	6
NMTAP	90	192	7
NMTAP	90	288	0
NMTAP	90	288	5
NMTAP	91	0	1
NMTAP	91	48	1
NMTAP	91	96	3
NMTAP	91	144	3
NMTAP	91	192	2
NMTAP	91	240	2
NMTAP	91	288	7
NMTAP	91	336	7
NMTAP	92	0	0
NMTAP	92	48	0
NMTAP	92	96	6
NMTAP	92	144	6
NMTAP	92	192	4
NMTAP	92	240	4
NMTAP	92	288	5
NMTAP	92	336	5
BRSTR	93	0	0
NMSCR	93	0	0	96	1056	7
NMSTR	97	0	7
NMSCL	97	0	7	96	864	0
NMTHO	100	0	0	192	C	0	M1
EXTAP	100	288	0
EXTAP	100	288	7
BRTAP	101	0	0
BRTAP	101	0	6
NMTAP	101	96	1
NMTAP	101	96	3
NMTAP	101	192	4
NMTAP	101	192	5
NMTAP	101	288	1
NMHLD	101	336	1	96
NMTAP	102	48	0
NMTAP	102	144	2
NMTAP	102	144	7
NMHLD	102	240	5	96
NMTAP	102	336	7
NMHLD	103	48	2	96
NMTAP	103	144	0
NMTAP	103	240	6
NMTAP	103	288	6
NMTAP	104	0	5
NMTAP	104	0	7
NMTAP	104	96	5
NMTAP	104	96	7
NMTAP	104	192	0
NMTAP	104	192	2
NMTAP	104	288	0
NMTAP	104	288	2
NMTAP	105	0	1
NMTAP	105	0	7
NMTAP	105	96	2
NMTAP	105	96	3
NMTAP	105	192	4
NMTAP	105	192	6
NMTAP	105	288	0
NMTAP	105	288	1
NMTAP	105	336	0
NMTAP	105	336	1
NMTAP	106	48	3
NMTAP	106	48	4
BRTAP	106	144	1
BRTAP	106	144	5
EXTAP	106	240	6
EXTAP	106	240	7
EXSTR	106	288	6
NMSI_	106	288	6	96	48	2
EXSTR	106	288	7
NMSI_	106	288	7	96	48	3
NMSTR	107	96	0
NMSI_	107	96	0	96	48	4
NMSTR	107	96	1
NMSI_	107	96	1	96	48	5
NMSTR	107	288	6
NMSXR	107	288	6	96	288	2
NMSTR	107	288	7
NMSXL	107	288	7	96	288	3
NMTAP	109	0	2
NMTAP	109	0	3
NMTAP	109	48	2
NMTAP	109	48	3
NMTAP	109	96	1
NMTAP	109	96	4
NMTAP	109	192	4
NMTAP	109	192	5
NMTAP	109	240	4
NMTAP	109	240	5
NMTAP	109	288	3
NMTAP	109	288	6
NMTAP	110	0	0
NMTAP	110	0	1
NMTAP	110	48	0
NMTAP	110	48	1
NMTAP	110	96	2
NMTAP	110	96	7
NMTAP	110	192	6
NMTAP	110	192	7
NMTAP	110	240	6
NMTAP	110	240	7
NMTAP	110	288	0
NMTAP	110	288	5
NMTAP	111	0	1
NMTAP	111	0	3
NMTAP	111	96	0
NMTAP	111	96	4
NMTAP	111	192	4
NMTAP	111	192	6
NMTAP	111	288	3
NMTAP	111	288	7
NMTAP	111	336	3
NMTAP	111	336	7
NMTAP	112	48	1
NMTAP	112	48	5
NMTAP	112	96	1
NMTAP	112	96	5
NMTTP	112	192	0	A	0	M1
NMTTP	112	192	0	D	1	M1
NMTTP	112	192	1	D	0	M1
NMTTP	112	192	7	A	0	M1
NMTTP	112	192	7	D	0	M1
NMTAP	113	0	2
NMTAP	113	0	3
NMTAP	113	96	0
NMTAP	113	96	7
NMTAP	113	192	4
NMTAP	113	192	5
NMTAP	113	288	0
NMTAP	113	288	7
NMSTR	114	0	2
NMSUR	114	0	2	96	96	7
NMSTR	114	0	3
NMSCR	114	0	3	96	96	6
BRTAP	114	240	0
BRTAP	114	288	0
NMHLD	115	0	1	96
NMHLD	115	96	3	96
NMHLD	115	192	5	96
NMHLD	115	288	7	96
NMTAP	116	0	1
NMSTR	116	48	1
NMSXR	116	48	1	96	240	4
NMTAP	117	0	5
NMTAP	117	96	0
NMTAP	117	96	7
NMTAP	117	192	2
NMTAP	117	192	3
NMTAP	117	288	0
NMTAP	117	288	7
NMSTR	118	0	4
NMSCL	118	0	4	96	96	1
NMSTR	118	0	5
NMSUL	118	0	5	96	96	0
BRTAP	118	240	7
BRTAP	118	288	7
NMTTP	119	0	5	B	0	M1
NMTTP	119	0	6	B	0	M1
NMTTP	119	96	0	B	0	M1
NMTTP	119	96	7	B	0	M1
NMTTP	119	192	1	B	0	M1
NMTTP	119	192	2	B	0	M1
NMTTP	119	288	3	B	0	M1
NMTTP	119	288	4	B	0	M1
NMTTP	120	0	0	E	0	M1
NMTTP	120	48	7	E	0	M1
NMTTP	120	96	6	E	0	M1
NMTTP	120	144	5	E	0	M1
NMTTP	120	192	4	E	0	M1
NMTTP	120	240	3	E	0	M1
NMTTP	120	288	2	E	0	M1
NMTTP	120	336	1	E	0	M1
NMHLD	121	96	0	1728
NMSTR	121	96	6
NMSI_	121	96	6	96	480	0
CNSI_	122	288	0	0	672	4
CNSI_	124	192	4	0	480	2

T_REC_TAP	384
T_REC_BRK	27
T_REC_XTP	26
T_REC_BXX	4
T_REC_HLD	48
T_REC_XHO	0
T_REC_BHO	1
T_REC_BXH	0
T_REC_STR	30
T_REC_BST	2
T_REC_XST	13
T_REC_XBS	0
T_REC_TTP	41
T_REC_THO	2
T_REC_SLD	44
T_REC_BSL	1
T_REC_ALL	623
T_NUM_TAP	494
T_NUM_BRK	35
T_NUM_HLD	50
T_NUM_SLD	44
T_NUM_ALL	623
T_JUDGE_TAP	527
T_JUDGE_HLD	231
T_JUDGE_SLD	45
T_JUDGE_ALL	803
TTM_EACHPAIRS	171
TTM_SCR_TAP	247000
TTM_SCR_BRK	91000
TTM_SCR_HLD	50000
TTM_SCR_SLD	66000
TTM_SCR_ALL	454000
TTM_SCR_S	437000
TTM_SCR_SS	450500
TTM_RAT_ACV	10077

