VERSION	0.00.00	1.04.00
FES_MODE	0
BPM_DEF	192.000	192.000	192.000	192.000
MET_DEF	4	4
RESOLUTION	384
CLK_DEF	384
COMPATIBLE_CODE	MA2

BPM	0	0	192.000
MET	0	0	4	4

NMTAP	9	0	6
NMTAP	9	96	6
NMTAP	9	192	6
NMTAP	10	0	5
NMTAP	10	96	5
NMTAP	10	192	5
NMTAP	11	0	4
NMTAP	11	96	4
NMTAP	11	192	4
NMTAP	12	0	2
NMTAP	12	0	3
NMTAP	12	192	2
NMTAP	12	192	3
NMTAP	13	0	1
NMTAP	13	96	1
NMTAP	13	192	1
NMTAP	14	0	2
NMTAP	14	96	2
NMTAP	14	192	2
NMTAP	15	0	3
NMTAP	15	96	3
NMTAP	15	192	3
NMTAP	16	0	4
NMTAP	16	0	5
NMSTR	17	0	5
NMSI_	17	0	5	96	192	2
NMSTR	18	0	1
NMSI_	18	0	1	96	192	4
NMSTR	19	0	6
NMSI_	19	0	6	96	192	3
NMTAP	20	0	2
NMTAP	20	192	2
NMTAP	20	192	3
NMSTR	21	0	1
NMSI_	21	0	1	96	192	5
NMSTR	22	0	7
NMSI_	22	0	7	96	192	3
NMSTR	23	0	1
NMSI_	23	0	1	96	192	4
NMTAP	24	0	5
NMTAP	24	192	3
NMTAP	24	192	4
NMTAP	25	0	2
NMTAP	25	96	2
NMTAP	25	192	2
NMTAP	25	192	3
NMTAP	26	0	1
NMTAP	26	96	1
NMTAP	26	192	0
NMTAP	26	192	1
NMTAP	27	0	7
NMTAP	27	96	7
NMTAP	27	192	6
NMTAP	27	192	7
NMTAP	28	0	4
NMTAP	28	0	5
NMTAP	28	96	4
NMTAP	28	96	5
NMTAP	28	192	4
NMTAP	28	192	5
NMTAP	29	0	5
NMTAP	29	96	5
NMTAP	29	192	4
NMTAP	29	192	5
NMTAP	30	0	6
NMTAP	30	96	6
NMTAP	30	192	6
NMTAP	30	192	7
NMTAP	31	0	0
NMTAP	31	96	0
NMTAP	31	192	0
NMTAP	31	192	1
NMTAP	32	0	2
NMTAP	32	0	3
NMTAP	32	96	2
NMTAP	32	96	3
NMTAP	32	192	2
NMTAP	32	192	3
NMHLD	33	0	2	192
NMTAP	33	192	3
NMTAP	34	0	2
NMTAP	34	96	2
NMTAP	34	192	2
NMTAP	34	192	3
NMHLD	35	0	1	192
NMTAP	35	192	0
NMTAP	36	0	1
NMTAP	36	96	1
NMTAP	36	192	0
NMTAP	36	192	1
NMHLD	37	0	6	192
NMTAP	37	192	7
NMTAP	38	0	6
NMTAP	38	96	6
NMTAP	38	192	6
NMTAP	38	192	7
NMHLD	39	0	5	192
NMTAP	39	192	4
NMTAP	40	0	5
NMTAP	40	96	5
NMTAP	40	192	4
NMTAP	40	192	5
BXTAP	41	0	5
NMTAP	41	96	5
NMTAP	41	192	6
NMTAP	41	288	6
NMTAP	42	0	7
NMTAP	42	96	7
NMTAP	42	192	0
NMTAP	42	192	1
NMTAP	43	0	2
NMTAP	43	96	2
NMTAP	43	192	1
NMTAP	43	288	1
NMTAP	44	0	0
NMTAP	44	96	0
NMTAP	44	192	6
NMTAP	44	192	7
NMTAP	45	0	6
NMTAP	45	96	6
NMTAP	45	192	5
NMTAP	45	288	5
NMTAP	46	0	4
NMTAP	46	96	4
NMTAP	46	192	2
NMTAP	46	192	3
NMTAP	47	0	1
NMTAP	47	96	1
NMTAP	47	192	2
NMTAP	47	288	2
NMTAP	48	0	3
NMTAP	48	96	3
NMTAP	48	192	4
NMTAP	48	192	5
BRTAP	49	0	5
NMTAP	49	96	5
NMTAP	49	192	6
NMTAP	49	288	6
NMTAP	50	0	7
NMTAP	50	96	7
NMTAP	50	192	0
NMTAP	50	192	1
NMTAP	51	0	2
NMTAP	51	96	2
NMTAP	51	192	1
NMTAP	51	288	1
NMTAP	52	0	0
NMTAP	52	96	0
NMTAP	52	192	6
NMTAP	52	192	7
NMTAP	53	0	6
NMTAP	53	96	6
NMTAP	53	192	5
NMTAP	53	288	5
NMTAP	54	0	4
NMTAP	54	96	4
NMTAP	54	192	2
NMTAP	54	192	3
NMTAP	55	0	1
NMTAP	55	96	1
NMTAP	55	192	2
NMTAP	55	288	2
NMTAP	56	0	3
NMTAP	56	96	3
NMTAP	56	192	4
NMTAP	56	192	5
NMTAP	57	0	6
NMTAP	57	96	6
NMTAP	57	192	6
NMTAP	57	192	7
NMTAP	58	0	1
NMTAP	58	96	1
NMTAP	58	192	0
NMTAP	58	192	1
NMTAP	59	0	1
NMTAP	59	96	2
NMTAP	59	192	3
NMTAP	59	288	4
NMTAP	60	0	5
NMTAP	60	96	6
NMTAP	60	192	0
NMTAP	60	192	7
NMHLD	61	0	1	192
NMHLD	61	192	0	192
NMHLD	62	0	7	192
NMTAP	62	192	6
NMHLD	63	0	6	192
NMHLD	63	192	7	192
NMHLD	64	0	0	192
NMTAP	64	192	1
NMHLD	65	0	1	192
NMHLD	65	192	2	192
NMHLD	66	0	3	192
NMTAP	66	192	4
NMHLD	67	0	6	192
NMHLD	67	192	5	192
NMHLD	68	0	4	192
NMTAP	68	192	3
BRTAP	69	0	5
NMTAP	69	96	5
NMTAP	69	192	5
NMTAP	69	288	5
NMTAP	70	0	6
NMTAP	70	96	6
NMTAP	70	192	6
NMTAP	70	288	6
NMTAP	71	0	7
NMTAP	71	96	7
NMTAP	71	192	7
NMTAP	71	288	7
NMTAP	72	0	0
NMTAP	72	0	1
NMTAP	72	192	0
NMTAP	72	192	1
NMTAP	73	0	2
NMTAP	73	96	2
NMTAP	73	192	2
NMTAP	73	288	2
NMTAP	74	0	1
NMTAP	74	96	1
NMTAP	74	192	1
NMTAP	74	288	1
NMTAP	75	0	0
NMTAP	75	96	0
NMTAP	75	192	0
NMTAP	75	288	0
NMTAP	76	0	6
NMTAP	76	0	7
NMTTP	77	0	6	B	0	L1
NMTTP	77	96	5	B	0	L1
NMTTP	77	192	4	B	0	L1
NMTTP	78	0	1	B	0	L1
NMTTP	78	96	2	B	0	L1
NMTTP	78	192	3	B	0	L1
NMTTP	79	0	6	B	0	L1
NMTTP	79	96	5	B	0	L1
NMTTP	79	192	4	B	0	L1
NMTTP	79	288	3	B	0	L1
NMTTP	80	0	2	B	0	L1
NMTTP	80	96	1	B	0	L1
NMTTP	80	192	0	C	0	L1
NMTTP	81	0	0	B	0	L1
NMTTP	81	96	1	B	0	L1
NMTTP	81	192	2	B	0	L1
NMTTP	81	192	3	B	0	L1
NMTTP	82	0	7	B	0	L1
NMTTP	82	96	6	B	0	L1
NMTTP	82	192	4	B	0	L1
NMTTP	82	192	5	B	0	L1
NMTTP	83	0	1	B	0	L1
NMTTP	83	96	2	B	0	L1
NMTTP	83	192	3	B	0	L1
NMTTP	83	288	4	B	0	L1
NMTTP	84	0	5	B	0	L1
NMTTP	84	96	6	B	0	L1
NMTTP	84	192	0	C	0	L1
NMTAP	85	0	0
NMTAP	85	96	0
NMTAP	85	192	1
NMTAP	85	288	1
NMTAP	86	0	2
NMTAP	86	96	2
NMTAP	86	192	3
NMTAP	86	288	3
NMTAP	87	0	4
NMTAP	87	96	4
NMTAP	87	192	5
NMTAP	87	288	5
NMTAP	88	0	6
NMTAP	88	96	6
NMTAP	88	192	0
NMTAP	88	192	7
NMTAP	89	0	7
NMTAP	89	96	7
NMTAP	89	192	6
NMTAP	89	288	6
NMTAP	90	0	5
NMTAP	90	96	5
NMTAP	90	192	4
NMTAP	90	288	4
NMTAP	91	0	3
NMTAP	91	96	3
NMTAP	91	192	2
NMTAP	91	288	2
NMTAP	92	0	1
NMTAP	92	96	1
NMTAP	92	192	0
NMTAP	92	192	7
NMSTR	93	0	0
NMSI_	93	0	0	96	288	4
NMTAP	94	192	5
NMSTR	95	0	6
NMSI_	95	0	6	96	288	2
NMTAP	96	192	1
NMSTR	97	0	1
NMSI_	97	0	1	96	288	5
NMTAP	98	192	6
NMSTR	99	0	0
NMSI_	99	0	0	96	288	3
NMSTR	99	0	7
NMSI_	99	0	7	96	288	4
NMTAP	101	0	5
NMTAP	101	96	5
NMTAP	101	192	6
NMTAP	101	192	7
NMTAP	101	288	6
NMTAP	101	288	7
NMTAP	102	0	0
NMTAP	102	96	0
NMTAP	102	192	0
NMTAP	102	192	1
NMTAP	103	0	2
NMTAP	103	96	2
NMTAP	103	192	0
NMTAP	103	192	1
NMTAP	103	288	0
NMTAP	103	288	1
NMTAP	104	0	7
NMTAP	104	96	7
NMTAP	104	192	6
NMTAP	104	192	7
NMTAP	105	0	6
NMTAP	105	96	6
NMTAP	105	192	4
NMTAP	105	192	5
NMTAP	105	288	4
NMTAP	105	288	5
NMTAP	106	0	3
NMTAP	106	96	3
NMTAP	106	192	2
NMTAP	106	192	3
NMTAP	107	0	1
NMTAP	107	96	1
NMTAP	107	192	2
NMTAP	107	192	3
NMTAP	107	288	2
NMTAP	107	288	3
NMTAP	108	0	4
NMTAP	108	96	4
NMTAP	108	192	4
NMTAP	108	192	5
NMTAP	109	0	6
NMTAP	109	96	6
NMTAP	109	192	6
NMTAP	109	192	7
NMTAP	110	0	1
NMTAP	110	96	1
NMTAP	110	192	0
NMTAP	110	192	1
NMTAP	111	0	0
NMTAP	111	0	7
NMTAP	111	96	0
NMTAP	111	96	7
NMTAP	111	192	1
NMTAP	111	192	6
NMTAP	111	288	1
NMTAP	111	288	6
NMTAP	112	0	2
NMTAP	112	0	5
NMTAP	112	96	2
NMTAP	112	96	5
BXTAP	112	192	3
BXTAP	112	192	4
NMTAP	113	0	3
NMTAP	113	96	2
NMTAP	113	192	1
NMTAP	113	288	0
NMTAP	114	0	7
NMTAP	114	96	6
NMTAP	114	192	4
NMTAP	114	192	5
NMTAP	115	0	4
NMTAP	115	96	5
NMTAP	115	192	6
NMTAP	115	288	7
NMTAP	116	0	0
NMTAP	116	96	1
NMTAP	116	192	2
NMTAP	116	192	3
NMTAP	117	0	2
NMTAP	117	0	3
NMTAP	117	96	2
NMTAP	117	96	3
NMTAP	117	192	1
NMTAP	117	192	4
NMTAP	118	0	4
NMTAP	118	0	5
NMTAP	118	96	4
NMTAP	118	96	5
NMTAP	118	192	3
NMTAP	118	192	6
NMTAP	119	0	3
NMTAP	119	0	4
NMTAP	119	96	3
NMTAP	119	96	4
NMTAP	119	192	2
NMTAP	119	192	5
NMTAP	119	288	2
NMTAP	119	288	5
NMTAP	120	0	1
NMTAP	120	0	6
NMTAP	120	96	1
NMTAP	120	96	6
NMHLD	120	192	0	288
NMHLD	120	192	7	288

T_REC_TAP	332
T_REC_BRK	2
T_REC_XTP	0
T_REC_BXX	3
T_REC_HLD	18
T_REC_XHO	0
T_REC_BHO	0
T_REC_BXH	0
T_REC_STR	11
T_REC_BST	0
T_REC_XST	0
T_REC_XBS	0
T_REC_TTP	28
T_REC_THO	0
T_REC_SLD	11
T_REC_BSL	0
T_REC_ALL	405
T_NUM_TAP	371
T_NUM_BRK	5
T_NUM_HLD	18
T_NUM_SLD	11
T_NUM_ALL	405
T_JUDGE_TAP	376
T_JUDGE_HLD	76
T_JUDGE_SLD	11
T_JUDGE_ALL	463
TTM_EACHPAIRS	74
TTM_SCR_TAP	185500
TTM_SCR_BRK	13000
TTM_SCR_HLD	18000
TTM_SCR_SLD	16500
TTM_SCR_ALL	233000
TTM_SCR_S	225550
TTM_SCR_SS	232500
TTM_RAT_ACV	10021

