VERSION	0.00.00	1.04.00
FES_MODE	0
BPM_DEF	 92.500	 92.500	142.500	 92.500
MET_DEF	4	4
RESOLUTION	384
CLK_DEF	384
COMPATIBLE_CODE	MA2

BPM	0	0	 92.500
BPM	29	192	142.500
BPM	37	192	 92.500
MET	0	0	4	4
MET	29	0	4	2
MET	29	192	4	4
MET	37	192	4	1
MET	37	288	4	4

NMTTP	1	0	6	D	0	M1
NMTTP	1	72	5	E	0	M1
NMTTP	1	144	4	E	0	M1
NMTTP	1	216	3	E	0	M1
NMTTP	1	288	2	D	0	M1
NMTTP	2	0	2	A	0	M1
NMTTP	2	72	3	A	0	M1
NMTTP	2	144	4	D	0	M1
NMTTP	2	216	4	A	0	M1
NMTTP	2	288	5	A	0	M1
NMTTP	3	0	6	D	0	M1
NMTTP	3	72	5	E	0	M1
NMTTP	3	144	4	E	0	M1
NMTTP	3	216	3	E	0	M1
NMTTP	3	288	2	D	0	M1
NMTTP	4	0	2	A	0	M1
NMTTP	4	72	3	A	0	M1
NMTTP	4	144	4	D	0	M1
NMTTP	4	216	4	A	0	M1
NMTTP	4	288	5	A	0	M1
NMSTR	5	0	6
NMSI_	5	0	6	96	24	4
NMTAP	5	72	3
NMTAP	5	96	6
NMTAP	5	144	3
NMSTR	5	192	5
NMSI_	5	192	5	96	24	3
NMTAP	5	216	2
NMTAP	5	288	2
NMTAP	5	288	5
NMSTR	6	0	1
NMSI_	6	0	1	96	24	3
NMTAP	6	72	4
NMTAP	6	96	1
NMTAP	6	144	4
NMSTR	6	192	2
NMSI_	6	192	2	96	24	4
NMTAP	6	216	5
NMTAP	6	288	2
NMTAP	6	288	5
NMSTR	7	0	6
NMSI_	7	0	6	96	24	4
NMTAP	7	72	3
NMTAP	7	96	6
NMTAP	7	144	3
NMSTR	7	192	5
NMSI_	7	192	5	96	24	3
NMTAP	7	216	2
NMTAP	7	288	2
NMTAP	7	288	5
NMSTR	8	0	1
NMSI_	8	0	1	96	24	3
NMTAP	8	72	4
NMTAP	8	96	1
NMTAP	8	144	4
EXTAP	8	216	2
EXTAP	8	216	5
NMTAP	8	264	3
NMTAP	8	276	4
NMTAP	8	288	3
NMTAP	8	312	3
NMSTR	8	336	3
NMSI_	8	336	3	96	24	5
NMTAP	9	0	2
NMSTR	9	48	3
NMSV_	9	48	3	96	24	6
NMTAP	9	96	2
NMSTR	9	144	3
NMSUL	9	144	3	96	24	7
NMTAP	9	192	2
NMTAP	9	240	3
NMTAP	9	336	7
NMTAP	10	0	0
NMSTR	10	48	1
NMSI_	10	48	1	96	48	7
NMSTR	10	48	7
NMSI_	10	48	7	96	48	1
NMTAP	10	72	1
NMTAP	10	72	7
CNSI_	10	192	1	0	48	4
CNSI_	10	192	7	0	48	4
NMTTP	10	288	3	D	0	M1
NMTTP	10	288	6	D	0	M1
NMTTP	10	292	5	A	0	M1
NMTTP	10	294	3	A	0	M1
NMSTR	11	0	0
NMSI_	11	0	0	96	24	5
NMTAP	11	0	7
NMTAP	11	48	2
NMSTR	11	96	1
NMSLR	11	96	1	96	48	0
CNSI_	11	120	5	0	24	7
NMTAP	11	144	2
NMTAP	11	192	6
BRTAP	11	240	7
BRTAP	11	288	7
NMTAP	11	336	6
NMTAP	12	0	5
NMTAP	12	48	4
NMHLD	12	72	4	72
NMTAP	12	120	3
NMTAP	12	144	3
NMTAP	12	216	2
NMTAP	12	216	3
NMSTR	12	288	1
NMSI_	12	288	1	96	24	6
NMSTR	12	288	2
NMSI_	12	288	2	96	24	5
BXTAP	13	0	1
BXTAP	13	0	2
CNSCL	13	24	5	0	24	3
CNSCL	13	24	6	0	24	3
BXSTR	13	96	1
NMSI_	13	96	1	96	24	6
BXSTR	13	96	2
NMSI_	13	96	2	96	24	5
NMTAP	13	144	0
BXTAP	13	192	1
BXTAP	13	192	2
CNSCR	13	216	5	0	24	0
CNSCR	13	216	6	0	24	0
BXTAP	13	288	1
BXTAP	13	288	2
NMTAP	13	336	3
NMTTP	14	0	6	B	0	M1
NMTTP	14	0	6	A	0	M1
NMTTP	14	0	7	B	0	M1
NMTTP	14	0	7	E	0	M1
NMTTP	14	0	7	A	0	M1
NMTTP	14	0	7	D	0	M1
NMTTP	14	48	4	B	0	M1
NMTTP	14	48	4	A	0	M1
NMTTP	14	48	5	B	0	M1
NMTTP	14	48	5	E	0	M1
NMTTP	14	48	5	A	0	M1
NMTTP	14	48	5	D	0	M1
NMTTP	14	96	2	B	0	M1
NMTTP	14	96	2	A	0	M1
NMTTP	14	96	3	B	0	M1
NMTTP	14	96	3	E	0	M1
NMTTP	14	96	3	A	0	M1
NMTTP	14	96	3	D	0	M1
NMTTP	14	144	0	B	0	M1
NMTTP	14	144	0	A	0	M1
NMTTP	14	144	1	B	0	M1
NMTTP	14	144	1	E	0	M1
NMTTP	14	144	1	A	0	M1
NMTTP	14	144	1	D	0	M1
NMTAP	14	192	5
NMTAP	14	224	5
NMTAP	14	240	7
NMTAP	14	272	7
NMSTR	14	288	0
NMSCL	14	288	0	96	24	7
NMTAP	14	320	0
NMTAP	14	336	2
BRSTR	15	0	0
NMSCR	15	0	0	96	24	1
NMHLD	15	0	2	48
CNSV_	15	24	7	0	24	5
BRSTR	15	96	0
NMSCL	15	96	0	96	24	7
NMHLD	15	96	6	48
CNSV_	15	120	1	0	24	3
BRSTR	15	192	0
NMSCR	15	192	0	96	24	1
NMHLD	15	192	2	48
CNSV_	15	216	7	0	24	5
BRTAP	15	288	0
NMHLD	15	288	6	48
CNSV_	15	312	1	0	24	3
NMTAP	16	0	4
NMTAP	16	0	5
NMTAP	16	48	3
NMTAP	16	80	3
NMTAP	16	96	4
NMTAP	16	144	2
NMTAP	16	144	5
NMSTR	16	192	3
NMSV_	16	192	3	96	36	4
NMSTR	16	192	4
NMSV_	16	192	4	96	36	3
NMTTP	16	240	1	E	0	M1
NMTTP	16	240	1	A	0	M1
NMTTP	16	240	6	A	0	M1
NMTTP	16	240	7	E	0	M1
BRTAP	16	288	3
BRTAP	16	288	4
EXTAP	17	0	1
EXSTR	17	0	3
NMSI_	17	0	3	96	32	0
NMTAP	17	48	4
BRTAP	17	96	3
NMTAP	17	96	6
NMHLD	17	144	5	48
NMTAP	17	176	4
NMSTR	17	192	4
NMSI_	17	192	4	96	32	7
NMTAP	17	224	1
NMTAP	17	240	3
NMTAP	17	272	2
BRTAP	17	288	4
NMTAP	17	320	3
NMHLD	17	336	3	192
NMTAP	18	0	1
NMTAP	18	48	7
NMTAP	18	96	2
NMTAP	18	144	6
NMHLD	18	176	6	96
NMHLD	18	224	4	48
BXTAP	18	276	3
BXTAP	18	276	5
BXTAP	18	280	2
BXTAP	18	280	4
BXTAP	18	284	1
BXTAP	18	284	3
BXTAP	18	288	0
BXTAP	18	288	2
NMSTR	19	0	4
NMSI_	19	0	4	96	32	7
NMTAP	19	0	6
NMTAP	19	48	3
NMTAP	19	96	1
BRTAP	19	96	4
NMHLD	19	144	2	48
NMTAP	19	176	3
NMSTR	19	192	3
NMSI_	19	192	3	96	32	0
NMTAP	19	224	6
NMTAP	19	240	4
NMTAP	19	272	5
BRTAP	19	288	3
NMTAP	19	320	4
NMHLD	19	336	4	144
NMTAP	20	0	7
NMTAP	20	48	1
NMTAP	20	96	3
NMTAP	20	128	2
NMTAP	20	128	5
NMTAP	20	144	2
NMTAP	20	144	5
BRTAP	20	192	6
BRTAP	20	192	7
BRTAP	20	240	0
BRTAP	20	240	1
NMSTR	20	288	5
BRSCL	20	288	5	96	72	3
CNSI_	21	72	3	0	72	6
NMTTP	21	96	2	B	0	M1
NMTTP	21	102	3	B	0	M1
CNSCR	21	144	6	0	24	7
CNSI_	21	168	7	0	72	2
CNSCL	21	240	2	0	48	0
NMTTP	21	288	2	B	0	M1
NMTTP	21	294	3	B	0	M1
NMHLD	22	0	4	96
NMTTP	22	96	2	B	0	M1
NMTTP	22	102	3	B	0	M1
NMHLD	22	192	5	96
NMTTP	22	288	2	B	0	M1
NMTTP	22	294	3	B	0	M1
EXTAP	22	336	6
EXTAP	23	0	6
NMTTP	23	96	2	B	0	M1
NMTTP	23	102	3	B	0	M1
NMTAP	23	144	5
NMHLD	23	192	5	128
NMTAP	23	240	3
NMHLD	23	272	3	64
NMTTP	24	0	6	D	1	M1
NMTTP	24	32	5	A	1	M1
NMTTP	24	48	5	E	1	M1
NMTTP	24	80	4	E	1	M1
NMTTP	24	96	3	E	1	M1
NMTTP	24	128	2	A	1	M1
NMTTP	24	144	2	D	1	M1
NMSTR	24	192	7
NMSXL	24	192	7	96	48	0
NMSXR	24	192	7	96	48	6
NMTAP	25	0	0
NMSTR	25	0	7
NMSI_	25	0	7	96	24	2
NMTAP	25	48	5
NMSTR	25	96	6
NMSLL	25	96	6	96	48	7
CNSI_	25	120	2	0	24	0
NMTAP	25	144	5
NMTAP	25	192	1
BRHLD	25	240	0	128
NMTAP	25	320	3
NMHLD	25	336	3	80
NMHLD	26	0	1	80
NMHLD	26	48	4	80
NMHLD	26	96	2	80
NMHLD	26	144	5	80
NMHLD	26	192	3	80
NMHLD	26	240	6	32
BRSTR	26	288	4
NMSXL	26	288	4	96	36	6
BRTAP	26	288	5
NMTAP	27	0	2
NMSTR	27	0	4
NMSXR	27	0	4	96	36	2
NMTAP	27	48	3
NMSTR	27	96	4
NMSXL	27	96	4	96	36	6
NMTAP	27	96	6
NMTAP	27	144	5
NMTAP	27	192	2
NMTAP	27	192	4
NMTAP	27	240	3
NMTAP	27	288	4
NMTAP	27	336	3
NMTAP	27	336	5
NMTAP	28	0	1
NMTAP	28	32	3
NMTAP	28	48	2
NMTAP	28	80	4
NMTAP	28	96	1
NMTAP	28	128	3
NMTAP	28	144	2
NMTAP	28	176	4
EXTAP	28	192	1
EXTAP	28	204	2
EXTAP	28	216	4
EXTAP	28	228	3
EXTAP	28	240	1
EXTAP	28	252	2
EXTAP	28	264	4
EXTAP	28	276	3
EXSTR	28	288	2
BRSCL	28	288	2	96	144	5
BRSUL	28	288	2	96	144	5
BRTAP	29	0	2
EXTAP	29	192	2
EXTAP	29	208	3
EXTAP	29	224	2
EXTAP	29	240	3
EXTAP	29	256	2
EXTAP	29	272	3
EXTAP	29	288	2
EXTAP	29	304	3
EXTAP	29	320	2
EXTAP	29	336	3
EXTAP	29	352	2
EXTAP	29	368	3
BXHLD	30	0	2	192
EXTAP	30	192	7
EXTAP	30	204	0
EXTAP	30	216	1
EXTAP	30	228	2
EXTAP	30	240	3
EXTAP	30	252	4
EXTAP	30	264	5
EXTAP	30	276	6
EXTAP	30	288	7
EXTAP	30	300	0
EXTAP	30	312	1
EXTAP	30	324	2
EXTAP	30	336	3
EXTAP	30	348	4
EXTAP	30	360	5
EXTAP	30	372	6
BXTAP	31	0	0
BXTAP	31	0	7
NMSTR	31	144	5
NMSCR	31	144	5	96	48	7
NMSTR	31	192	4
BRSI_	31	192	4	96	48	2
EXTAP	31	240	5
EXTAP	31	288	4
CNSI_	31	336	2	0	48	5
CNSI_	32	0	5	0	24	1
CNSI_	32	24	1	0	24	6
CNSI_	32	48	6	0	48	0
EXTAP	32	144	0
EXSTR	32	192	0
NMSCL	32	192	0	96	40	5
NMSCR	32	192	0	96	40	3
BXTAP	32	288	0
NMTTP	32	288	0	D	0	M1
NMTTP	32	288	1	D	0	M1
NMTTP	32	304	2	D	0	M1
NMTTP	32	304	7	D	0	M1
NMTTP	32	320	3	D	0	M1
NMTTP	32	320	6	D	0	M1
EXSTR	33	0	0
BRSCL	33	0	0	96	40	5
BRSCR	33	0	0	96	40	3
BXTAP	33	96	0
NMTTP	33	96	0	D	0	M1
NMTTP	33	96	1	D	0	M1
NMTTP	33	104	1	A	0	M1
NMTTP	33	104	7	A	0	M1
NMTTP	33	112	2	D	0	M1
NMTTP	33	112	7	D	0	M1
NMTTP	33	120	2	A	0	M1
NMTTP	33	120	6	A	0	M1
NMTTP	33	128	3	D	0	M1
NMTTP	33	128	6	D	0	M1
EXHLD	33	192	0	96
NMTAP	33	336	6
NMTAP	33	360	7
NMHLD	34	0	5	72
NMTAP	34	48	4
NMTAP	34	72	4
NMTAP	34	120	3
NMTAP	34	144	3
NMSTR	34	192	2
NMSV_	34	192	2	96	48	0
NMSTR	34	192	6
NMSV_	34	192	6	96	48	4
NMTAP	34	240	2
NMTAP	34	240	6
NMSTR	35	0	3
NMSV_	35	0	3	96	48	5
NMSTR	35	0	7
NMSV_	35	0	7	96	48	1
NMTAP	35	48	3
NMTAP	35	48	7
NMTAP	35	192	2
NMTAP	35	216	3
NMTAP	35	240	1
NMTAP	35	264	3
NMTAP	35	288	0
NMTAP	35	312	4
NMSTR	35	336	7
NMSI_	35	336	7	96	48	3
NMTAP	35	360	4
NMSTR	36	0	6
NMSI_	36	0	6	96	48	2
BXTAP	36	48	7
BXTAP	36	96	6
EXTAP	36	192	1
EXTAP	36	192	4
EXTAP	36	204	0
EXTAP	36	204	5
EXTAP	36	216	6
EXTAP	36	216	7
EXTAP	36	288	1
EXTAP	36	288	4
EXTAP	36	300	0
EXTAP	36	300	5
EXTAP	36	312	6
EXTAP	36	312	7
EXTAP	37	0	1
EXTAP	37	0	4
EXTAP	37	12	0
EXTAP	37	12	5
EXHLD	37	24	6	144
EXHLD	37	24	7	144
NMTTP	37	174	6	A	0	M1
NMTTP	37	174	7	B	0	M1
NMTTP	37	179	0	C	0	M1
NMTTP	37	180	5	A	0	M1
NMTTP	37	185	2	B	0	M1
NMTTP	37	186	4	A	0	M1
NMTTP	37	191	2	A	0	M1
NMTTP	37	192	3	A	1	M1
BRTAP	37	288	1
NMTAP	37	320	1
NMTAP	37	336	0
NMTAP	37	368	2
NMTAP	38	0	3
NMTAP	38	32	0
NMTAP	38	48	7
NMTAP	38	80	4
NMSTR	38	96	5
NMSI_	38	96	5	96	24	1
NMTAP	38	128	7
NMSTR	38	144	6
NMSI_	38	144	6	96	24	2
BRTAP	38	192	5
BRTAP	38	240	6
BRTAP	38	288	1
NMHLD	38	320	1	16
NMHLD	38	336	0	32
NMHLD	38	368	2	16
NMHLD	39	0	3	32
NMHLD	39	32	0	16
NMHLD	39	48	7	32
NMHLD	39	80	4	16
NMSTR	39	96	5
NMSCL	39	96	5	96	48	6
NMTAP	39	128	7
NMTAP	39	144	6
BRTAP	39	192	5
NMTTP	39	192	5	E	0	M1
NMTTP	39	200	4	E	0	M1
NMTTP	39	208	3	E	0	M1
NMTTP	39	216	2	E	0	M1
NMTTP	39	224	1	E	0	M1
NMTTP	39	232	0	E	0	M1
NMTTP	39	240	7	E	0	M1
NMSTR	39	288	7
NMSI_	39	288	7	96	48	4
NMSSR	39	288	7	96	48	3
NMTAP	39	336	0
NMTAP	39	336	6
BRTAP	40	0	7
EXTAP	40	80	3
EXTAP	40	80	6
EXTAP	40	128	1
EXTAP	40	128	4
NMTAP	40	176	2
NMTAP	40	192	3
NMTAP	40	224	3
NMHLD	40	240	2	288
NMTTP	40	288	7	D	0	M1
NMTTP	40	296	7	A	0	M1
NMTTP	40	304	0	D	1	M1
NMTTP	40	336	6	D	0	M1
NMTTP	40	344	5	A	0	M1
NMTTP	40	352	5	D	1	M1
NMTTP	41	0	7	E	0	M1
NMTTP	41	8	0	E	0	M1
NMTTP	41	16	0	A	1	M1
NMTTP	41	48	6	E	0	M1
NMTTP	41	56	5	E	0	M1
NMTTP	41	64	4	A	1	M1
NMTTP	41	96	0	B	0	M1
NMTTP	41	104	1	E	0	M1
NMTTP	41	112	1	A	1	M1
NMTTP	41	144	4	B	0	M1
NMTTP	41	152	4	E	0	M1
NMTTP	41	160	3	A	1	M1
EXSTR	41	192	2
NMSXR	41	192	2	96	36	0
EXTAP	41	192	4
BXTAP	41	288	2
BXSTR	41	288	3
NMSXL	41	288	3	96	36	5
NMTAP	41	336	4
BRTAP	42	0	3
BRSTR	42	0	7
NMSXL	42	0	7	96	36	1
NMTAP	42	48	0
BRSTR	42	96	6
NMSXR	42	96	6	96	36	4
BRTAP	42	96	7
NMTAP	42	144	5
BRTAP	42	192	2
BRTAP	42	192	6
NMTAP	42	240	1
NMTAP	42	288	1
NMTAP	42	288	3
NMTAP	42	336	2
NMTAP	42	336	4
NMTAP	43	0	3
NMTAP	43	0	5
NMTAP	43	48	2
NMTAP	43	48	6
NMSTR	43	80	2
NMSLR	43	80	2	96	52	0
NMSTR	43	80	6
NMSLR	43	80	6	96	52	4
NMTAP	43	128	1
NMTAP	43	128	5
NMTAP	43	144	1
NMTAP	43	144	5
BXTAP	43	176	2
BXTAP	43	176	6
BXTAP	43	288	1
BXSTR	43	288	6
NMSXR	43	288	6	96	36	4
NMTAP	43	336	5
BRSTR	44	0	2
NMSXR	44	0	2	96	36	0
BRTAP	44	0	6
NMTAP	44	48	1
BRTAP	44	96	2
BRSTR	44	96	3
NMSXL	44	96	3	96	36	5
NMTAP	44	144	4
BRTAP	44	192	3
BRTAP	44	192	7
NMTAP	44	240	0
NMTAP	44	288	1
NMTAP	44	320	1
NMTAP	44	336	3
NMTAP	44	368	3
BRSTR	45	0	5
BRSI_	45	0	5	96	72	2
BRSCR	45	0	5	96	72	2
NMTAP	45	48	3
NMTAP	45	48	4
CNSI_	45	168	2	0	72	5
CNSCL	45	168	2	0	72	5

T_REC_TAP	168
T_REC_BRK	29
T_REC_XTP	65
T_REC_BXX	24
T_REC_HLD	31
T_REC_XHO	3
T_REC_BHO	1
T_REC_BXH	1
T_REC_STR	42
T_REC_BST	9
T_REC_XST	5
T_REC_XBS	4
T_REC_TTP	118
T_REC_THO	0
T_REC_SLD	58
T_REC_BSL	8
T_REC_ALL	566
T_NUM_TAP	398
T_NUM_BRK	76
T_NUM_HLD	34
T_NUM_SLD	58
T_NUM_ALL	566
T_JUDGE_TAP	464
T_JUDGE_HLD	120
T_JUDGE_SLD	66
T_JUDGE_ALL	650
TTM_EACHPAIRS	74
TTM_SCR_TAP	199000
TTM_SCR_BRK	197600
TTM_SCR_HLD	34000
TTM_SCR_SLD	87000
TTM_SCR_ALL	517600
TTM_SCR_S	494700
TTM_SCR_SS	510000
TTM_RAT_ACV	10149

