VERSION	0.00.00	1.04.00
FES_MODE	0
BPM_DEF	 92.500	 92.500	142.500	 92.500
MET_DEF	4	4
RESOLUTION	384
CLK_DEF	384
COMPATIBLE_CODE	MA2

BPM	0	0	 92.500
BPM	29	192	142.500
BPM	37	192	 92.500
MET	0	0	4	4
MET	29	0	4	2
MET	29	192	4	4
MET	37	192	4	1
MET	37	288	4	4

NMSTR	1	0	2
NMSCR	1	0	2	96	288	5
NMSTR	2	0	6
NMSCR	2	0	6	96	288	1
NMSTR	3	0	2
NMSCR	3	0	2	96	288	5
NMTHO	4	0	0	192	C	0	M1
NMTAP	5	0	0
NMHLD	5	0	1	672
NMTAP	5	96	0
NMTAP	5	192	7
NMTAP	5	240	7
NMSTR	5	288	7
NMSCR	5	288	7	96	192	3
NMTAP	6	288	3
NMHLD	7	0	2	288
NMTAP	7	0	3
NMTAP	7	96	3
NMTAP	7	192	1
NMTAP	7	240	1
NMSTR	7	288	1
NMSCL	7	288	1	96	216	4
EXTAP	8	288	3
EXTAP	8	288	5
NMTAP	9	0	5
NMTAP	9	48	5
NMTAP	9	96	4
NMSTR	9	96	6
NMSI_	9	96	6	96	96	3
NMHLD	10	0	2	96
NMHLD	10	96	4	96
NMTAP	10	192	5
NMTAP	10	240	5
NMTAP	10	288	4
NMTAP	10	288	6
NMSTR	11	0	5
NMSI_	11	0	5	96	96	2
NMSTR	11	192	1
NMSI_	11	192	1	96	96	6
NMSTR	12	0	5
NMSUL	12	0	5	96	192	2
BRTAP	13	0	0
BRTAP	13	0	1
NMTAP	13	48	2
NMTAP	13	96	1
NMTAP	13	96	7
NMTAP	13	192	6
NMTAP	13	192	7
NMTAP	13	240	5
NMTAP	13	288	0
NMTAP	13	288	6
NMTAP	14	0	1
NMTAP	14	0	3
NMTAP	14	48	0
NMTAP	14	96	1
NMTAP	14	96	3
NMTAP	14	192	4
NMTAP	14	192	6
NMTAP	14	240	7
NMTAP	14	288	4
NMTAP	14	288	6
NMTAP	15	0	2
NMTAP	15	0	3
NMTAP	15	48	1
NMTAP	15	96	0
NMTAP	15	96	6
NMTAP	15	192	4
NMTAP	15	192	5
NMTAP	15	240	6
NMTAP	15	288	1
NMTAP	15	288	7
NMTAP	16	0	2
NMTAP	16	0	3
NMTAP	16	48	4
NMTAP	16	96	3
NMSTR	16	96	5
NMSLL	16	96	5	96	144	7
NMHLD	17	0	0	48
NMHLD	17	0	5	48
NMHLD	17	96	2	48
NMHLD	17	96	7	48
NMTAP	17	192	5
NMTAP	17	240	4
NMTAP	17	288	3
NMTAP	17	288	6
NMHLD	18	0	2	48
NMHLD	18	0	7	48
NMHLD	18	96	0	48
NMHLD	18	96	5	48
BRTAP	18	192	2
BRTAP	18	192	3
BRTAP	18	240	1
BRTAP	18	240	4
NMHLD	19	0	6	48
NMTAP	19	48	4
NMHLD	19	96	3	48
NMTAP	19	144	5
NMHLD	19	192	6	48
NMTAP	19	240	4
NMTAP	19	288	3
NMTAP	19	288	7
NMHLD	20	0	1	48
NMTAP	20	48	3
NMHLD	20	96	4	48
NMTAP	20	144	2
NMHLD	20	192	1	48
NMTAP	20	240	3
NMTAP	20	288	0
NMTAP	20	288	4
BXTAP	21	0	1
BXHLD	21	0	5	1344
NMTTP	21	96	2	B	0	M1
NMTTP	21	96	3	B	0	M1
NMTTP	21	288	4	B	0	M1
NMTTP	21	288	5	B	0	M1
NMTTP	22	0	0	C	0	M1
NMTTP	22	96	0	B	0	M1
NMTTP	22	96	1	B	0	M1
NMTTP	22	288	2	B	0	M1
NMTTP	22	288	3	B	0	M1
NMTTP	23	0	0	C	0	M1
NMTTP	23	96	6	B	0	M1
NMTTP	23	96	7	B	0	M1
NMTTP	23	288	0	E	0	M1
NMTTP	24	0	0	C	0	M1
NMTTP	24	96	4	E	0	M1
EXTAP	24	192	3
NMTAP	24	288	2
NMTAP	24	288	4
NMHLD	25	0	0	96
NMHLD	25	96	2	96
NMTAP	25	192	3
NMTAP	25	240	2
NMTAP	25	288	1
NMTAP	25	288	3
NMHLD	26	0	7	96
NMHLD	26	96	5	96
NMTAP	26	192	4
NMTAP	26	240	5
NMTAP	26	288	4
NMTAP	26	288	6
NMHLD	27	0	1	96
NMHLD	27	96	3	96
NMTAP	27	192	4
NMTAP	27	240	3
NMTAP	27	288	2
NMTAP	27	288	4
NMHLD	28	0	5	96
NMHLD	28	96	3	96
NMTAP	28	192	2
NMTHO	28	288	0	96	C	0	M1
NMTTP	28	288	1	B	0	M1
NMTTP	28	288	4	B	0	M1
BXSTR	29	192	0
NMSI_	29	192	0	96	96	4
NMTAP	30	0	6
NMTAP	30	96	6
NMSTR	30	192	5
NMSCL	30	192	5	96	96	2
NMTAP	31	0	1
NMTAP	31	96	1
NMSTR	31	192	2
BRSI_	31	192	2	96	96	7
NMTAP	32	0	6
NMTAP	32	96	6
NMSTR	32	192	5
NMSI_	32	192	5	96	96	0
NMTAP	33	0	2
NMTAP	33	96	2
NMTAP	33	192	1
NMHLD	33	192	3	288
NMTAP	34	0	2
NMSTR	34	96	2
NMSI_	34	96	2	96	96	7
CNSCR	34	288	7	0	96	0
CNSI_	35	0	0	0	96	5
NMHLD	35	192	4	288
NMTAP	35	192	6
NMTAP	36	0	5
NMSTR	36	96	5
NMSI_	36	96	5	96	96	0
CNSCL	36	288	0	0	48	7
CNSI_	36	336	7	0	144	2
BRTAP	37	192	0
BRTAP	37	192	7
EXHLD	37	288	0	48
EXHLD	37	288	1	48
NMHLD	38	0	0	48
NMHLD	38	0	1	48
NMTAP	38	96	2
NMTAP	38	144	3
NMTAP	38	192	4
NMTAP	38	240	5
NMHLD	38	288	6	48
NMHLD	38	288	7	48
NMHLD	39	0	6	48
NMHLD	39	0	7	48
NMTAP	39	96	5
NMTAP	39	144	4
EXTAP	39	192	3
NMTAP	39	192	5
NMTAP	39	240	2
NMTAP	39	288	0
NMTAP	39	288	1
NMTAP	39	336	2
NMTAP	40	0	0
NMTAP	40	0	1
NMTAP	40	48	7
NMTAP	40	96	0
NMTAP	40	96	1
NMTAP	40	144	2
NMTAP	40	144	7
NMTAP	40	192	3
NMTAP	40	192	6
NMTAP	40	288	6
NMTAP	40	288	7
NMTAP	40	336	5
NMTAP	41	0	6
NMTAP	41	0	7
NMTAP	41	48	0
NMTAP	41	96	6
NMTAP	41	96	7
NMTAP	41	144	0
NMTAP	41	144	5
NMTAP	41	192	1
NMTAP	41	192	4
NMTAP	41	288	2
NMTAP	41	288	3
NMTAP	41	336	0
NMTAP	41	336	1
NMTAP	42	0	6
NMTAP	42	0	7
NMTAP	42	96	4
NMTAP	42	96	5
NMTAP	42	144	6
NMTAP	42	144	7
NMTAP	42	192	0
NMTAP	42	192	1
NMTAP	42	288	2
NMTAP	42	288	3
NMTAP	42	336	0
NMTAP	42	336	1
NMSTR	43	0	6
NMSSR	43	0	6	96	96	2
NMTAP	43	0	7
NMTAP	43	288	2
NMTAP	43	288	3
NMTAP	43	336	0
NMTAP	43	336	1
NMTAP	44	0	6
NMTAP	44	0	7
NMTAP	44	96	4
NMTAP	44	96	5
NMTAP	44	144	6
NMTAP	44	144	7
NMTAP	44	192	0
NMTAP	44	192	1
NMTAP	44	288	0
NMTAP	44	288	1
NMTAP	44	336	2
NMTAP	44	336	3
NMTAP	45	0	4
NMSTR	45	0	5
BRSXL	45	0	5	96	72	7
BRSXR	45	0	5	96	72	3

T_REC_TAP	155
T_REC_BRK	8
T_REC_XTP	4
T_REC_BXX	1
T_REC_HLD	34
T_REC_XHO	2
T_REC_BHO	0
T_REC_BXH	1
T_REC_STR	17
T_REC_BST	0
T_REC_XST	0
T_REC_XBS	1
T_REC_TTP	17
T_REC_THO	2
T_REC_SLD	16
T_REC_BSL	3
T_REC_ALL	261
T_NUM_TAP	193
T_NUM_BRK	14
T_NUM_HLD	38
T_NUM_SLD	16
T_NUM_ALL	261
T_JUDGE_TAP	203
T_JUDGE_HLD	204
T_JUDGE_SLD	19
T_JUDGE_ALL	426
TTM_EACHPAIRS	69
TTM_SCR_TAP	96500
TTM_SCR_BRK	36400
TTM_SCR_HLD	38000
TTM_SCR_SLD	24000
TTM_SCR_ALL	194900
TTM_SCR_S	187700
TTM_SCR_SS	193500
TTM_RAT_ACV	10072

