VERSION	0.00.00	1.04.00
FES_MODE	0
BPM_DEF	 92.500	 92.500	142.500	 92.500
MET_DEF	4	4
RESOLUTION	384
CLK_DEF	384
COMPATIBLE_CODE	MA2

BPM	0	0	 92.500
BPM	29	192	142.500
BPM	37	192	 92.500
MET	0	0	4	4
MET	29	0	4	2
MET	29	192	4	4
MET	37	192	4	1
MET	37	288	4	4

NMTAP	1	0	5
NMTAP	1	96	5
NMTAP	1	192	4
NMTAP	1	192	5
NMTAP	2	0	6
NMTAP	2	96	6
NMTAP	2	192	6
NMTAP	2	192	7
NMTAP	3	0	0
NMTAP	3	96	0
NMTAP	3	192	0
NMTAP	3	192	1
NMTAP	4	0	2
NMTAP	4	96	2
NMTAP	4	192	2
NMTAP	4	192	3
NMTAP	5	0	2
NMTAP	5	96	2
NMTAP	5	192	1
NMTAP	5	288	1
NMTAP	6	0	0
NMTAP	6	96	0
NMTAP	6	192	6
NMTAP	6	192	7
NMTAP	7	0	5
NMTAP	7	96	5
NMTAP	7	192	6
NMTAP	7	288	6
NMTAP	8	0	7
NMTAP	8	96	7
NMTAP	8	192	0
NMTAP	8	192	1
NMTTP	9	0	1	B	0	L1
NMTTP	9	96	2	B	0	L1
NMTTP	9	192	3	B	0	L1
NMTTP	10	0	6	B	0	L1
NMTTP	10	96	5	B	0	L1
NMTTP	10	192	4	B	0	L1
NMTTP	11	0	1	B	0	L1
NMTTP	11	96	2	B	0	L1
NMTTP	11	192	3	B	0	L1
NMTTP	11	288	4	B	0	L1
NMTTP	12	0	5	B	0	L1
NMTTP	12	96	6	B	0	L1
NMTTP	12	192	0	C	0	L1
EXTAP	13	0	6
EXTAP	13	48	6
EXTAP	13	96	6
NMTAP	13	192	6
NMTAP	13	192	7
NMTAP	13	288	6
NMTAP	13	288	7
NMTAP	14	0	0
NMTAP	14	48	0
NMTAP	14	96	0
NMTAP	14	192	0
NMTAP	14	192	1
NMTAP	15	0	2
NMTAP	15	48	2
NMTAP	15	96	2
NMTAP	15	192	0
NMTAP	15	192	1
NMTAP	15	288	0
NMTAP	15	288	1
NMTAP	16	0	7
NMTAP	16	48	7
NMTAP	16	96	7
NMTAP	16	192	6
NMTAP	16	192	7
NMTAP	17	0	6
NMTAP	17	48	6
NMTAP	17	96	6
NMTAP	17	192	4
NMTAP	17	192	5
NMTAP	17	288	4
NMTAP	17	288	5
NMTAP	18	0	3
NMTAP	18	48	3
NMTAP	18	96	3
NMTAP	18	192	2
NMTAP	18	192	3
NMTAP	19	0	1
NMTAP	19	48	1
NMTAP	19	96	1
NMTAP	19	192	2
NMTAP	19	192	3
NMTAP	19	288	2
NMTAP	19	288	3
NMTAP	20	0	4
NMTAP	20	48	4
NMTAP	20	96	4
BXTAP	20	192	4
BXTAP	20	192	5
NMSTR	21	0	5
NMSI_	21	0	5	96	192	2
NMSTR	22	0	1
NMSI_	22	0	1	96	192	4
NMSTR	23	0	6
NMSI_	23	0	6	96	192	2
NMSTR	24	0	0
NMSI_	24	0	0	96	192	4
NMTAP	25	0	5
NMTAP	25	96	5
NMTAP	25	192	5
NMTAP	25	288	4
NMTAP	25	288	5
NMTAP	26	0	6
NMTAP	26	96	6
NMTAP	26	192	6
NMTAP	26	288	6
NMTAP	26	288	7
NMTAP	27	0	0
NMTAP	27	96	0
NMTAP	27	192	0
NMTAP	27	288	0
NMTAP	27	288	1
NMTAP	28	0	2
NMTAP	28	0	3
NMTAP	28	96	2
NMTAP	28	96	3
NMTAP	28	192	2
NMTAP	28	192	3
EXTAP	29	0	1
EXTAP	29	0	4
NMHLD	29	192	2	192
NMHLD	30	0	3	192
NMHLD	30	192	4	192
NMTAP	31	0	5
NMHLD	31	192	5	192
NMHLD	32	0	4	192
NMHLD	32	192	3	192
NMTAP	33	0	2
NMHLD	33	192	1	192
NMHLD	34	0	2	192
NMHLD	34	192	3	192
NMTAP	35	0	4
NMHLD	35	192	6	192
NMHLD	36	0	5	192
NMHLD	36	192	4	192
NMTAP	37	0	3
EXTAP	37	288	2
EXTAP	37	336	2
EXTAP	38	0	2
NMTAP	38	96	0
NMTAP	38	96	1
NMTAP	38	192	0
NMTAP	38	192	1
NMTAP	38	288	7
NMTAP	38	336	7
NMTAP	39	0	7
NMTAP	39	96	6
NMTAP	39	96	7
NMTAP	39	192	6
NMTAP	39	192	7
EXTAP	39	288	5
EXTAP	39	336	5
EXTAP	40	0	5
NMTAP	40	96	6
NMTAP	40	96	7
NMTAP	40	192	6
NMTAP	40	192	7
NMTAP	40	288	0
NMTAP	40	336	0
NMTAP	41	0	0
NMTAP	41	96	0
NMTAP	41	96	1
NMTAP	41	288	1
NMTAP	41	336	1
NMTAP	42	0	1
NMTAP	42	96	2
NMTAP	42	96	3
NMTAP	42	192	2
NMTAP	42	192	3
NMTAP	42	288	4
NMTAP	42	336	4
NMTAP	43	0	4
NMTAP	43	96	4
NMTAP	43	96	5
NMTAP	43	192	4
NMTAP	43	192	5
NMTAP	43	288	6
NMTAP	43	336	6
NMTAP	44	0	6
NMTAP	44	96	4
NMTAP	44	96	5
NMTAP	44	192	4
NMTAP	44	192	5
NMTAP	44	288	3
NMTAP	44	336	3
NMTAP	45	0	3
BRTAP	45	96	2
BRTAP	45	96	3

T_REC_TAP	144
T_REC_BRK	2
T_REC_XTP	11
T_REC_BXX	2
T_REC_HLD	12
T_REC_XHO	0
T_REC_BHO	0
T_REC_BXH	0
T_REC_STR	4
T_REC_BST	0
T_REC_XST	0
T_REC_XBS	0
T_REC_TTP	13
T_REC_THO	0
T_REC_SLD	4
T_REC_BSL	0
T_REC_ALL	192
T_NUM_TAP	172
T_NUM_BRK	4
T_NUM_HLD	12
T_NUM_SLD	4
T_NUM_ALL	192
T_JUDGE_TAP	176
T_JUDGE_HLD	48
T_JUDGE_SLD	4
T_JUDGE_ALL	228
TTM_EACHPAIRS	39
TTM_SCR_TAP	86000
TTM_SCR_BRK	10400
TTM_SCR_HLD	12000
TTM_SCR_SLD	6000
TTM_SCR_ALL	114400
TTM_SCR_S	110600
TTM_SCR_SS	114000
TTM_RAT_ACV	10035

