VERSION	0.00.00	1.04.00
FES_MODE	0
BPM_DEF	 92.500	 92.500	142.500	 92.500
MET_DEF	4	4
RESOLUTION	384
CLK_DEF	384
COMPATIBLE_CODE	MA2

BPM	0	0	 92.500
BPM	29	192	142.500
BPM	37	192	 92.500
MET	0	0	4	4
MET	29	0	4	2
MET	29	192	4	4
MET	37	192	4	1
MET	37	288	4	4

NMHLD	1	0	7	384
NMHLD	3	0	0	384
NMTAP	5	0	7
NMTAP	5	192	7
NMTAP	6	0	6
NMTAP	6	192	6
NMTAP	7	0	5
NMTAP	7	192	5
NMTAP	8	0	4
EXTAP	8	192	3
EXTAP	8	192	4
NMTAP	9	0	3
NMTAP	9	192	3
NMTAP	10	0	2
NMTAP	10	192	2
NMTAP	11	0	1
NMTAP	11	192	1
NMTAP	12	0	0
NMTAP	12	0	7
NMTAP	12	192	0
NMTAP	12	192	7
BRTAP	13	0	0
NMTAP	13	96	0
NMTAP	13	192	1
NMTAP	14	0	2
NMTAP	14	96	2
NMTAP	14	192	3
NMTAP	15	0	4
NMTAP	15	96	4
NMTAP	15	192	5
NMTAP	16	0	6
NMTAP	16	96	6
NMTAP	16	192	7
BRTAP	17	0	7
NMTAP	17	96	7
NMTAP	17	192	6
NMTAP	18	0	5
NMTAP	18	96	5
NMTAP	18	192	3
NMTAP	18	192	4
NMTAP	19	0	3
NMTAP	19	96	3
NMTAP	19	192	2
NMTAP	20	0	1
NMTAP	20	96	1
NMTAP	20	192	0
NMTAP	20	192	7
NMTTP	21	0	0	B	0	L1
NMTTP	21	192	7	B	0	L1
NMTTP	22	0	1	B	0	L1
NMTTP	22	192	6	B	0	L1
NMTTP	23	0	2	B	0	L1
NMTTP	23	192	5	B	0	L1
NMTTP	24	0	3	B	0	L1
NMTTP	24	192	0	C	0	L1
NMTAP	25	0	7
NMTAP	25	96	7
NMTAP	25	192	6
NMTAP	25	192	7
NMTAP	26	0	5
NMTAP	26	96	5
NMTAP	26	192	4
NMTAP	26	192	5
NMTAP	27	0	3
NMTAP	27	96	3
NMTAP	27	192	2
NMTAP	27	192	3
NMTAP	28	0	1
NMTAP	28	96	1
NMTAP	28	192	0
NMTAP	28	192	1
NMTAP	29	0	0
NMTAP	29	0	7
EXSTR	29	192	0
NMSI_	29	192	0	96	288	4
NMSTR	31	192	7
NMSI_	31	192	7	96	288	3
NMSTR	33	192	1
NMSI_	33	192	1	96	288	5
NMSTR	35	192	6
NMSI_	35	192	6	96	288	2
BXTAP	37	288	0
NMTAP	38	0	0
NMTAP	38	96	1
NMTAP	38	192	1
NMTAP	38	288	2
NMTAP	39	0	2
NMTAP	39	96	3
NMTAP	39	192	3
NMTAP	39	288	4
NMTAP	40	0	4
NMTAP	40	96	5
NMTAP	40	192	5
NMTAP	40	288	6
NMTAP	41	0	6
NMTAP	41	96	6
NMTAP	41	96	7
NMTAP	41	288	7
NMTAP	42	0	7
NMTAP	42	96	6
NMTAP	42	96	7
NMTAP	42	192	6
NMTAP	42	192	7
NMTAP	42	288	5
NMTAP	43	0	5
NMTAP	43	96	3
NMTAP	43	96	4
NMTAP	43	288	2
NMTAP	44	0	2
NMTAP	44	96	2
NMTAP	44	96	3
NMTAP	44	192	2
NMTAP	44	192	3
NMTAP	44	288	1
NMTAP	45	0	1
BRTAP	45	96	0
BRTAP	45	96	7

T_REC_TAP	92
T_REC_BRK	4
T_REC_XTP	2
T_REC_BXX	1
T_REC_HLD	2
T_REC_XHO	0
T_REC_BHO	0
T_REC_BXH	0
T_REC_STR	3
T_REC_BST	0
T_REC_XST	1
T_REC_XBS	0
T_REC_TTP	8
T_REC_THO	0
T_REC_SLD	4
T_REC_BSL	0
T_REC_ALL	117
T_NUM_TAP	106
T_NUM_BRK	5
T_NUM_HLD	2
T_NUM_SLD	4
T_NUM_ALL	117
T_JUDGE_TAP	111
T_JUDGE_HLD	32
T_JUDGE_SLD	4
T_JUDGE_ALL	147
TTM_EACHPAIRS	17
TTM_SCR_TAP	53000
TTM_SCR_BRK	13000
TTM_SCR_HLD	2000
TTM_SCR_SLD	6000
TTM_SCR_ALL	74000
TTM_SCR_S	71300
TTM_SCR_SS	73500
TTM_RAT_ACV	10068

