VERSION	0.00.00	1.04.00
FES_MODE	0
BPM_DEF	137.000	137.000	137.000	137.000
MET_DEF	4	4
RESOLUTION	384
CLK_DEF	384
COMPATIBLE_CODE	MA2

BPM	0	0	137.000
MET	0	0	4	4

NMSTR	1	0	1
NMSCR	1	0	1	96	96	4
NMTAP	1	0	5
NMSTR	1	96	4
NMSCR	1	96	4	96	96	7
NMSTR	1	192	7
NMSCR	1	192	7	96	96	2
NMSTR	1	288	2
NMSCR	1	288	2	96	96	5
NMSTR	2	0	5
NMSXR	2	0	5	96	192	1
NMTAP	2	288	7
NMTAP	3	0	2
NMSTR	3	0	6
NMSCL	3	0	6	96	96	3
NMSTR	3	96	3
NMSCL	3	96	3	96	96	0
NMSTR	3	192	0
NMSCL	3	192	0	96	96	5
NMSTR	3	288	5
NMSCL	3	288	5	96	96	2
NMSTR	4	0	2
NMSXL	4	0	2	96	192	6
NMTAP	4	288	2
NMHLD	5	0	4	384
NMSTR	5	0	5
NMSI_	5	0	5	96	48	7
NMSTR	5	192	5
NMSI_	5	192	5	96	48	3
NMSTR	6	0	5
NMSV_	6	0	5	96	96	7
NMTAP	6	192	3
CNSCL	6	192	7	0	96	3
NMTAP	6	288	2
NMSTR	7	0	2
NMSI_	7	0	2	96	48	0
NMHLD	7	0	3	384
NMSTR	7	192	2
NMSI_	7	192	2	96	48	4
NMSTR	8	0	2
NMSXR	8	0	2	96	96	0
CNSLR	8	192	0	0	96	4
NMTAP	8	192	4
NMTAP	8	288	5
NMSTR	9	0	2
NMSI_	9	0	2	96	48	5
NMTAP	9	0	6
NMTAP	9	96	7
NMSTR	9	192	0
NMSI_	9	192	0	96	48	5
NMSTR	10	0	2
NMSI_	10	0	2	96	48	7
NMTAP	10	96	4
NMHLD	10	192	3	96
NMTAP	10	288	7
NMTAP	11	0	0
NMSTR	11	0	4
NMSI_	11	0	4	96	48	0
NMTAP	11	96	1
NMSTR	11	192	2
NMSI_	11	192	2	96	48	5
NMSTR	12	0	7
NMSI_	12	0	7	96	48	3
NMTAP	12	96	2
NMTAP	12	192	1
NMTAP	12	192	5
NMSTR	13	0	1
NMSCR	13	0	1	96	96	5
NMSTR	13	96	6
NMSLR	13	96	6	96	96	2
EXHLD	14	0	2	96
NMSTR	14	0	3
NMSCR	14	0	3	96	48	5
NMSTR	14	192	3
NMSI_	14	192	3	96	48	7
EXHLD	14	192	5	96
NMTAP	15	0	0
NMSTR	15	0	6
NMSUL	15	0	6	96	48	2
NMSTR	15	192	1
NMSUR	15	192	1	96	48	5
NMTAP	15	192	7
EXSTR	16	0	4
NMSI_	16	0	4	96	48	6
EXSTR	16	0	5
NMSI_	16	0	5	96	48	3
EXSTR	16	192	0
NMSI_	16	192	0	96	48	2
EXSTR	16	192	1
NMSI_	16	192	1	96	48	7
EXTAP	17	0	0
EXSTR	17	0	6
NMSCL	17	0	6	96	24	5
NMTTP	17	96	2	B	0	M1
NMTTP	17	96	3	E	0	M1
CNSI_	17	120	5	0	24	3
EXSTR	17	192	1
NMSCR	17	192	1	96	24	2
EXTAP	17	192	7
NMTTP	17	288	5	B	0	M1
NMTTP	17	288	5	E	0	M1
CNSI_	17	312	2	0	24	4
EXTAP	18	0	0
EXTAP	18	0	6
EXSTR	18	96	1
NMSV_	18	96	1	96	48	3
EXSTR	18	96	7
NMSI_	18	96	7	96	48	1
NMTAP	18	288	6
NMSTR	19	0	1
NMSV_	19	0	1	96	48	3
NMSTR	19	96	6
NMSV_	19	96	6	96	48	4
NMSTR	19	192	0
NMSV_	19	192	0	96	48	2
NMTAP	19	288	6
BRSTR	20	0	7
NMSI_	20	0	7	96	96	4
NMSSR	20	0	7	96	96	3
NMTAP	21	0	2
NMSTR	21	0	5
NMSCR	21	0	5	96	96	1
NMSTR	21	96	1
NMSLR	21	96	1	96	96	5
NMSTR	21	192	5
NMSCR	21	192	5	96	48	7
NMSTR	21	288	1
NMSI_	21	288	1	96	48	4
CNSI_	21	336	7	0	48	1
NMSTR	22	0	6
NMSUR	22	0	6	96	96	4
CNSI_	22	48	4	0	48	6
NMSTR	22	96	4
NMSCR	22	96	4	96	96	0
NMTAP	22	192	1
EXTAP	22	288	2
NMSTR	23	0	3
NMSCL	23	0	3	96	48	0
NMTAP	23	0	6
NMSTR	23	96	7
NMSUL	23	96	7	96	48	3
NMSTR	23	192	1
NMSI_	23	192	1	96	48	5
NMSTR	23	288	4
NMSI_	23	288	4	96	48	0
NMSTR	24	0	2
NMSUL	24	0	2	96	48	5
NMSTR	24	96	6
NMSCR	24	96	6	96	48	1
NMTAP	24	192	4
EXTAP	24	288	3
NMTAP	25	0	2
NMSTR	25	0	3
NMSCR	25	0	3	96	96	7
NMSTR	25	96	7
NMSLR	25	96	7	96	96	3
NMSTR	25	192	3
NMSUR	25	192	3	96	96	7
NMSTR	25	288	7
NMSI_	25	288	7	96	48	2
NMSTR	26	0	4
NMSUR	26	0	4	96	96	1
CNSI_	26	48	2	0	48	4
NMSTR	26	96	1
NMSLR	26	96	1	96	96	7
NMTAP	26	192	3
EXTAP	26	288	0
NMSTR	27	0	2
NMSI_	27	0	2	96	48	7
NMTAP	27	0	6
NMSTR	27	96	6
NMSCL	27	96	6	96	48	3
NMSTR	27	192	1
NMSUL	27	192	1	96	48	5
NMSTR	27	288	4
NMSI_	27	288	4	96	48	0
NMSTR	28	0	2
NMSI_	28	0	2	96	48	6
NMTAP	28	192	0
NMTAP	28	192	4
NMTAP	29	0	1
NMSTR	29	0	3
NMSI_	29	0	3	96	48	0
NMTAP	29	96	0
NMTAP	29	192	1
NMSTR	29	240	1
NMSI_	29	240	1	96	48	3
NMSTR	29	336	0
NMSI_	29	336	0	96	48	4
NMTAP	30	48	1
NMSTR	30	144	2
NMSI_	30	144	2	96	48	5
NMTAP	30	144	3
NMTAP	30	240	5
NMTAP	30	336	6
NMSTR	31	0	4
NMSI_	31	0	4	96	48	7
NMTAP	31	0	6
NMTAP	31	96	7
NMTAP	31	192	6
NMSTR	31	240	6
NMSI_	31	240	6	96	48	4
NMSTR	31	336	7
NMSI_	31	336	7	96	48	3
NMTAP	32	48	6
NMTAP	32	144	4
NMSTR	32	144	5
NMSUL	32	144	5	96	144	3
NMTAP	33	0	1
NMTAP	33	48	0
NMTAP	33	96	6
NMSTR	33	96	7
NMSI_	33	96	7	96	48	1
NMTAP	33	192	5
NMTAP	33	240	4
NMTAP	33	288	2
NMTAP	33	288	3
NMTAP	34	0	4
NMTAP	34	0	5
NMTAP	34	48	6
NMSTR	34	96	0
NMSI_	34	96	0	96	48	5
NMTAP	34	96	7
NMTAP	34	144	1
NMTAP	34	192	2
NMTAP	34	240	3
NMTAP	34	288	4
NMTAP	34	288	6
NMTAP	35	0	2
NMTAP	35	48	1
NMTAP	35	96	0
NMTAP	35	96	6
NMTAP	35	192	5
NMSTR	35	192	7
NMSI_	35	192	7	96	48	1
NMTAP	35	240	4
NMTAP	35	288	3
NMTAP	36	0	5
NMTAP	36	48	6
NMSTR	36	96	0
NMSI_	36	96	0	96	48	4
NMTAP	36	96	7
NMTAP	36	144	1
NMTAP	36	192	2
NMTAP	36	288	1
NMTAP	36	288	5
NMSTR	37	0	2
NMSXR	37	0	2	96	144	4
NMSTR	37	96	5
NMSXL	37	96	5	96	144	3
NMHLD	38	0	1	288
NMHLD	38	0	5	288
NMTTP	39	0	0	C	1	M1
NMSTR	39	192	3
NMSV_	39	192	3	96	48	2
NMSTR	39	288	4
NMSV_	39	288	4	96	48	5
NMSTR	40	0	1
NMSV_	40	0	1	96	48	0
NMSTR	40	96	6
NMSV_	40	96	6	96	48	7
NMTAP	40	288	0
NMSTR	41	0	1
NMSI_	41	0	1	96	48	4
NMTAP	41	48	1
NMTAP	41	96	4
CNSI_	41	144	4	0	48	1
NMSTR	41	192	6
NMSI_	41	192	6	96	48	2
NMTAP	41	240	6
NMTAP	41	288	2
CNSI_	41	336	2	0	48	6
NMSTR	42	0	0
NMSUR	42	0	0	96	48	4
NMTAP	42	48	0
NMTAP	42	96	4
CNSUL	42	144	4	0	48	0
NMSTR	42	192	5
NMSUR	42	192	5	96	48	1
NMTAP	42	240	5
NMTAP	42	288	1
CNSUL	42	336	1	0	48	5
NMSTR	43	0	2
NMSCL	43	0	2	96	96	6
NMTAP	43	48	2
NMTAP	43	96	5
NMTAP	43	192	4
CNSCR	43	192	6	0	96	2
NMTAP	43	288	3
BRSTR	44	0	3
NMSSR	44	0	3	96	96	7
BRSTR	44	0	4
NMSI_	44	0	4	96	96	7
NMTAP	45	0	2
NMSTR	45	0	7
NMSCL	45	0	7	96	96	3
NMSTR	45	96	3
NMSUR	45	96	3	96	96	1
NMTAP	45	144	2
NMSTR	45	192	1
NMSCL	45	192	1	96	96	5
NMSTR	45	288	5
NMSLR	45	288	5	96	96	1
NMSTR	46	0	1
NMSI_	46	0	1	96	48	5
NMSTR	46	96	3
NMSCR	46	96	3	96	96	7
NMTAP	46	144	2
CNSI_	46	144	5	0	48	3
NMTAP	46	192	1
EXTAP	46	288	0
NMSTR	47	0	1
NMSUR	47	0	1	96	48	5
NMTAP	47	0	7
NMTAP	47	48	1
NMSTR	47	96	6
NMSV_	47	96	6	96	48	3
NMTAP	47	144	6
NMSTR	47	192	0
NMSI_	47	192	0	96	48	4
NMTAP	47	240	0
NMSTR	47	288	7
NMSCL	47	288	7	96	48	4
NMTAP	47	336	7
NMSTR	48	0	3
NMSI_	48	0	3	96	48	7
NMTAP	48	48	3
NMSTR	48	96	5
NMSI_	48	96	5	96	48	1
NMTAP	48	144	5
NMTAP	48	192	1
EXTAP	48	288	2
EXTAP	48	288	7
NMSTR	49	0	4
NMSCL	49	0	4	96	96	0
NMTAP	49	0	6
NMSTR	49	96	0
NMSUR	49	96	0	96	96	6
NMTAP	49	144	7
NMSTR	49	192	6
NMSCL	49	192	6	96	96	2
NMSTR	49	288	2
NMSLR	49	288	2	96	96	6
NMSTR	50	0	6
NMSCL	50	0	6	96	48	4
NMSTR	50	96	0
NMSCR	50	96	0	96	96	4
CNSI_	50	144	4	0	48	0
NMTAP	50	144	7
NMTAP	50	192	6
EXTAP	50	288	5
NMTAP	51	0	2
NMSTR	51	0	6
NMSI_	51	0	6	96	48	0
NMTAP	51	48	1
NMSTR	51	96	2
NMSV_	51	96	2	96	48	0
CNSV_	51	144	0	0	48	2
NMTAP	51	192	3
CNSI_	51	240	0	0	48	6
NMTAP	51	288	3
EXSTR	52	0	4
NMSF_	52	0	4	96	48	0
NMTAP	52	192	2
NMTAP	52	192	6
NMTAP	53	0	1
NMSTR	53	0	7
NMSCL	53	0	7	96	96	3
NMTAP	53	48	2
NMSTR	53	96	3
NMSUR	53	96	3	96	96	0
NMTAP	53	144	1
NMSTR	53	192	0
NMSCR	53	192	0	96	48	1
NMSTR	53	288	4
NMSCR	53	288	4	96	48	5
CNSI_	53	336	1	0	48	4
NMSTR	54	0	1
NMSLR	54	0	1	96	96	7
NMTAP	54	48	0
CNSI_	54	48	5	0	48	1
NMSTR	54	96	7
NMSCL	54	96	7	96	48	6
NMTAP	54	144	0
NMTAP	54	192	1
CNSV_	54	240	6	0	48	4
EXTAP	54	288	0
NMSTR	55	0	1
NMSUR	55	0	1	96	48	5
NMTAP	55	0	5
NMTAP	55	48	0
NMSTR	55	96	7
NMSI_	55	96	7	96	48	4
NMTAP	55	144	6
NMSTR	55	192	2
NMSCL	55	192	2	96	48	7
NMTAP	55	240	3
NMSTR	55	288	5
NMSUR	55	288	5	96	48	1
NMTAP	55	336	4
NMSTR	56	0	3
NMSI_	56	0	3	96	48	7
NMTAP	56	48	2
NMSTR	56	96	5
NMSI_	56	96	5	96	48	2
NMTAP	56	144	6
NMTAP	56	192	0
EXTAP	56	288	1
EXTAP	56	288	4
NMSTR	57	0	3
NMSCL	57	0	3	96	96	7
NMTAP	57	0	5
NMTAP	57	48	6
NMSTR	57	96	7
NMSUR	57	96	7	96	96	4
NMTAP	57	144	5
NMSTR	57	192	4
NMSCR	57	192	4	96	48	5
NMSTR	57	288	0
NMSLR	57	288	0	96	96	5
CNSI_	57	336	5	0	48	0
NMSTR	58	0	5
NMSLR	58	0	5	96	96	3
NMTAP	58	48	4
NMSTR	58	96	3
NMSCL	58	96	3	96	96	7
NMTAP	58	144	4
NMTAP	58	192	5
EXTAP	58	288	6
NMSTR	59	0	0
NMSV_	59	0	0	96	48	2
NMSTR	59	0	6
NMSI_	59	0	6	96	48	0
BRTAP	59	96	0
BRTAP	59	96	6
NMSTR	59	192	1
NMSV_	59	192	1	96	48	3
NMSTR	59	192	7
NMSI_	59	192	7	96	48	1
BRTAP	59	288	1
BRTAP	59	288	7
BRTAP	60	0	2
BRTAP	60	0	5
NMTAP	60	48	2
NMTAP	60	48	5
BRSTR	60	96	1
BRSV_	60	96	1	96	48	3
BRSTR	60	96	6
BRSI_	60	96	6	96	48	1
NMTAP	60	144	0
NMTAP	60	144	7
BRTAP	60	192	1
BRTAP	60	192	6
NMSTR	61	0	2
NMSI_	61	0	2	96	48	5
NMTAP	61	0	3
NMTAP	61	96	5
NMTAP	61	192	6
NMHLD	61	240	6	288
NMSTR	61	336	4
NMSI_	61	336	4	96	48	2
NMSTR	62	144	5
NMSI_	62	144	5	96	48	1
NMTAP	62	240	6
NMTAP	62	336	5
NMSTR	63	0	5
NMSI_	63	0	5	96	48	2
NMTAP	63	96	2
NMTAP	63	192	1
NMSTR	63	240	1
NMSI_	63	240	1	96	48	7
NMSTR	63	336	2
NMSI_	63	336	2	96	48	6
NMSTR	64	48	0
NMSUR	64	48	0	96	144	3
NMSTR	64	144	7
NMSUL	64	144	7	96	144	4
NMSTR	65	0	1
NMSI_	65	0	1	96	48	3
NMTAP	65	48	1
NMSTR	65	96	5
NMSI_	65	96	5	96	48	7
NMTAP	65	144	4
NMSTR	65	192	2
NMSI_	65	192	2	96	48	4
NMTAP	65	240	1
NMSTR	65	288	6
NMSI_	65	288	6	96	48	0
NMTAP	65	336	5
NMSTR	66	0	3
NMSI_	66	0	3	96	48	5
NMTAP	66	48	2
NMSTR	66	96	7
NMSI_	66	96	7	96	48	1
NMTAP	66	144	0
NMTAP	66	192	4
NMTAP	66	240	3
NMTAP	66	288	2
NMTAP	66	288	6
NMTAP	67	0	3
NMSTR	67	0	5
NMSI_	67	0	5	96	48	7
NMTAP	67	48	2
NMTAP	67	48	4
NMSTR	67	96	1
NMSI_	67	96	1	96	48	3
NMTAP	67	144	0
NMSTR	67	192	6
NMSI_	67	192	6	96	48	0
NMTAP	67	240	5
NMSTR	67	288	2
NMSI_	67	288	2	96	48	4
NMTAP	67	336	1
NMSTR	68	0	7
NMSI_	68	0	7	96	48	1
NMTAP	68	48	6
NMSTR	68	96	3
NMSI_	68	96	3	96	48	5
NMTAP	68	144	2
EXTAP	68	192	0
EXTAP	68	240	7
EXSTR	68	288	6
NMSI_	68	288	6	96	96	1
CNSV_	69	96	1	0	96	3

T_REC_TAP	156
T_REC_BRK	8
T_REC_XTP	17
T_REC_BXX	0
T_REC_HLD	6
T_REC_XHO	2
T_REC_BHO	0
T_REC_BXH	0
T_REC_STR	139
T_REC_BST	5
T_REC_XST	10
T_REC_XBS	0
T_REC_TTP	5
T_REC_THO	0
T_REC_SLD	153
T_REC_BSL	2
T_REC_ALL	503
T_NUM_TAP	327
T_NUM_BRK	15
T_NUM_HLD	8
T_NUM_SLD	153
T_NUM_ALL	503
T_JUDGE_TAP	340
T_JUDGE_HLD	40
T_JUDGE_SLD	155
T_JUDGE_ALL	535
TTM_EACHPAIRS	60
TTM_SCR_TAP	163500
TTM_SCR_BRK	39000
TTM_SCR_HLD	8000
TTM_SCR_SLD	229500
TTM_SCR_ALL	440000
TTM_SCR_S	425350
TTM_SCR_SS	438500
TTM_RAT_ACV	10034

