VERSION	0.00.00	1.04.00
FES_MODE	0
BPM_DEF	137.000	137.000	137.000	137.000
MET_DEF	4	4
RESOLUTION	384
CLK_DEF	384
COMPATIBLE_CODE	MA2

BPM	0	0	137.000
MET	0	0	4	4

NMHLD	1	0	2	672
NMTTP	1	96	4	E	0	M1
NMTTP	1	192	3	E	0	M1
NMTTP	1	288	2	E	0	M1
NMTTP	2	0	1	E	0	M1
NMTTP	2	96	0	E	0	M1
NMTTP	2	192	7	E	0	M1
NMTTP	2	288	6	E	0	M1
NMHLD	3	0	5	576
NMTTP	3	96	5	E	0	M1
NMTTP	3	192	6	E	0	M1
NMTTP	3	288	7	E	0	M1
NMTTP	4	0	0	E	0	M1
NMTTP	4	96	1	E	0	M1
NMTTP	4	192	2	E	0	M1
NMTAP	4	288	3
NMTAP	4	288	4
NMTAP	5	0	2
NMTAP	5	96	2
NMTAP	5	96	3
NMTAP	5	192	2
NMHLD	5	240	2	96
NMHLD	5	336	4	96
NMHLD	6	48	3	96
NMHLD	6	144	5	96
NMHLD	6	240	4	96
NMTAP	6	336	5
NMTAP	7	0	5
NMTAP	7	96	4
NMTAP	7	96	5
NMTAP	7	192	5
NMHLD	7	240	5	96
NMHLD	7	336	3	96
NMHLD	8	48	4	96
NMTAP	8	144	2
NMTAP	8	192	2
BRTAP	8	288	2
BRTAP	8	288	3
NMTAP	9	0	1
NMTAP	9	96	0
NMTAP	9	96	1
NMTAP	9	192	1
NMHLD	9	240	1	96
NMHLD	9	336	7	96
NMHLD	10	48	0	96
NMHLD	10	144	6	96
NMHLD	10	240	7	96
NMTAP	10	336	6
NMTAP	11	0	6
NMTAP	11	96	6
NMTAP	11	96	7
NMTAP	11	192	4
NMTAP	11	192	5
NMTAP	11	240	4
NMTAP	11	240	5
NMTAP	11	336	2
NMTAP	11	336	3
NMTAP	12	48	0
NMTAP	12	48	1
NMTAP	12	144	7
NMSTR	12	192	7
NMSI_	12	192	7	96	48	3
NMTAP	13	0	1
NMTAP	13	48	1
NMTAP	13	96	0
NMTAP	13	192	6
NMTAP	13	240	6
NMTAP	13	288	7
NMTAP	14	0	2
NMTAP	14	48	2
NMTAP	14	96	3
NMTAP	14	144	3
NMSTR	14	192	1
NMSCR	14	192	1	96	48	4
NMTAP	15	0	6
NMTAP	15	48	6
NMTAP	15	96	7
NMTAP	15	192	1
NMTAP	15	240	1
NMTAP	15	288	0
NMTAP	16	0	5
NMTAP	16	48	5
NMTAP	16	96	4
NMTAP	16	144	4
NMSTR	16	192	6
NMSCL	16	192	6	96	48	3
NMHLD	17	0	2	96
NMTAP	17	96	0
NMHLD	17	192	5	96
NMTAP	17	288	7
NMTAP	18	0	1
NMTAP	18	48	1
NMTAP	18	96	0
NMTAP	18	144	0
NMSTR	18	192	2
NMSCR	18	192	2	96	48	5
NMHLD	19	0	6	96
NMTAP	19	96	7
NMHLD	19	192	1	96
NMSTR	19	288	0
NMSF_	19	288	0	96	144	4
EXTAP	20	240	3
EXTAP	20	240	5
EXTAP	20	288	3
EXTAP	20	288	5
BRTAP	21	0	2
BRTAP	21	0	3
NMSTR	21	96	2
NMSI_	21	96	2	96	48	7
NMSTR	21	96	3
NMSI_	21	96	3	96	48	7
NMTAP	22	0	4
NMTAP	22	0	5
NMSTR	22	96	4
NMSI_	22	96	4	96	48	0
NMSTR	22	96	5
NMSI_	22	96	5	96	48	0
NMTAP	23	0	2
NMTAP	23	0	3
NMTAP	23	96	0
NMTAP	23	96	1
NMTAP	23	192	6
NMTAP	23	192	7
NMTAP	23	288	4
NMTAP	23	288	5
NMTAP	24	0	2
NMTAP	24	48	2
NMTAP	24	96	3
NMTAP	24	192	1
NMTAP	24	192	4
BRTAP	25	0	4
BRTAP	25	0	5
NMSTR	25	96	4
NMSI_	25	96	4	96	48	0
NMSTR	25	96	5
NMSI_	25	96	5	96	48	0
NMTAP	26	0	2
NMTAP	26	0	3
NMSTR	26	96	2
NMSI_	26	96	2	96	48	7
NMSTR	26	96	3
NMSI_	26	96	3	96	48	7
NMTAP	27	0	4
NMTAP	27	0	5
NMTAP	27	96	6
NMTAP	27	96	7
NMTAP	27	192	0
NMTAP	27	192	1
NMTAP	27	288	2
NMTAP	27	288	3
NMHLD	28	0	4	96
NMHLD	28	0	5	96
NMTTP	28	192	1	B	0	M1
NMTTP	28	192	1	A	0	M1
NMTTP	28	192	2	E	0	M1
NMTTP	28	192	7	B	0	M1
NMTTP	28	192	7	E	0	M1
NMTTP	28	192	7	A	1	M1
NMTAP	29	0	2
NMTAP	29	96	2
NMTAP	29	96	3
NMTAP	29	192	1
NMHLD	29	240	1	96
NMHLD	29	336	2	96
NMHLD	30	48	3	96
NMHLD	30	144	4	96
NMHLD	30	240	5	96
NMTAP	30	336	6
NMTAP	31	0	6
NMTAP	31	96	4
NMTAP	31	96	6
NMTAP	31	192	6
NMHLD	31	240	6	96
NMHLD	31	336	5	96
NMHLD	32	48	4	96
NMTAP	32	144	2
NMTAP	32	192	2
BRTAP	32	288	2
BRTAP	32	288	3
NMTAP	33	0	1
NMTAP	33	96	0
NMTAP	33	96	1
NMTAP	33	192	2
NMHLD	33	240	2	96
NMHLD	33	336	1	96
NMHLD	34	48	0	96
NMHLD	34	144	7	96
NMHLD	34	240	6	96
NMTAP	34	336	5
NMTAP	35	0	5
NMTAP	35	96	6
NMTAP	35	96	7
NMTAP	35	192	4
NMTAP	35	192	5
NMTAP	35	240	4
NMTAP	35	240	5
NMTAP	35	336	1
NMTAP	35	336	3
NMTAP	36	48	4
NMTAP	36	48	6
NMTAP	36	144	0
NMTAP	36	144	7
NMSTR	36	192	0
NMSI_	36	192	0	96	48	4
NMTAP	36	192	7
NMHLD	37	0	6	96
NMTTP	37	96	5	E	0	M1
NMHLD	37	192	1	96
NMTTP	37	288	3	E	0	M1
NMSTR	38	0	5
BRSCL	38	0	5	96	144	2
CNSUR	38	240	2	0	144	6
NMTTP	39	192	0	B	0	M1
NMTTP	39	288	6	B	0	M1
NMTTP	40	0	4	B	0	M1
NMTTP	40	96	2	B	0	M1
NMTTP	40	192	0	C	0	M1
NMTAP	41	0	6
NMTAP	41	48	6
NMTAP	41	96	7
NMTAP	41	144	7
NMTAP	41	192	0
NMTAP	41	288	1
NMTAP	41	288	7
NMTAP	42	0	1
NMTAP	42	48	1
NMTAP	42	96	0
NMTAP	42	144	0
NMTAP	42	192	7
NMTAP	42	288	0
NMHLD	42	288	6	96
NMHLD	43	0	7	96
NMHLD	43	96	0	96
NMHLD	43	192	2	96
NMSTR	43	288	3
NMSF_	43	288	3	96	144	7
EXTAP	44	240	0
EXTAP	44	240	6
EXTAP	44	288	0
EXTAP	44	288	6
BRTAP	45	0	4
BRTAP	45	0	5
NMSTR	45	96	4
NMSI_	45	96	4	96	48	1
NMSTR	45	96	5
NMSCR	45	96	5	96	48	0
NMTAP	46	0	2
NMTAP	46	0	3
NMSTR	46	96	2
NMSCL	46	96	2	96	48	7
NMSTR	46	96	3
NMSI_	46	96	3	96	48	6
NMTAP	47	0	4
NMTAP	47	0	5
NMTAP	47	96	0
NMTAP	47	96	1
NMTAP	47	192	2
NMTAP	47	192	3
NMTAP	47	288	6
NMTAP	47	288	7
NMTAP	48	0	5
NMTAP	48	48	5
NMTAP	48	96	4
NMTAP	48	192	3
NMTAP	48	192	7
BRTAP	49	0	2
BRTAP	49	0	3
NMSTR	49	96	2
NMSCL	49	96	2	96	48	7
NMSTR	49	96	3
NMSI_	49	96	3	96	48	6
NMTAP	50	0	4
NMTAP	50	0	5
NMSTR	50	96	4
NMSI_	50	96	4	96	48	1
NMSTR	50	96	5
NMSCR	50	96	5	96	48	0
NMTAP	51	0	2
NMTAP	51	48	2
NMTAP	51	96	0
NMTAP	51	144	0
NMTAP	51	192	1
NMTAP	51	240	1
NMTAP	51	288	6
NMTAP	51	336	6
NMTAP	52	0	7
NMTAP	52	48	7
NMTAP	52	96	5
BRTAP	52	192	0
BRTAP	52	192	4
NMSTR	53	0	1
NMSI_	53	0	1	96	48	3
NMSTR	53	0	3
NMSI_	53	0	3	96	48	7
NMSTR	53	192	4
NMSI_	53	192	4	96	48	0
NMSTR	53	192	6
NMSI_	53	192	6	96	48	4
NMTAP	54	0	1
NMTAP	54	48	1
NMTAP	54	96	0
NMTAP	54	144	2
NMTAP	54	192	3
NMTAP	54	288	1
NMTAP	54	288	4
NMSTR	55	0	3
NMSI_	55	0	3	96	48	7
NMSTR	55	0	6
NMSI_	55	0	6	96	48	3
NMSTR	55	192	1
NMSI_	55	192	1	96	48	4
NMSTR	55	192	4
NMSI_	55	192	4	96	48	0
NMTAP	56	0	6
NMTAP	56	48	6
NMTAP	56	96	7
NMTAP	56	144	5
NMTAP	56	192	4
NMTAP	56	288	3
NMTAP	56	288	6
NMTAP	57	0	1
NMTAP	57	48	1
NMTAP	57	96	3
NMTAP	57	144	3
NMTAP	57	192	2
BRTAP	57	288	6
BRTAP	57	288	7
NMTAP	58	0	6
NMTAP	58	48	6
NMTAP	58	96	4
NMTAP	58	144	4
NMTAP	58	192	5
BRTAP	58	288	0
BRTAP	58	288	1
NMTAP	59	0	2
NMTAP	59	48	1
NMTAP	59	96	0
NMTAP	59	144	7
NMTAP	59	192	6
NMTAP	59	240	5
NMSTR	59	288	3
NMSCR	59	288	3	96	96	7
NMSTR	59	288	4
NMSCL	59	288	4	96	96	0
NMTTP	60	192	0	B	0	M1
NMTTP	60	192	0	A	1	M1
NMTTP	60	192	1	E	0	M1
NMTTP	60	192	6	B	0	M1
NMTTP	60	192	6	E	0	M1
NMTTP	60	192	6	A	1	M1
NMTAP	61	0	2
NMTAP	61	96	2
NMTAP	61	96	3
NMTAP	61	192	1
NMHLD	61	240	1	96
NMHLD	61	336	3	96
NMHLD	62	48	4	96
NMHLD	62	144	6	96
NMHLD	62	240	7	96
NMTAP	62	336	6
NMTAP	63	0	6
NMTAP	63	96	0
NMTAP	63	96	5
NMTAP	63	192	6
NMHLD	63	240	6	96
NMHLD	63	336	4	96
NMHLD	64	48	3	96
NMTAP	64	144	2
NMTAP	64	192	2
BRTAP	64	288	1
BRTAP	64	288	4
NMTAP	65	0	1
NMTAP	65	96	0
NMTAP	65	96	1
NMTAP	65	192	2
NMHLD	65	240	2	96
NMHLD	65	336	0	96
NMHLD	66	48	7	96
NMHLD	66	144	5	96
NMHLD	66	240	4	96
NMTAP	66	336	5
NMTAP	67	0	5
NMTAP	67	96	3
NMTAP	67	96	6
NMTAP	67	192	1
NMTAP	67	192	4
NMTAP	67	240	1
NMTAP	67	240	4
NMTAP	67	336	0
NMTAP	67	336	7
NMTAP	68	48	5
NMTAP	68	48	6
NMTAP	68	144	3
NMTAP	68	144	4
NMTAP	68	192	3
NMTAP	68	192	4
NMTAP	68	288	2
NMTAP	68	288	5
NMTHO	69	0	0	120	C	0	M1

T_REC_TAP	216
T_REC_BRK	20
T_REC_XTP	8
T_REC_BXX	0
T_REC_HLD	53
T_REC_XHO	0
T_REC_BHO	0
T_REC_BXH	0
T_REC_STR	34
T_REC_BST	0
T_REC_XST	0
T_REC_XBS	0
T_REC_TTP	32
T_REC_THO	1
T_REC_SLD	33
T_REC_BSL	1
T_REC_ALL	398
T_NUM_TAP	290
T_NUM_BRK	21
T_NUM_HLD	54
T_NUM_SLD	33
T_NUM_ALL	398
T_JUDGE_TAP	310
T_JUDGE_HLD	131
T_JUDGE_SLD	34
T_JUDGE_ALL	475
TTM_EACHPAIRS	80
TTM_SCR_TAP	145000
TTM_SCR_BRK	54600
TTM_SCR_HLD	54000
TTM_SCR_SLD	49500
TTM_SCR_ALL	303100
TTM_SCR_S	292000
TTM_SCR_SS	301000
TTM_RAT_ACV	10069

