VERSION	0.00.00	1.04.00
FES_MODE	0
BPM_DEF	163.000	163.000	163.000	163.000
MET_DEF	4	4
RESOLUTION	384
CLK_DEF	384
COMPATIBLE_CODE	MA2

BPM	0	0	163.000
MET	0	0	4	4
MET	63	0	4	3
MET	79	192	4	4

NMHLD	2	0	3	672
NMHLD	2	0	4	48
NMHLD	2	96	4	48
NMHLD	2	192	4	48
NMHLD	2	288	4	48
NMHLD	3	0	4	48
NMHLD	3	96	4	48
NMHLD	3	192	4	48
NMHLD	3	288	4	48
NMHLD	4	0	2	48
NMHLD	4	0	4	48
NMHLD	4	96	2	48
NMHLD	4	96	4	48
NMTAP	4	192	3
NMTAP	4	192	4
NMTAP	4	240	2
NMTAP	4	240	5
NMTAP	4	288	1
NMSTR	4	288	6
NMSI_	4	288	6	96	48	1
EXSTR	5	0	2
NMSI_	5	0	2	96	48	5
EXSTR	5	96	4
NMSI_	5	96	4	96	48	7
EXSTR	5	192	0
NMSI_	5	192	0	96	48	3
EXTAP	5	288	7
NMTTP	6	0	2	B	0	M1
NMTTP	6	0	2	E	0	M1
NMTTP	6	0	2	A	1	M1
NMTTP	6	0	3	E	0	M1
NMTTP	6	0	5	B	0	M1
NMTTP	6	0	5	E	0	M1
NMTTP	6	0	5	A	0	M1
NMTTP	6	0	6	E	0	M1
NMTAP	6	96	0
NMTAP	6	144	0
NMSTR	6	192	1
NMSI_	6	192	1	96	48	3
NMTAP	6	192	4
NMTAP	6	240	5
NMHLD	6	288	6	96
NMTAP	7	0	4
NMTAP	7	48	4
NMTAP	7	96	3
NMTAP	7	96	5
NMTAP	7	144	4
NMTAP	7	192	3
NMSTR	7	192	5
NMSI_	7	192	5	96	48	0
EXTAP	7	240	2
EXTAP	7	288	2
NMTAP	8	0	2
NMTAP	8	48	1
NMTAP	8	96	0
NMTAP	8	144	7
NMTAP	8	192	0
NMSTR	8	192	6
NMSI_	8	192	6	96	48	4
NMTAP	8	240	1
NMHLD	8	288	2	96
NMTAP	9	0	3
NMTAP	9	48	3
NMTAP	9	96	2
NMTAP	9	96	4
NMTAP	9	144	3
NMSTR	9	192	2
NMSI_	9	192	2	96	48	7
NMTAP	9	192	4
EXTAP	9	240	5
EXTAP	9	288	5
BXTAP	10	0	0
NMTAP	10	48	0
NMTAP	10	96	7
NMTAP	10	144	6
NMTAP	10	192	3
NMSTR	10	192	5
NMSI_	10	192	5	96	48	2
NMTAP	10	240	2
NMTAP	10	288	1
NMTAP	11	0	0
NMTAP	11	48	0
NMTAP	11	96	4
NMTAP	11	144	3
NMTAP	11	144	5
NMTAP	11	192	2
NMSTR	11	192	6
NMSI_	11	192	6	96	48	3
NMTAP	11	288	0
NMTAP	11	336	0
NMTAP	12	0	1
NMTAP	12	48	0
NMTAP	12	48	2
NMTAP	12	96	3
NMHLD	12	96	7	96
NMSTR	12	192	4
NMSI_	12	192	4	96	48	0
NMTAP	12	240	4
NMTAP	12	288	6
NMTAP	12	336	5
NMTTP	13	0	1	B	0	M1
NMTTP	13	0	2	E	0	M1
NMTTP	13	96	5	B	0	M1
NMTTP	13	96	6	E	0	M1
NMTTP	13	192	3	B	0	M1
NMTTP	13	192	4	B	0	M1
NMTTP	13	192	4	E	0	M1
EXTAP	13	240	1
EXTAP	13	240	6
EXTAP	13	288	1
EXSTR	13	288	6
BRSI_	13	288	6	96	48	3
BXHLD	14	0	2	48
NMHLD	14	96	2	48
NMHLD	14	192	2	48
NMHLD	14	288	2	48
NMTAP	14	288	5
NMTAP	14	336	4
NMHLD	15	0	2	48
NMTAP	15	0	3
NMHLD	15	96	2	48
NMTAP	15	96	4
NMSTR	15	192	1
NMSCR	15	192	1	96	48	3
NMTAP	15	192	3
NMTAP	16	0	4
NMHLD	16	0	6	48
NMTAP	16	96	4
NMHLD	16	96	5	48
EXHLD	16	192	4	48
NMTAP	16	192	5
NMSTR	16	288	3
NMSXR	16	288	3	96	96	3
NMTAP	16	288	5
NMSTR	17	0	3
NMSXL	17	0	3	96	96	4
NMTAP	17	0	6
NMTAP	17	96	7
NMTTP	17	192	6	B	0	M1
NMTTP	17	192	7	B	0	M1
NMTTP	17	192	7	E	0	M1
NMTTP	17	192	7	D	0	M1
NMTTP	17	288	4	B	0	M1
NMTTP	17	288	5	B	0	M1
NMTTP	17	288	5	E	0	M1
NMTTP	17	288	5	D	0	M1
NMHLD	18	0	2	48
NMTAP	18	48	3
NMHLD	18	96	2	48
NMTAP	18	144	3
NMHLD	18	192	1	48
NMTAP	18	240	3
NMHLD	18	288	1	48
NMTAP	18	336	3
NMHLD	19	0	0	48
NMTAP	19	48	3
NMHLD	19	96	0	48
NMTAP	19	144	3
EXSTR	19	192	1
NMSV_	19	192	1	96	48	4
NMTAP	19	192	4
NMTAP	19	288	5
NMTAP	19	336	5
NMTAP	20	0	6
NMTAP	20	48	6
NMTAP	20	96	4
NMHLD	20	96	7	96
NMTTP	20	192	2	B	0	M1
NMTTP	20	192	3	B	0	M1
NMTTP	20	192	4	B	0	M1
NMTAP	20	240	5
NMTAP	20	288	1
NMTAP	20	336	7
NMTTP	21	0	1	B	0	M1
NMTTP	21	0	2	E	0	M1
NMTAP	21	96	0
NMTTP	21	96	5	B	0	M1
NMTTP	21	96	6	E	0	M1
NMTAP	21	192	7
NMTAP	21	240	0
NMTAP	21	240	6
NMTAP	21	288	0
NMTAP	21	288	6
NMTAP	22	0	1
NMTAP	22	24	3
NMTAP	22	48	2
NMTAP	22	96	2
NMTAP	22	96	4
NMTAP	22	144	2
NMTAP	22	192	2
NMTAP	22	192	3
NMTAP	22	240	2
NMTAP	22	288	2
NMSTR	22	288	6
NMSI_	22	288	6	96	48	0
NMTAP	22	336	2
NMTAP	23	0	3
NMTAP	23	0	6
NMTAP	23	48	3
NMTAP	23	96	3
NMSTR	23	96	5
NMSI_	23	96	5	96	48	3
NMTAP	23	144	2
NMTAP	23	192	2
NMTAP	23	192	5
NMSTR	23	288	1
NMSLL	23	288	1	96	96	5
NMSTR	24	0	5
NMSLR	24	0	5	96	96	1
NMTAP	24	96	3
NMTAP	24	192	4
NMTAP	24	288	3
NMSTR	24	288	4
BRSXL	24	288	4	96	96	4
NMTAP	25	0	2
NMSTR	25	0	4
BRSXR	25	0	4	96	96	3
NMTAP	25	96	1
NMTTP	25	192	0	B	0	M1
NMTTP	25	192	0	E	0	M1
NMTTP	25	192	0	D	0	M1
NMTTP	25	192	7	B	0	M1
NMTTP	25	288	4	B	0	M1
NMTTP	25	288	5	B	0	M1
NMTTP	25	288	5	E	0	M1
NMTTP	25	288	5	D	0	M1
NMTAP	26	0	2
NMTAP	26	24	3
NMTAP	26	48	1
NMTAP	26	96	1
NMTAP	26	96	7
NMTAP	26	144	1
NMTAP	26	192	1
NMTAP	26	192	3
NMTAP	26	240	1
NMTAP	26	288	0
NMTAP	26	288	1
NMTAP	26	336	1
NMTAP	27	0	1
NMSTR	27	0	7
NMSI_	27	0	7	96	48	3
NMTAP	27	48	1
NMTAP	27	96	1
NMTAP	27	96	7
NMTAP	27	144	1
NMTAP	27	192	2
NMHLD	27	192	5	96
NMSTR	27	288	4
NMSI_	27	288	4	96	48	2
NMTAP	27	336	4
NMSTR	28	0	6
NMSI_	28	0	6	96	48	4
NMTAP	28	48	6
NMHLD	28	96	0	96
NMTTP	28	192	2	B	0	M1
NMTTP	28	192	3	B	0	M1
NMTTP	28	192	4	B	0	M1
NMTAP	28	240	1
NMSTR	28	288	7
NMSI_	28	288	7	96	48	3
NMTAP	28	336	0
NMSTR	29	0	7
NMSCR	29	0	7	96	48	2
NMSTR	29	96	7
NMSCL	29	96	7	96	48	4
NMSTR	29	192	3
NMSF_	29	192	3	96	48	7
NMTAP	29	192	7
BRTAP	30	0	1
BRTAP	30	0	5
NMTAP	30	48	2
NMTAP	30	96	3
NMSTR	30	96	4
NMSI_	30	96	4	96	48	1
NMTAP	30	144	5
NMSTR	30	192	4
NMSI_	30	192	4	96	48	7
NMTAP	30	192	6
NMTAP	30	288	4
NMTAP	30	288	6
NMSTR	31	0	0
NMSI_	31	0	0	96	48	4
NMTAP	31	48	7
NMSTR	31	96	6
BRSI_	31	96	6	96	48	3
NMTAP	31	144	5
EXTAP	31	192	4
NMTAP	31	192	6
NMSTR	31	288	1
NMSUR	31	288	1	96	96	7
NMSTR	32	0	7
NMSUL	32	0	7	96	96	1
NMTAP	32	96	0
NMTAP	32	192	7
NMTAP	32	240	0
NMTAP	32	240	6
NMTAP	32	288	1
NMSTR	32	288	5
NMSI_	32	288	5	96	48	0
NMSTR	33	0	5
NMSI_	33	0	5	96	48	3
NMTAP	33	48	3
NMSTR	33	96	5
NMSCR	33	96	5	96	96	2
NMTAP	33	144	1
NMSTR	33	192	2
NMSCL	33	192	2	96	96	5
NMTAP	33	192	5
NMTAP	33	288	3
NMTAP	34	0	2
NMTAP	34	48	1
NMSTR	34	96	0
NMSI_	34	96	0	96	48	3
NMSTR	34	96	7
NMSI_	34	96	7	96	48	4
NMTAP	34	144	6
NMTAP	34	192	0
NMTAP	34	192	7
NMSTR	34	288	1
NMSI_	34	288	1	96	48	7
NMTAP	34	288	6
NMSTR	35	0	1
NMSI_	35	0	1	96	48	5
NMTAP	35	48	3
NMSTR	35	96	1
NMSLR	35	96	1	96	96	7
NMTAP	35	144	7
NMTAP	35	192	1
NMTAP	35	240	4
NMTAP	35	288	5
NMTAP	35	336	1
NMTAP	35	336	6
NMSTR	36	0	2
NMSI_	36	0	2	96	48	0
NMSTR	36	0	7
NMSI_	36	0	7	96	48	3
NMTAP	36	48	3
NMTAP	36	96	2
NMTAP	36	96	7
NMSTR	36	192	2
NMSI_	36	192	2	96	48	7
NMTAP	36	192	5
NMTAP	36	240	3
NMTAP	36	240	4
NMTAP	36	288	2
NMSTR	36	288	5
NMSI_	36	288	5	96	48	2
NMTAP	36	336	6
BRSTR	37	0	1
BRSI_	37	0	1	96	48	5
NMTAP	37	0	5
NMTAP	37	96	1
BRSTR	37	96	7
BRSCL	37	96	7	96	48	4
BRSCR	37	96	7	96	48	2
BRTAP	37	192	7
NMTAP	38	0	4
NMTAP	38	48	4
NMTAP	38	96	3
NMHLD	38	96	5	672
NMTTP	38	288	5	E	0	M1
NMTTP	38	300	5	D	0	M1
NMTTP	39	96	6	B	0	M1
NMTTP	39	96	6	E	0	M1
NMTTP	39	288	5	E	0	M1
NMTTP	39	288	5	D	0	M1
NMTAP	40	0	3
NMTAP	40	48	3
NMHLD	40	96	2	672
NMTAP	40	96	4
NMTTP	40	288	3	E	0	M1
NMTTP	40	300	3	D	0	M1
NMTTP	41	96	1	B	0	M1
NMTTP	41	96	2	E	0	M1
NMTTP	41	288	3	E	0	M1
NMTTP	41	288	3	D	0	M1
NMTAP	42	0	4
NMTAP	42	48	4
NMTAP	42	96	3
NMHLD	42	96	5	672
NMTTP	42	288	5	E	0	M1
NMTTP	42	300	5	D	0	M1
NMTTP	43	96	5	B	0	M1
NMTTP	43	96	6	B	0	M1
EXTAP	43	288	7
NMTAP	44	0	0
NMTAP	44	32	0
NMTAP	44	64	0
NMTAP	44	96	1
NMTAP	44	96	7
NMTAP	44	192	3
NMTAP	44	224	3
NMTAP	44	256	3
NMTAP	44	288	2
NMSTR	44	288	4
NMSI_	44	288	4	96	48	0
BRSTR	45	0	0
NMSI_	45	0	0	96	48	4
EXTAP	45	96	0
BRSTR	45	96	1
NMSCL	45	96	1	96	48	6
EXTAP	45	192	1
BRTAP	45	192	2
NMTAP	46	0	6
NMTAP	46	24	4
NMTAP	46	48	5
NMTAP	46	96	3
NMTAP	46	96	5
NMTAP	46	144	5
NMTAP	46	192	1
NMTAP	46	192	5
NMTAP	46	240	5
NMTAP	46	288	5
NMSTR	46	288	7
NMSCR	46	288	7	96	48	2
NMTAP	46	336	5
NMTAP	47	0	5
NMTAP	47	0	7
NMTAP	47	48	5
NMSTR	47	96	3
NMSV_	47	96	3	96	48	0
NMSV_	47	96	3	96	48	6
NMTAP	47	96	5
NMTAP	47	144	4
NMTAP	47	192	3
NMTTP	47	288	2	B	0	M1
NMTTP	47	288	2	A	0	M1
NMTTP	47	288	3	E	0	M1
NMTTP	47	288	3	D	0	M1
NMTAP	48	0	5
NMTAP	48	24	4
NMTAP	48	48	5
NMTAP	48	72	4
NMHLD	48	96	5	48
NMTAP	48	144	3
NMTAP	48	168	4
NMSTR	48	192	2
NMSI_	48	192	2	96	48	6
NMTAP	48	288	2
NMTAP	48	288	6
NMTTP	49	0	0	E	0	M1
NMTTP	49	0	0	A	0	M1
NMTTP	49	0	1	E	0	M1
NMTTP	49	0	4	E	0	M1
NMTTP	49	0	4	A	0	M1
NMTTP	49	0	5	E	0	M1
NMTAP	49	96	2
NMSTR	49	96	6
NMSXL	49	96	6	96	96	6
NMTAP	49	192	4
NMSTR	49	192	6
NMSXR	49	192	6	96	96	5
NMTAP	49	288	2
NMTAP	50	0	0
NMTAP	50	48	0
NMTAP	50	96	1
NMTAP	50	96	7
NMTAP	50	144	2
NMTAP	50	192	3
NMTAP	50	192	6
NMTAP	50	240	5
NMTAP	50	288	2
NMTAP	50	288	4
NMTAP	50	336	1
NMTAP	51	0	0
NMTAP	51	0	6
NMTAP	51	48	5
NMSTR	51	96	2
NMSCL	51	96	2	96	48	7
NMTAP	51	96	7
NMTAP	51	144	3
NMTAP	51	192	6
NMTAP	51	288	0
NMTAP	51	288	5
NMTAP	51	336	1
NMTAP	51	336	6
NMHLD	52	0	2	96
NMSTR	52	0	7
NMSCL	52	0	7	96	48	4
NMTAP	52	48	0
NMTAP	52	192	1
NMTAP	52	192	3
NMTAP	52	240	1
NMTAP	52	240	3
NMSTR	52	288	0
NMSCR	52	288	0	96	48	3
NMTAP	52	336	7
NMSTR	53	0	0
NMSCL	53	0	0	96	48	5
NMHLD	53	0	6	192
NMTAP	53	96	0
NMTAP	53	192	0
NMTAP	53	204	1
NMTAP	53	216	2
NMTAP	53	228	3
NMTAP	53	240	4
NMTAP	53	252	5
NMTAP	53	264	6
NMTAP	53	276	7
EXSTR	53	288	0
BRSI_	53	288	0	96	48	4
BRTAP	54	0	0
BRTAP	54	0	4
NMSTR	54	96	3
NMSI_	54	96	3	96	48	6
NMTAP	54	96	5
NMTAP	54	144	2
NMTAP	54	192	1
NMSTR	54	192	3
NMSI_	54	192	3	96	48	0
NMTAP	54	288	1
NMTAP	54	288	3
NMSTR	55	0	7
NMSI_	55	0	7	96	48	3
NMTAP	55	48	0
NMSTR	55	96	1
BRSI_	55	96	1	96	48	5
NMTAP	55	144	2
NMTAP	55	192	1
EXTAP	55	192	3
NMSTR	55	288	6
NMSUL	55	288	6	96	96	0
NMSTR	56	0	0
NMSUR	56	0	0	96	96	6
NMTAP	56	96	7
NMTAP	56	192	0
NMTAP	56	240	1
NMTAP	56	240	7
NMSTR	56	288	2
NMSI_	56	288	2	96	48	7
NMTAP	56	288	6
NMSTR	57	0	2
NMSI_	57	0	2	96	48	4
NMTAP	57	48	4
NMSTR	57	96	2
NMSCL	57	96	2	96	96	5
NMTAP	57	144	7
BRTAP	57	192	2
NMSTR	57	192	5
NMSCR	57	192	5	96	96	2
NMTAP	57	288	4
NMTAP	58	0	5
NMTAP	58	48	6
NMSTR	58	96	0
NMSI_	58	96	0	96	48	3
NMSTR	58	96	7
NMSI_	58	96	7	96	48	4
NMTAP	58	144	1
NMTAP	58	192	0
NMTAP	58	192	7
NMTAP	58	288	1
NMSTR	58	288	6
NMSI_	58	288	6	96	48	0
NMSTR	59	0	6
NMSI_	59	0	6	96	48	2
NMTAP	59	48	4
NMSTR	59	96	6
NMSLL	59	96	6	96	96	0
NMTAP	59	144	0
NMTAP	59	192	6
NMTAP	59	240	3
NMTAP	59	288	2
NMTAP	59	336	1
NMTAP	59	336	6
NMSTR	60	0	0
NMSI_	60	0	0	96	48	4
NMSTR	60	0	5
NMSI_	60	0	5	96	48	7
NMTAP	60	48	7
NMTAP	60	96	0
NMTAP	60	96	5
NMTAP	60	192	2
NMSTR	60	192	5
NMSI_	60	192	5	96	48	0
NMTAP	60	240	3
NMTAP	60	240	4
NMSTR	60	288	2
NMSI_	60	288	2	96	48	5
NMTAP	60	288	5
NMTAP	60	336	1
NMTAP	61	0	2
BRSTR	61	0	6
BRSI_	61	0	6	96	48	2
BRSTR	61	96	0
BRSF_	61	96	0	96	48	4
NMTAP	61	96	6
BRSTR	61	192	0
NMSCR	61	192	0	96	768	7
NMTAP	64	192	3
NMHLD	64	192	5	288
NMTAP	64	288	4
NMTAP	65	0	4
NMHLD	65	96	1	288
NMTAP	65	192	3
NMTAP	65	288	3
NMHLD	66	0	6	288
NMTAP	66	96	4
NMTAP	66	192	4
NMHLD	66	288	1	288
NMTAP	67	0	3
NMTAP	67	96	3
NMSTR	67	192	3
NMSCR	67	192	3	96	192	7
NMTAP	67	288	1
NMTAP	68	0	2
NMSTR	68	96	4
NMSCL	68	96	4	96	192	0
NMTAP	68	192	6
NMTAP	68	288	5
NMSTR	69	0	3
NMSCR	69	0	3	96	192	7
NMTAP	69	96	1
NMTAP	69	192	2
NMSTR	69	288	3
NMSCL	69	288	3	96	192	7
NMTAP	70	0	6
NMTAP	70	96	5
NMSTR	70	192	4
NMSCR	70	192	4	96	192	0
NMTAP	70	288	2
NMTAP	71	0	3
NMSTR	71	96	4
NMSCL	71	96	4	96	192	0
NMTAP	71	192	7
NMTAP	71	288	5
NMSTR	72	0	3
NMSCR	72	0	3	96	192	7
NMTAP	72	96	0
NMTAP	72	192	2
NMHLD	72	288	4	288
NMTAP	73	0	7
NMTAP	73	96	7
NMHLD	73	192	6	96
NMTAP	73	288	5
NMTAP	73	336	5
NMHLD	74	0	4	96
NMHLD	74	96	3	96
NMTAP	74	192	2
NMTAP	74	240	2
NMHLD	74	288	1	96
NMHLD	75	0	2	96
NMTAP	75	96	3
NMTAP	75	144	3
NMHLD	75	192	4	96
NMHLD	75	288	5	96
NMTAP	76	0	6
NMTAP	76	48	6
NMTAP	76	96	6
NMTAP	76	192	4
NMSTR	76	192	6
NMSCR	76	192	6	96	144	1
NMSTR	76	336	1
NMSCR	76	336	1	96	144	4
NMSTR	77	96	4
NMSUL	77	96	4	96	144	6
NMSTR	77	240	6
NMSSR	77	240	6	96	192	2
BXTAP	78	12	1
NMTAP	78	288	1
NMTAP	78	288	3
NMTAP	78	336	2
NMTAP	78	360	4
NMTAP	79	0	2
NMTAP	79	24	4
NMTAP	79	48	2
NMTAP	79	72	4
NMTAP	79	96	2
NMTAP	79	120	5
NMTAP	79	144	1
NMTAP	79	168	6
NMSTR	79	192	0
NMSI_	79	192	0	96	48	3
NMSI_	79	192	0	96	48	5
NMTAP	79	240	1
NMTAP	79	240	7
NMTAP	79	288	0
NMTAP	80	0	2
NMTAP	80	0	6
NMTAP	80	48	5
NMTAP	80	72	3
NMTAP	80	72	5
NMTAP	80	120	2
NMTAP	80	144	2
NMTAP	80	168	3
NMTAP	80	192	3
NMTAP	80	216	1
NMTAP	80	264	6
NMTAP	80	288	7
NMTAP	80	336	0
NMTAP	80	336	5
NMTAP	81	0	1
NMTAP	81	0	4
NMTAP	81	48	2
NMTAP	81	72	2
NMTAP	81	72	3
NMTAP	81	120	5
NMTAP	81	144	5
NMTAP	81	168	3
NMSTR	81	192	4
NMSI_	81	192	4	96	48	1
NMSI_	81	192	4	96	48	7
NMTAP	81	240	3
NMTAP	81	240	5
NMTAP	81	288	4
NMTAP	82	0	2
NMTAP	82	0	6
NMTAP	82	48	5
NMTAP	82	72	3
NMTAP	82	72	5
NMTAP	82	120	1
NMTAP	82	144	1
NMTAP	82	168	3
NMTAP	82	192	3
NMTAP	82	216	2
NMTAP	82	264	5
NMTAP	82	288	4
NMTAP	82	336	1
NMTAP	82	336	7
NMTAP	83	0	0
NMTAP	83	24	6
NMTAP	83	48	0
NMTAP	83	72	6
EXTAP	83	96	1
EXTAP	83	96	5
NMTAP	83	192	2
NMTAP	83	208	4
NMTAP	83	224	2
NMTAP	83	240	4
NMTAP	83	256	2
NMTAP	83	272	4
NMSTR	83	288	3
NMSCL	83	288	3	96	96	5
NMTAP	83	304	5
NMTAP	83	320	3
NMTAP	83	336	5
NMTAP	83	352	3
NMTAP	83	368	5
BRTAP	84	0	3
NMTAP	84	192	6
NMTAP	84	216	7
NMTAP	84	264	1
NMSTR	84	288	0
NMSCL	84	288	0	96	48	5
NMSCR	84	288	0	96	48	3
NMTAP	84	336	1
NMTAP	84	336	7
EXTAP	85	0	0
NMTAP	85	96	1
NMTAP	85	96	7
NMTAP	85	192	2
NMTAP	85	192	3
NMTAP	85	240	2
NMTAP	85	240	3
NMTAP	85	288	3
NMTAP	85	288	4
NMTAP	85	336	3
NMTAP	85	336	4
NMTAP	86	0	4
NMTAP	86	0	5
NMTAP	86	48	4
NMTAP	86	48	5
NMSTR	86	96	3
NMSI_	86	96	3	96	48	1
NMTAP	86	144	6
NMTAP	86	192	3
NMSTR	86	192	7
NMSI_	86	192	7	96	48	3
NMSTR	86	288	0
NMSI_	86	288	0	96	48	4
NMTAP	86	288	7
NMTAP	87	0	0
NMSTR	87	0	4
BRSF_	87	0	4	96	48	0
BRTAP	87	192	2
BRTAP	87	192	6
NMTAP	87	240	4
NMSTR	87	288	1
NMSI_	87	288	1	96	48	4
NMTAP	87	288	5
NMTAP	87	336	3
NMTAP	88	0	0
NMTAP	88	0	1
NMTAP	88	48	7
NMTAP	88	96	3
NMSTR	88	96	6
NMSI_	88	96	6	96	48	0
NMSTR	88	192	2
BRSI_	88	192	2	96	48	4
NMTAP	88	192	6
NMTAP	88	240	1
NMTAP	88	288	2
NMSTR	88	288	6
NMSI_	88	288	6	96	48	3
CNSI_	88	336	4	0	48	1
NMTAP	88	336	5
CNSI_	89	0	1	0	48	7
NMTAP	89	0	6
NMSTR	89	96	1
NMSCL	89	96	1	96	96	5
EXTAP	89	96	5
NMTAP	89	192	4
NMTAP	89	240	3
NMTAP	89	288	2
CNSCR	89	288	5	0	96	1
NMTAP	89	336	3
NMTAP	90	0	4
NMTAP	90	48	4
NMTAP	90	96	1
NMSTR	90	96	5
NMSI_	90	96	5	96	48	0
NMSTR	90	192	5
NMSI_	90	192	5	96	48	3
NMTAP	90	240	3
NMSTR	90	288	5
NMSLR	90	288	5	96	96	2
NMTAP	90	336	1
NMTAP	91	0	2
BRTAP	91	0	5
CNSLL	91	96	2	0	96	4
NMTAP	91	96	3
NMTAP	91	192	2
NMTAP	91	240	1
NMSTR	91	288	0
NMSI_	91	288	0	96	48	3
NMSTR	91	288	7
NMSI_	91	288	7	96	48	4
NMTAP	91	336	6
NMTAP	92	0	0
NMTAP	92	0	7
NMSTR	92	96	1
NMSCR	92	96	1	96	48	4
NMTAP	92	96	6
NMSTR	92	192	1
NMSCL	92	192	1	96	48	6
NMTAP	92	240	7
NMSTR	92	288	1
NMSLR	92	288	1	96	96	7
NMTAP	92	336	3
NMTAP	93	0	1
NMTAP	93	48	4
NMTAP	93	96	5
NMTAP	93	144	1
NMTAP	93	144	6
NMSTR	93	192	2
NMSI_	93	192	2	96	48	0
NMSTR	93	192	7
NMSI_	93	192	7	96	48	3
NMTAP	93	240	0
NMTAP	93	240	3
NMTAP	93	288	2
NMTAP	93	288	7
NMSTR	94	0	2
NMSI_	94	0	2	96	48	7
NMTAP	94	0	5
NMTAP	94	48	3
NMTAP	94	48	4
NMTAP	94	96	2
NMSTR	94	96	5
NMSI_	94	96	5	96	48	3
NMTAP	94	144	6
BRSTR	94	192	2
BRSI_	94	192	2	96	48	6
NMTAP	94	192	5
BRSTR	94	288	0
NMSCL	94	288	0	96	48	5
NMTAP	94	288	2
BRTAP	95	0	0
BRSTR	95	0	4
BRSF_	95	0	4	96	48	0
BRTAP	95	192	2
BRTAP	95	192	6
NMSTR	95	288	1
NMSCR	95	288	1	96	48	4
NMTAP	95	336	0
NMTAP	96	0	7
NMTAP	96	48	6
NMHLD	96	96	5	96
NMTAP	96	192	4
NMTAP	96	240	3
NMTAP	96	288	4
NMSTR	96	288	6
NMSSL	96	288	6	96	120	2
NMTAP	96	336	7
EXTAP	97	0	2
EXTAP	97	48	1
EXTAP	97	96	1
NMSTR	97	192	0
NMSCL	97	192	0	96	48	5
NMTAP	97	240	1
NMTAP	97	288	2
NMTAP	97	336	3
NMSTR	98	0	4
NMSCL	98	0	4	96	48	1
NMTAP	98	48	5
NMHLD	98	96	6	96
NMSTR	98	192	0
NMSI_	98	192	0	96	48	6
NMTAP	98	240	0
NMSTR	98	288	4
NMSI_	98	288	4	96	48	0
NMTAP	98	336	4
NMTAP	99	0	1
NMTAP	99	48	2
NMTAP	99	96	3
NMTAP	99	96	7
NMTAP	99	144	6
BRTAP	99	192	1
BRTAP	99	192	5
NMSTR	99	288	6
NMSCL	99	288	6	96	48	3
NMTAP	99	336	7
NMTAP	100	0	0
NMTAP	100	48	1
NMHLD	100	96	2	96
NMTAP	100	192	3
NMTAP	100	240	4
NMSTR	100	288	1
NMSI_	100	288	1	96	48	5
NMTAP	100	288	3
NMTAP	100	336	0
EXTAP	101	0	1
EXTAP	101	0	7
NMSTR	101	96	6
NMSCL	101	96	6	96	48	3
NMTAP	101	144	7
NMSTR	101	192	0
NMSI_	101	192	0	96	48	4
NMTAP	101	192	6
NMTAP	101	240	1
NMTAP	101	288	0
NMTAP	101	288	7
NMTAP	102	0	2
NMTAP	102	0	6
NMTAP	102	48	1
NMTAP	102	48	5
NMSTR	102	96	0
NMSCR	102	96	0	96	48	3
NMSTR	102	96	4
NMSCR	102	96	4	96	48	7
NMTAP	102	144	3
NMTAP	102	144	7
BRSTR	102	192	0
NMSV_	102	192	0	96	48	5
BRSTR	102	192	4
NMSV_	102	192	4	96	48	1
BRTAP	102	288	0
BRTAP	102	288	4
BRTAP	103	0	2
BRTAP	103	0	6
NMTAP	103	96	0
NMTAP	103	96	4
NMTAP	103	192	1
NMTAP	103	208	3
NMTAP	103	224	1
NMTAP	103	240	3
NMTAP	103	256	1
NMTAP	103	272	3
NMTAP	103	288	1
NMTAP	103	304	3
NMTAP	103	320	1
NMTAP	103	336	3
NMTAP	103	352	2
NMTAP	103	368	3
NMTAP	104	0	2
NMTAP	104	16	3
NMTAP	104	32	2
NMTAP	104	48	3
NMTAP	104	64	2
NMTAP	104	80	3
NMTAP	104	96	1
NMTAP	104	112	3
NMTAP	104	128	1
NMTAP	104	144	3
NMTAP	104	160	1
NMTAP	104	176	3
BRSTR	104	192	0
NMSI_	104	192	0	96	48	4
NMSTR	104	288	0
NMSCL	104	288	0	96	48	5
BRSTR	104	288	7
NMSCR	104	288	7	96	48	2
BRTAP	105	0	0
NMSTR	105	0	7
BRSF_	105	0	7	96	48	3
NMTTP	105	96	2	B	0	M1
NMTTP	105	96	3	B	1	M1
NMTTP	105	96	4	B	0	M1
NMTAP	105	96	7

T_REC_TAP	525
T_REC_BRK	21
T_REC_XTP	22
T_REC_BXX	2
T_REC_HLD	53
T_REC_XHO	1
T_REC_BHO	0
T_REC_BXH	1
T_REC_STR	122
T_REC_BST	14
T_REC_XST	6
T_REC_XBS	0
T_REC_TTP	70
T_REC_THO	0
T_REC_SLD	131
T_REC_BSL	16
T_REC_ALL	984
T_NUM_TAP	745
T_NUM_BRK	54
T_NUM_HLD	54
T_NUM_SLD	131
T_NUM_ALL	984
T_JUDGE_TAP	782
T_JUDGE_HLD	152
T_JUDGE_SLD	147
T_JUDGE_ALL	1081
TTM_EACHPAIRS	176
TTM_SCR_TAP	372500
TTM_SCR_BRK	140400
TTM_SCR_HLD	54000
TTM_SCR_SLD	196500
TTM_SCR_ALL	763400
TTM_SCR_S	735300
TTM_SCR_SS	758000
TTM_RAT_ACV	10071

