VERSION	0.00.00	1.04.00
FES_MODE	0
BPM_DEF	163.000	163.000	163.000	163.000
MET_DEF	4	4
RESOLUTION	384
CLK_DEF	384
COMPATIBLE_CODE	MA2

BPM	0	0	163.000
MET	0	0	4	4
MET	63	0	4	3
MET	79	192	4	4

NMTTP	2	0	5	B	0	M1
NMTTP	2	192	6	B	0	M1
NMTTP	3	0	7	B	0	M1
NMTTP	3	192	0	B	0	M1
NMTTP	4	0	1	B	0	M1
NMTTP	4	192	2	B	0	M1
NMTAP	5	0	3
NMTAP	5	0	5
NMTAP	5	96	3
NMTAP	5	96	5
EXTAP	5	192	2
EXTAP	5	192	6
NMTAP	6	0	1
NMTAP	6	48	1
NMTAP	6	96	0
NMTAP	6	192	6
NMTAP	6	240	6
NMTAP	6	288	7
NMTAP	7	0	5
NMTAP	7	48	5
NMTAP	7	96	4
NMTAP	7	192	3
NMTAP	7	192	6
NMTAP	8	0	6
NMTAP	8	48	6
NMTAP	8	96	7
NMTAP	8	192	1
NMTAP	8	240	1
NMTAP	8	288	0
NMTAP	9	0	2
NMTAP	9	48	2
NMTAP	9	96	3
NMTAP	9	192	1
NMTAP	9	192	4
NMTAP	10	0	5
NMTAP	10	48	5
NMTAP	10	96	3
NMTAP	10	144	3
NMTAP	10	192	4
NMTAP	10	240	4
NMTAP	10	288	2
NMTAP	11	0	1
NMTAP	11	0	3
NMTAP	11	96	3
NMTAP	11	96	4
NMTAP	11	192	4
NMTAP	11	192	6
NMSTR	12	0	6
NMSI_	12	0	6	96	96	4
NMSTR	12	192	0
NMSI_	12	192	0	96	96	2
NMSTR	13	0	7
NMSI_	13	0	7	96	96	3
BRTAP	13	192	1
NMTAP	14	0	2
NMHLD	14	96	2	576
NMTAP	14	192	3
NMTAP	14	288	3
NMTAP	15	0	1
NMTAP	15	96	1
NMTAP	15	192	3
NMTAP	15	288	3
NMTAP	16	0	5
NMHLD	16	96	5	1152
NMTAP	16	192	3
NMTAP	16	288	3
BXTAP	17	0	2
BXTAP	17	96	2
BXTAP	17	192	4
BXHLD	17	288	4	576
NMTAP	19	192	3
NMTAP	19	192	4
NMTAP	19	288	3
NMTAP	19	288	4
NMHLD	20	0	1	96
NMTAP	20	96	3
NMHLD	20	192	6	96
NMTAP	20	288	4
NMTAP	21	0	3
NMTAP	21	0	4
NMTAP	21	96	3
NMTAP	21	96	4
BRTAP	21	192	1
BRTAP	21	192	6
NMTAP	22	0	0
NMTAP	22	0	7
NMTAP	22	96	1
NMTAP	22	144	1
NMTAP	22	192	3
NMTAP	22	288	2
NMTAP	22	288	4
NMTAP	23	0	3
NMTAP	23	0	5
NMTAP	23	96	6
NMTAP	23	144	6
NMTAP	23	192	4
NMTAP	23	288	4
NMTAP	23	288	6
NMTAP	24	0	4
NMTAP	24	0	5
NMTAP	24	96	4
NMTAP	24	96	5
NMTAP	24	192	2
NMTAP	24	192	3
NMTAP	24	288	2
NMSTR	24	288	3
NMSXL	24	288	3	96	288	3
NMSXR	24	288	3	96	288	3
NMTAP	26	0	2
NMTAP	26	0	4
NMTAP	26	96	1
NMTAP	26	144	1
NMTAP	26	192	3
NMTAP	26	288	2
NMTAP	26	288	3
NMTAP	27	0	3
NMTAP	27	0	4
NMTAP	27	96	5
NMTAP	27	144	5
NMTAP	27	192	4
NMSTR	27	288	3
NMSXR	27	288	3	96	288	4
NMTAP	27	288	6
NMTTP	29	0	6	B	0	M1
NMTTP	29	96	1	B	0	M1
NMTTP	29	192	3	B	0	M1
NMTTP	29	192	3	E	0	M1
NMTTP	29	192	4	E	1	M1
BRTAP	30	0	6
NMTAP	30	48	6
NMTAP	30	96	6
NMTAP	30	96	7
NMTAP	30	192	1
NMTAP	30	240	1
NMTAP	30	288	0
NMTAP	30	288	1
NMTAP	31	0	2
NMTAP	31	0	3
NMTAP	31	96	4
NMTAP	31	96	5
NMTAP	31	192	6
NMTAP	31	192	7
NMTAP	31	288	0
NMTAP	31	288	5
NMTAP	32	0	6
NMTAP	32	48	6
NMTAP	32	96	4
NMTAP	32	96	6
NMTAP	32	192	1
NMTAP	32	240	1
NMTAP	32	288	1
NMTAP	32	288	3
NMTAP	33	0	6
NMTAP	33	0	7
NMTAP	33	96	4
NMTAP	33	96	5
BRTAP	33	192	3
BRTAP	33	192	7
NMTAP	34	0	1
NMTAP	34	48	1
NMTAP	34	96	0
NMTAP	34	96	2
NMTAP	34	192	6
NMTAP	34	240	6
NMTAP	34	288	5
NMTAP	34	288	7
NMTAP	35	0	4
NMTAP	35	0	5
NMTAP	35	96	2
NMTAP	35	96	3
NMTAP	35	192	0
NMTAP	35	192	1
NMTAP	35	288	2
NMTAP	35	288	7
NMSTR	36	0	1
NMSI_	36	0	1	96	96	6
NMSTR	36	192	5
BRSCL	36	192	5	96	96	2
NMTAP	37	0	0
NMTAP	37	96	0
NMTAP	37	192	2
NMTAP	37	192	6
EXTAP	38	0	1
EXHLD	38	96	1	576
NMTTP	38	288	3	E	0	M1
NMTTP	39	96	2	E	0	M1
NMTTP	39	288	1	E	0	M1
NMTAP	40	0	6
NMHLD	40	96	6	576
NMTTP	40	288	5	E	0	M1
NMTTP	41	96	6	E	0	M1
NMTTP	41	288	7	E	0	M1
NMTAP	42	0	0
NMHLD	42	96	0	576
NMTAP	42	288	2
NMTAP	43	96	4
NMTAP	43	288	5
EXTAP	44	0	6
EXTAP	44	32	7
EXTAP	44	64	6
EXTAP	44	96	7
EXTAP	44	192	1
EXTAP	44	224	0
EXTAP	44	256	1
EXTAP	44	288	0
BXTAP	45	0	0
NMTAP	45	0	7
BXTAP	45	96	1
NMTAP	45	96	6
BXTAP	45	192	2
NMTAP	45	192	5
NMTAP	46	0	2
NMTAP	46	0	3
NMTAP	46	96	1
NMTAP	46	144	1
NMTAP	46	192	0
NMTAP	46	288	0
NMTAP	46	288	7
NMTAP	47	0	6
NMTAP	47	0	7
NMTAP	47	96	5
NMTAP	47	144	5
NMTAP	47	192	4
NMTAP	47	288	3
NMTAP	47	288	6
NMTAP	48	0	4
NMTAP	48	0	5
NMTAP	48	96	3
NMTAP	48	144	4
EXHLD	48	192	2	96
EXHLD	48	192	5	96
BXTAP	49	0	2
BXTAP	49	0	3
BXTAP	49	96	2
BXTAP	49	96	3
BXTAP	49	192	4
BXTAP	49	192	5
BXTAP	49	288	4
BXTAP	49	288	5
NMTAP	50	0	6
NMTAP	50	0	7
NMTAP	50	96	6
NMTAP	50	144	6
NMTAP	50	192	7
NMSTR	50	288	0
NMSUL	50	288	0	96	192	7
NMTAP	50	288	7
NMTAP	51	288	0
NMTAP	51	288	7
NMTAP	52	0	0
NMTAP	52	0	1
NMTAP	52	96	1
NMTAP	52	144	1
NMHLD	52	192	3	96
NMTAP	52	288	2
NMTAP	53	0	1
NMTAP	53	0	4
NMTAP	53	96	3
NMTAP	53	96	6
NMHLD	53	192	0	96
NMHLD	53	192	7	96
BRTAP	54	0	0
BRSTR	54	0	1
NMSI_	54	0	1	96	48	4
NMSTR	54	192	6
NMSI_	54	192	6	96	48	3
NMTAP	54	192	7
NMTAP	55	0	0
NMTAP	55	0	1
NMTAP	55	96	0
NMTAP	55	96	1
NMTAP	55	192	2
NMTAP	55	192	7
NMTAP	55	288	0
NMTAP	55	288	5
NMSTR	56	0	6
NMSI_	56	0	6	96	48	3
NMTAP	56	0	7
NMTAP	56	192	0
NMSTR	56	192	1
NMSI_	56	192	1	96	48	4
NMTAP	57	0	6
NMTAP	57	0	7
NMTAP	57	96	6
NMTAP	57	96	7
BRTAP	57	192	0
BRTAP	57	192	5
NMSTR	58	0	0
NMSI_	58	0	0	96	48	4
NMSTR	58	0	1
NMSI_	58	0	1	96	48	4
NMSTR	58	192	6
NMSI_	58	192	6	96	48	3
NMSTR	58	192	7
NMSI_	58	192	7	96	48	3
NMTAP	59	0	0
NMTAP	59	0	1
NMTAP	59	96	0
NMTAP	59	96	1
NMTAP	59	192	6
NMTAP	59	192	7
NMTAP	59	288	6
NMTAP	59	288	7
NMHLD	60	0	0	96
NMTAP	60	0	5
NMTAP	60	96	3
NMTAP	60	192	1
NMHLD	60	192	7	96
NMTAP	60	288	4
NMTAP	61	0	4
NMTAP	61	0	6
NMTAP	61	96	1
NMTAP	61	96	3
NMTTP	61	192	0	B	0	M1
NMTTP	61	192	0	E	1	M1
NMTTP	61	192	1	E	0	M1
NMTTP	61	192	7	B	0	M1
NMTTP	61	192	7	E	0	M1
NMHLD	64	192	5	192
NMTAP	64	288	4
NMTAP	65	0	4
NMTAP	65	192	4
NMTAP	65	192	5
NMTAP	65	288	4
NMTAP	65	288	5
NMHLD	66	0	2	192
NMTAP	66	96	3
NMTAP	66	192	3
NMTAP	67	0	2
NMTAP	67	0	3
NMSTR	67	96	2
NMSUL	67	96	2	96	240	5
NMHLD	67	96	3	960
NMTAP	68	192	4
NMSTR	68	288	4
NMSUR	68	288	4	96	240	1
NMTAP	70	0	2
NMTAP	70	0	3
NMSTR	70	96	2
NMSV_	70	96	2	96	144	4
NMHLD	70	96	3	960
CNSI_	70	336	4	0	144	6
NMTAP	71	192	7
NMSTR	71	288	7
NMSI_	71	288	7	96	144	4
CNSI_	72	144	4	0	144	2
NMTAP	73	0	1
NMTAP	73	0	4
NMHLD	73	96	1	960
NMSTR	73	96	4
NMSLR	73	96	4	96	288	3
NMTAP	74	192	2
NMSTR	74	288	2
NMSLL	74	288	2	96	288	5
NMTAP	76	0	3
NMTAP	76	0	6
NMSTR	76	96	3
NMSLR	76	96	3	96	264	1
NMHLD	76	96	6	1056
CNSI_	77	72	1	0	120	7
CNSLR	77	192	7	0	192	5
CNSI_	78	0	5	0	384	3
NMTAP	79	192	2
NMTAP	79	192	4
NMTAP	79	288	1
NMTAP	79	336	1
NMTAP	80	0	0
NMTAP	80	96	6
NMTAP	80	96	7
NMTAP	80	192	6
NMTAP	80	192	7
NMTAP	80	288	5
NMTAP	80	288	7
NMTAP	81	0	4
NMTAP	81	0	7
NMTAP	81	96	4
NMTAP	81	96	7
NMTAP	81	192	0
NMTAP	81	192	6
NMTAP	81	288	7
NMTAP	81	336	7
NMTAP	82	0	0
NMTAP	82	96	0
NMTAP	82	96	1
NMTAP	82	192	0
NMTAP	82	192	1
NMTAP	82	288	0
NMTAP	82	288	2
NMTAP	83	0	0
NMTAP	83	0	3
NMTAP	83	96	0
NMSTR	83	96	3
NMSCL	83	96	3	96	192	4
NMTTP	84	0	6	B	0	M1
NMTTP	84	0	7	B	0	M1
NMTTP	84	0	7	E	1	M1
NMTAP	84	192	2
NMTAP	84	192	3
NMTAP	84	288	1
NMTAP	84	336	1
NMTAP	85	0	0
NMTAP	85	0	1
NMTAP	85	96	0
NMTAP	85	96	7
NMTAP	85	192	6
NMTAP	85	192	7
NMTAP	85	288	6
NMTAP	85	336	6
NMTAP	86	0	7
NMTAP	86	96	0
NMTAP	86	96	7
NMTAP	86	192	0
NMTAP	86	192	1
NMTAP	86	288	6
NMTAP	86	288	7
NMTTP	87	0	2	B	0	M1
NMTTP	87	0	3	B	0	M1
NMTTP	87	0	4	B	1	M1
NMTTP	87	0	5	B	0	M1
NMSTR	87	192	0
NMSI_	87	192	0	96	48	5
NMSTR	87	192	1
NMSI_	87	192	1	96	48	4
NMSTR	88	0	6
NMSI_	88	0	6	96	48	3
NMSTR	88	0	7
NMSI_	88	0	7	96	48	2
NMTAP	88	192	0
NMTAP	88	192	1
NMTAP	88	288	0
NMTAP	88	288	1
NMTAP	89	0	2
NMTAP	89	0	7
NMTAP	89	96	0
NMTAP	89	96	5
NMSTR	89	192	6
NMSI_	89	192	6	96	48	3
NMSTR	89	192	7
NMSI_	89	192	7	96	48	2
NMSTR	90	0	0
NMSI_	90	0	0	96	48	5
NMSTR	90	0	1
NMSI_	90	0	1	96	48	4
NMTAP	90	192	6
NMTAP	90	192	7
NMTAP	90	288	6
NMTAP	90	288	7
BRTAP	91	0	1
BRTAP	91	0	4
NMSTR	91	192	2
NMSI_	91	192	2	96	48	7
NMSTR	91	192	3
NMSI_	91	192	3	96	48	7
NMSTR	92	0	4
NMSI_	92	0	4	96	48	0
NMSTR	92	0	5
NMSI_	92	0	5	96	48	0
NMTAP	92	192	2
NMTAP	92	192	3
NMTAP	92	288	0
NMTAP	92	288	1
NMTAP	93	0	6
NMTAP	93	0	7
NMTAP	93	96	4
NMTAP	93	96	5
NMHLD	93	192	1	96
NMTAP	93	192	7
NMTAP	93	288	3
NMTAP	94	0	0
NMHLD	94	0	6	96
NMTAP	94	96	4
NMTAP	94	192	0
NMTAP	94	192	2
NMTAP	94	288	5
NMTAP	94	288	7
BRTAP	95	0	2
BRTAP	95	0	6
BRTAP	95	192	0
BRTAP	95	192	1
NMTAP	95	288	2
NMTAP	95	336	2
NMTAP	96	0	3
NMTAP	96	96	4
NMTAP	96	96	5
NMSTR	96	192	5
NMSCR	96	192	5	96	96	0
NMSTR	97	0	1
NMSCR	97	0	1	96	96	4
NMTAP	97	192	6
NMTAP	97	288	5
NMTAP	97	336	5
NMTAP	98	0	4
NMTAP	98	96	2
NMTAP	98	96	3
NMSTR	98	192	2
NMSV_	98	192	2	96	96	7
NMSTR	99	0	6
NMSCL	99	0	6	96	96	3
NMTAP	99	192	2
NMTAP	99	288	1
NMTAP	99	336	1
NMTAP	100	0	0
NMTAP	100	96	6
NMTAP	100	96	7
NMSTR	100	192	6
NMSCL	100	192	6	96	168	1
NMSTR	101	192	1
NMSI_	101	192	1	96	96	4
NMSTR	102	0	6
NMSI_	102	0	6	96	96	3
NMTAP	102	192	2
NMTAP	102	288	0
NMTAP	102	288	1
BRTAP	103	0	2
BRTAP	103	0	6
EXTAP	103	192	1
EXTAP	103	240	2
EXTAP	103	288	3
EXTAP	103	336	4
EXTAP	104	0	5
EXTAP	104	48	6
EXTAP	104	96	7
EXSTR	104	192	2
NMSI_	104	192	2	96	48	5
EXSTR	104	192	6
NMSI_	104	192	6	96	48	1
BXTAP	105	0	3
BXTAP	105	0	7
EXTAP	105	96	1
EXTAP	105	96	5

T_REC_TAP	329
T_REC_BRK	17
T_REC_XTP	20
T_REC_BXX	16
T_REC_HLD	19
T_REC_XHO	3
T_REC_BHO	0
T_REC_BXH	1
T_REC_STR	42
T_REC_BST	1
T_REC_XST	2
T_REC_XBS	0
T_REC_TTP	29
T_REC_THO	0
T_REC_SLD	45
T_REC_BSL	1
T_REC_ALL	525
T_NUM_TAP	422
T_NUM_BRK	36
T_NUM_HLD	22
T_NUM_SLD	45
T_NUM_ALL	525
T_JUDGE_TAP	456
T_JUDGE_HLD	196
T_JUDGE_SLD	46
T_JUDGE_ALL	698
TTM_EACHPAIRS	144
TTM_SCR_TAP	211000
TTM_SCR_BRK	93600
TTM_SCR_HLD	22000
TTM_SCR_SLD	67500
TTM_SCR_ALL	394100
TTM_SCR_S	378800
TTM_SCR_SS	390500
TTM_RAT_ACV	10092

